  0
SECTION
  2
HEADER
  9
$ACADVER
  1
AC1015
  9
$ACADMAINTVER
 70
     6
  9
$DWGCODEPAGE
  3
ANSI_1252
  9
$INSBASE
 10
0.0
 20
0.0
 30
0.0
  9
$EXTMIN
 10
0.0
 20
0.0
 30
0.0
  9
$EXTMAX
 10
197.5066684218749
 20
287.0
 30
0.0
  9
$LIMMIN
 10
0.0
 20
0.0
  9
$LIMMAX
 10
12.0
 20
9.0
  9
$ORTHOMODE
 70
     0
  9
$REGENMODE
 70
     1
  9
$FILLMODE
 70
     1
  9
$QTEXTMODE
 70
     0
  9
$MIRRTEXT
 70
     1
  9
$LTSCALE
 40
1.0
  9
$ATTMODE
 70
     1
  9
$TEXTSIZE
 40
0.2
  9
$TRACEWID
 40
0.05
  9
$TEXTSTYLE
  7
Standard
  9
$CLAYER
  8
0
  9
$CELTYPE
  6
ByLayer
  9
$CECOLOR
 62
   256
  9
$CELTSCALE
 40
1.0
  9
$DISPSILH
 70
     0
  9
$DIMSCALE
 40
1.0
  9
$DIMASZ
 40
0.18
  9
$DIMEXO
 40
0.0625
  9
$DIMDLI
 40
0.38
  9
$DIMRND
 40
0.0
  9
$DIMDLE
 40
0.0
  9
$DIMEXE
 40
0.18
  9
$DIMTP
 40
0.0
  9
$DIMTM
 40
0.0
  9
$DIMTXT
 40
0.18
  9
$DIMCEN
 40
0.09
  9
$DIMTSZ
 40
0.0
  9
$DIMTOL
 70
     0
  9
$DIMLIM
 70
     0
  9
$DIMTIH
 70
     1
  9
$DIMTOH
 70
     1
  9
$DIMSE1
 70
     0
  9
$DIMSE2
 70
     0
  9
$DIMTAD
 70
     0
  9
$DIMZIN
 70
     0
  9
$DIMBLK
  1

  9
$DIMASO
 70
     1
  9
$DIMSHO
 70
     1
  9
$DIMPOST
  1

  9
$DIMAPOST
  1

  9
$DIMALT
 70
     0
  9
$DIMALTD
 70
     2
  9
$DIMALTF
 40
25.4
  9
$DIMLFAC
 40
1.0
  9
$DIMTOFL
 70
     0
  9
$DIMTVP
 40
0.0
  9
$DIMTIX
 70
     0
  9
$DIMSOXD
 70
     0
  9
$DIMSAH
 70
     0
  9
$DIMBLK1
  1

  9
$DIMBLK2
  1

  9
$DIMSTYLE
  2
Standard
  9
$DIMCLRD
 70
     0
  9
$DIMCLRE
 70
     0
  9
$DIMCLRT
 70
     0
  9
$DIMTFAC
 40
1.0
  9
$DIMGAP
 40
0.09
  9
$DIMJUST
 70
     0
  9
$DIMSD1
 70
     0
  9
$DIMSD2
 70
     0
  9
$DIMTOLJ
 70
     1
  9
$DIMTZIN
 70
     0
  9
$DIMALTZ
 70
     0
  9
$DIMALTTZ
 70
     0
  9
$DIMUPT
 70
     0
  9
$DIMDEC
 70
     4
  9
$DIMTDEC
 70
     4
  9
$DIMALTU
 70
     2
  9
$DIMALTTD
 70
     2
  9
$DIMTXSTY
  7
Standard
  9
$DIMAUNIT
 70
     0
  9
$DIMADEC
 70
     0
  9
$DIMALTRND
 40
0.0
  9
$DIMAZIN
 70
     0
  9
$DIMDSEP
 70
    46
  9
$DIMATFIT
 70
     3
  9
$DIMFRAC
 70
     0
  9
$DIMLDRBLK
  1

  9
$DIMLUNIT
 70
     2
  9
$DIMLWD
 70
    -2
  9
$DIMLWE
 70
    -2
  9
$DIMTMOVE
 70
     0
  9
$LUNITS
 70
     2
  9
$LUPREC
 70
     4
  9
$SKETCHINC
 40
0.1
  9
$FILLETRAD
 40
0.5
  9
$AUNITS
 70
     0
  9
$AUPREC
 70
     0
  9
$MENU
  1
.
  9
$ELEVATION
 40
0.0
  9
$PELEVATION
 40
0.0
  9
$THICKNESS
 40
0.0
  9
$LIMCHECK
 70
     0
  9
$CHAMFERA
 40
0.5
  9
$CHAMFERB
 40
0.5
  9
$CHAMFERC
 40
1.0
  9
$CHAMFERD
 40
0.0
  9
$SKPOLY
 70
     0
  9
$TDCREATE
 40
2456666.354987708
  9
$TDUCREATE
 40
2456666.313321042
  9
$TDUPDATE
 40
2456666.35498772
  9
$TDUUPDATE
 40
2456666.313321053
  9
$TDINDWG
 40
0.0000000116
  9
$TDUSRTIMER
 40
0.0000000116
  9
$USRTIMER
 70
     1
  9
$ANGBASE
 50
0.0
  9
$ANGDIR
 70
     0
  9
$PDMODE
 70
     0
  9
$PDSIZE
 40
0.0
  9
$PLINEWID
 40
0.0
  9
$SPLFRAME
 70
     0
  9
$SPLINETYPE
 70
     6
  9
$SPLINESEGS
 70
     8
  9
$HANDSEED
  5
3F3
  9
$SURFTAB1
 70
     6
  9
$SURFTAB2
 70
     6
  9
$SURFTYPE
 70
     6
  9
$SURFU
 70
     6
  9
$SURFV
 70
     6
  9
$UCSBASE
  2

  9
$UCSNAME
  2

  9
$UCSORG
 10
0.0
 20
0.0
 30
0.0
  9
$UCSXDIR
 10
1.0
 20
0.0
 30
0.0
  9
$UCSYDIR
 10
0.0
 20
1.0
 30
0.0
  9
$UCSORTHOREF
  2

  9
$UCSORTHOVIEW
 70
     0
  9
$UCSORGTOP
 10
0.0
 20
0.0
 30
0.0
  9
$UCSORGBOTTOM
 10
0.0
 20
0.0
 30
0.0
  9
$UCSORGLEFT
 10
0.0
 20
0.0
 30
0.0
  9
$UCSORGRIGHT
 10
0.0
 20
0.0
 30
0.0
  9
$UCSORGFRONT
 10
0.0
 20
0.0
 30
0.0
  9
$UCSORGBACK
 10
0.0
 20
0.0
 30
0.0
  9
$PUCSBASE
  2

  9
$PUCSNAME
  2

  9
$PUCSORG
 10
0.0
 20
0.0
 30
0.0
  9
$PUCSXDIR
 10
1.0
 20
0.0
 30
0.0
  9
$PUCSYDIR
 10
0.0
 20
1.0
 30
0.0
  9
$PUCSORTHOREF
  2

  9
$PUCSORTHOVIEW
 70
     0
  9
$PUCSORGTOP
 10
0.0
 20
0.0
 30
0.0
  9
$PUCSORGBOTTOM
 10
0.0
 20
0.0
 30
0.0
  9
$PUCSORGLEFT
 10
0.0
 20
0.0
 30
0.0
  9
$PUCSORGRIGHT
 10
0.0
 20
0.0
 30
0.0
  9
$PUCSORGFRONT
 10
0.0
 20
0.0
 30
0.0
  9
$PUCSORGBACK
 10
0.0
 20
0.0
 30
0.0
  9
$USERI1
 70
     0
  9
$USERI2
 70
     0
  9
$USERI3
 70
     0
  9
$USERI4
 70
     0
  9
$USERI5
 70
     0
  9
$USERR1
 40
17.0
  9
$USERR2
 40
0.0
  9
$USERR3
 40
0.0
  9
$USERR4
 40
0.0
  9
$USERR5
 40
0.0
  9
$WORLDVIEW
 70
     1
  9
$SHADEDGE
 70
     3
  9
$SHADEDIF
 70
    70
  9
$TILEMODE
 70
     1
  9
$MAXACTVP
 70
    64
  9
$PINSBASE
 10
0.0
 20
0.0
 30
0.0
  9
$PLIMCHECK
 70
     0
  9
$PEXTMIN
 10
1.00000000000000E+20
 20
1.00000000000000E+20
 30
1.00000000000000E+20
  9
$PEXTMAX
 10
-1.00000000000000E+20
 20
-1.00000000000000E+20
 30
-1.00000000000000E+20
  9
$PLIMMIN
 10
0.0
 20
0.0
  9
$PLIMMAX
 10
12.0
 20
9.0
  9
$UNITMODE
 70
     0
  9
$VISRETAIN
 70
     1
  9
$PLINEGEN
 70
     0
  9
$PSLTSCALE
 70
     1
  9
$TREEDEPTH
 70
  3020
  9
$CMLSTYLE
  2
Standard
  9
$CMLJUST
 70
     0
  9
$CMLSCALE
 40
1.0
  9
$PROXYGRAPHICS
 70
     1
  9
$MEASUREMENT
 70
     1
  9
$CELWEIGHT
370
    -1
  9
$ENDCAPS
280
     0
  9
$JOINSTYLE
280
     0
  9
$LWDISPLAY
290
     0
  9
$INSUNITS
 70
     1
  9
$HYPERLINKBASE
  1

  9
$STYLESHEET
  1

  9
$XEDIT
290
     1
  9
$CEPSNTYPE
380
     0
  9
$PSTYLEMODE
290
     1
  9
$FINGERPRINTGUID
  2
{18793988-F09E-4F84-B8FC-8C6A3C59912E}
  9
$VERSIONGUID
  2
{FAEB1C32-E019-11D5-929B-00C0DF256EC4}
  9
$EXTNAMES
290
     1
  9
$PSVPSCALE
 40
0.0
  9
$OLESTARTUP
290
     0
  0
ENDSEC
  0
SECTION
  2
CLASSES
  0
CLASS
  1
ACDBDICTIONARYWDFLT
  2
AcDbDictionaryWithDefault
  3
ObjectDBX Classes
 90
        0
280
     0
281
     0
  0
CLASS
  1
VISUALSTYLE
  2
AcDbVisualStyle
  3
ObjectDBX Classes
 90
     4095
280
     0
281
     0
  0
CLASS
  1
MATERIAL
  2
AcDbMaterial
  3
ObjectDBX Classes
 90
     1153
280
     0
281
     0
  0
CLASS
  1
SCALE
  2
AcDbScale
  3
ObjectDBX Classes
 90
     1153
280
     0
281
     0
  0
CLASS
  1

  2
exOdDbCircle
  3

 90
        0
280
     0
281
     1
  0
CLASS
  1

  2
exOdDbSpline
  3

 90
        0
280
     0
281
     1
  0
CLASS
  1
DICTIONARYVAR
  2
AcDbDictionaryVar
  3
ObjectDBX Classes
 90
        0
280
     0
281
     0
  0
CLASS
  1
ACDBPLACEHOLDER
  2
AcDbPlaceHolder
  3
ObjectDBX Classes
 90
        0
280
     0
281
     0
  0
CLASS
  1
LAYOUT
  2
AcDbLayout
  3
ObjectDBX Classes
 90
        0
280
     0
281
     0
  0
ENDSEC
  0
SECTION
  2
TABLES
  0
TABLE
  2
VPORT
  5
8
330
0
100
AcDbSymbolTable
 70
     1
  0
VPORT
  5
29
330
8
100
AcDbSymbolTableRecord
100
AcDbViewportTableRecord
  2
*Active
 70
     0
 10
0.0
 20
0.0
 11
1.0
 21
1.0
 12
98.75333421093745
 22
143.5
 13
0.0
 23
0.0
 14
0.5
 24
0.5
 15
0.5
 25
0.5
 16
0.0
 26
0.0
 36
1.0
 17
0.0
 27
0.0
 37
0.0
 40
315.7
 41
1.60267857142857
 42
50.0
 43
0.0
 44
0.0
 50
0.0
 51
0.0
 71
     0
 72
   100
 73
     1
 74
     3
 75
     0
 76
     0
 77
     0
 78
     0
281
     0
 65
     1
110
0.0
120
0.0
130
0.0
111
1.0
121
0.0
131
0.0
112
0.0
122
1.0
132
0.0
 79
     0
146
0.0
  0
ENDTAB
  0
TABLE
  2
LTYPE
  5
5
330
0
100
AcDbSymbolTable
 70
     8
  0
LTYPE
  5
14
330
5
100
AcDbSymbolTableRecord
100
AcDbLinetypeTableRecord
  2
ByBlock
 70
     0
  3

 72
    65
 73
     0
 40
0.0
  0
LTYPE
  5
15
330
5
100
AcDbSymbolTableRecord
100
AcDbLinetypeTableRecord
  2
ByLayer
 70
     0
  3

 72
    65
 73
     0
 40
0.0
  0
LTYPE
  5
16
330
5
100
AcDbSymbolTableRecord
100
AcDbLinetypeTableRecord
  2
Continuous
 70
     0
  3
Solid line
 72
    65
 73
     0
 40
0.0
  0
LTYPE
  5
3F
330
5
100
AcDbSymbolTableRecord
100
AcDbLinetypeTableRecord
  2
DASHED
 70
     0
  3
Dashed
 72
    65
 73
     2
 40
15.0
 49
7.0
 74
     0
 49
-8.0
 74
     0
  0
LTYPE
  5
40
330
5
100
AcDbSymbolTableRecord
100
AcDbLinetypeTableRecord
  2
DOTTED
 70
     0
  3
Dotted
 72
    65
 73
     2
 40
1.0
 49
0.0
 74
     0
 49
-1.0
 74
     0
  0
LTYPE
  5
41
330
5
100
AcDbSymbolTableRecord
100
AcDbLinetypeTableRecord
  2
DOT_CENTER
 70
     0
  3
Dot_Center
 72
    65
 73
     4
 40
14.0
 49
12.0
 74
     0
 49
-1.0
 74
     0
 49
0.0
 74
     0
 49
-1.0
 74
     0
  0
LTYPE
  5
42
330
5
100
AcDbSymbolTableRecord
100
AcDbLinetypeTableRecord
  2
LONG_DASHED
 70
     0
  3
Long_Dashed
 72
    65
 73
     2
 40
15.0
 49
10.0
 74
     0
 49
-5.0
 74
     0
  0
LTYPE
  5
43
330
5
100
AcDbSymbolTableRecord
100
AcDbLinetypeTableRecord
  2
DASH_CENTER
 70
     0
  3
Dash_Center
 72
    65
 73
     4
 40
14.0
 49
11.0
 74
     0
 49
-1.0
 74
     0
 49
1.0
 74
     0
 49
-1.0
 74
     0
  0
LTYPE
  5
44
330
5
100
AcDbSymbolTableRecord
100
AcDbLinetypeTableRecord
  2
PHANTOM
 70
     0
  3
Phantom
 72
    65
 73
     6
 40
13.0
 49
10.0
 74
     0
 49
-1.0
 74
     0
 49
0.0
 74
     0
 49
-1.0
 74
     0
 49
0.0
 74
     0
 49
-1.0
 74
     0
  0
LTYPE
  5
45
330
5
100
AcDbSymbolTableRecord
100
AcDbLinetypeTableRecord
  2
CENTER_DASH_DASH
 70
     0
  3
Center_Dash_Dash
 72
    65
 73
     6
 40
14.0
 49
9.0
 74
     0
 49
-1.0
 74
     0
 49
1.0
 74
     0
 49
-1.0
 74
     0
 49
1.0
 74
     0
 49
-1.0
 74
     0
  0
ENDTAB
  0
TABLE
  2
LAYER
  5
2
330
0
100
AcDbSymbolTable
 70
     6
  0
LAYER
  5
10
330
2
100
AcDbSymbolTableRecord
100
AcDbLayerTableRecord
  2
0
 70
     0
 62
     7
  6
Continuous
370
    -3
390
F
  0
LAYER
  5
46
330
2
100
AcDbSymbolTableRecord
100
AcDbLayerTableRecord
  2
1
 70
     0
 62
     7
  6
Continuous
370
    -3
390
F
  0
LAYER
  5
47
330
2
100
AcDbSymbolTableRecord
100
AcDbLayerTableRecord
  2
LC-003-002-----0
 70
     0
 62
     7
  6
Continuous
370
    -3
390
F
  0
LAYER
  5
48
330
2
100
AcDbSymbolTableRecord
100
AcDbLayerTableRecord
  2
LC-004-005-----0
 70
     0
 62
     7
  6
Continuous
370
    -3
390
F
  0
LAYER
  5
49
330
2
100
AcDbSymbolTableRecord
100
AcDbLayerTableRecord
  2
LC-005-002-RND-0
 70
     0
 62
     7
  6
Continuous
370
    -3
390
F
  0
LAYER
  5
4A
330
2
100
AcDbSymbolTableRecord
100
AcDbLayerTableRecord
  2
LC-009-004-----0
 70
     0
 62
     7
  6
Continuous
370
    -3
390
F
  0
ENDTAB
  0
TABLE
  2
STYLE
  5
3
330
0
100
AcDbSymbolTable
 70
     8
  0
STYLE
  5
11
330
3
100
AcDbSymbolTableRecord
100
AcDbTextStyleTableRecord
  2
Standard
 70
     0
 40
0.0
 41
1.0
 50
0.0
 71
     0
 42
0.2
  3
txt
  4

  0
STYLE
  5
92
330
3
100
AcDbSymbolTableRecord
100
AcDbTextStyleTableRecord
  2
CONVERTER_11
 70
     0
 40
0.0
 41
0.9
 50
0.0
 71
     0
 42
0.2
  3
txt.shx
  4

  0
STYLE
  5
94
330
3
100
AcDbSymbolTableRecord
100
AcDbTextStyleTableRecord
  2
CONVERTER_12
 70
     0
 40
0.0
 41
0.63
 50
0.0
 71
     0
 42
0.2
  3
txt.shx
  4

  0
STYLE
  5
C6
330
3
100
AcDbSymbolTableRecord
100
AcDbTextStyleTableRecord
  2
CONVERTER_13
 70
     0
 40
0.0
 41
0.72
 50
0.0
 71
     0
 42
0.2
  3
txt.shx
  4

  0
STYLE
  5
363
330
3
100
AcDbSymbolTableRecord
100
AcDbTextStyleTableRecord
  2
CONVERTER_14
 70
     0
 40
0.0
 41
0.99
 50
0.0
 71
     0
 42
0.2
  3
txt.shx
  4

  0
STYLE
  5
37D
330
3
100
AcDbSymbolTableRecord
100
AcDbTextStyleTableRecord
  2
CONVERTER_15
 70
     0
 40
0.0
 41
0.66696267749507
 50
0.0
 71
     0
 42
0.2
  3
txt.shx
  4

  0
STYLE
  5
380
330
3
100
AcDbSymbolTableRecord
100
AcDbTextStyleTableRecord
  2
CONVERTER_16
 70
     0
 40
0.0
 41
0.54
 50
0.0
 71
     0
 42
0.2
  3
txt.shx
  4

  0
STYLE
  5
3BC
330
3
100
AcDbSymbolTableRecord
100
AcDbTextStyleTableRecord
  2
CONVERTER_17
 70
     0
 40
0.0
 41
0.765
 50
0.0
 71
     0
 42
0.2
  3
txt.shx
  4

  0
ENDTAB
  0
TABLE
  2
VIEW
  5
6
330
0
100
AcDbSymbolTable
 70
     0
  0
ENDTAB
  0
TABLE
  2
UCS
  5
7
330
0
100
AcDbSymbolTable
 70
     0
  0
ENDTAB
  0
TABLE
  2
APPID
  5
9
330
0
100
AcDbSymbolTable
 70
     1
  0
APPID
  5
12
330
9
100
AcDbSymbolTableRecord
100
AcDbRegAppTableRecord
  2
ACAD
 70
     0
  0
ENDTAB
  0
TABLE
  2
DIMSTYLE
  5
A
330
0
100
AcDbSymbolTable
 70
     8
100
AcDbDimStyleTable
  0
DIMSTYLE
105
27
330
A
100
AcDbSymbolTableRecord
100
AcDbDimStyleTableRecord
  2
Standard
 70
     0
340
11
  0
DIMSTYLE
105
12F
102
{ACAD_REACTORS
330
130
102
}
330
A
100
AcDbSymbolTableRecord
100
AcDbDimStyleTableRecord
  2
ME10_DIM_10
 70
     0
 41
3.5
 42
0.0
 44
2.0
 73
     0
 74
     0
 77
     1
 78
     8
140
3.5
147
2.0
172
     1
173
     1
174
     1
175
     1
176
     3
177
     3
178
     4
271
     2
340
92
  0
DIMSTYLE
105
13A
102
{ACAD_REACTORS
330
13B
102
}
330
A
100
AcDbSymbolTableRecord
100
AcDbDimStyleTableRecord
  2
ME10_DIM_11
 70
     0
  3
{\Fgdt;n}<>
 41
3.5
 42
0.0
 44
2.0
 73
     0
 74
     0
 77
     1
 78
     8
140
3.5
147
2.0
172
     1
173
     1
174
     1
175
     1
176
     3
177
     3
178
     4
271
     2
340
92
  0
DIMSTYLE
105
145
102
{ACAD_REACTORS
330
146
102
}
330
A
100
AcDbSymbolTableRecord
100
AcDbDimStyleTableRecord
  2
ME10_DIM_12
 70
     0
 41
3.5
 42
0.0
 44
2.0
 73
     0
 74
     0
 77
     1
 78
     8
140
3.5
147
2.0
172
     1
173
     1
174
     1
175
     1
176
     3
177
     3
178
     4
271
     2
340
92
  0
DIMSTYLE
105
293
102
{ACAD_REACTORS
330
294
102
}
330
A
100
AcDbSymbolTableRecord
100
AcDbDimStyleTableRecord
  2
ME10_DIM_13
 70
     0
 41
3.5
 42
0.0
 44
2.0
 73
     0
 74
     0
 77
     1
 78
     8
140
3.5
147
2.0
172
     1
173
     1
174
     1
175
     1
176
     3
177
     3
178
     4
271
     2
340
92
  0
DIMSTYLE
105
29E
102
{ACAD_REACTORS
330
29F
102
}
330
A
100
AcDbSymbolTableRecord
100
AcDbDimStyleTableRecord
  2
ME10_DIM_14
 70
     0
 41
3.5
 42
0.0
 44
2.0
 73
     0
 74
     0
 77
     1
 78
     8
140
3.5
147
2.0
172
     1
173
     1
174
     1
175
     1
176
     3
177
     3
178
     4
271
     2
340
92
  0
DIMSTYLE
105
2AA
102
{ACAD_REACTORS
330
2AB
102
}
330
A
100
AcDbSymbolTableRecord
100
AcDbDimStyleTableRecord
  2
ME10_DIM_15
 70
     0
 41
3.5
 42
0.0
 44
2.0
 73
     0
 74
     0
 77
     1
 78
     8
140
3.5
147
2.0
172
     1
173
     1
174
     1
175
     1
176
     3
177
     3
178
     4
271
     2
340
92
  0
DIMSTYLE
105
2B5
102
{ACAD_REACTORS
330
2B6
102
}
330
A
100
AcDbSymbolTableRecord
100
AcDbDimStyleTableRecord
  2
ME10_DIM_16
 70
     0
 41
3.5
 42
0.0
 44
2.0
 73
     0
 74
     0
 77
     1
 78
     8
140
3.5
147
2.0
172
     1
173
     1
174
     1
175
     1
176
     3
177
     3
178
     4
271
     2
340
92
  0
ENDTAB
  0
TABLE
  2
BLOCK_RECORD
  5
1
330
0
100
AcDbSymbolTable
 70
    17
  0
BLOCK_RECORD
  5
1F
330
1
100
AcDbSymbolTableRecord
100
AcDbBlockTableRecord
  2
*Model_Space
340
22
  0
BLOCK_RECORD
  5
1B
330
1
100
AcDbSymbolTableRecord
100
AcDbBlockTableRecord
  2
*Paper_Space
340
1E
  0
BLOCK_RECORD
  5
23
330
1
100
AcDbSymbolTableRecord
100
AcDbBlockTableRecord
  2
*Paper_Space0
340
26
  0
BLOCK_RECORD
  5
4B
330
1
100
AcDbSymbolTableRecord
100
AcDbBlockTableRecord
  2
Mat_-Nr_Tabelle
340
0
102
{BLKREFS
331
71
102
}
  0
BLOCK_RECORD
  5
4E
330
1
100
AcDbSymbolTableRecord
100
AcDbBlockTableRecord
  2
1__1
340
0
102
{BLKREFS
331
75
102
}
  0
BLOCK_RECORD
  5
74
330
1
100
AcDbSymbolTableRecord
100
AcDbBlockTableRecord
  2
Einfügen1
340
0
102
{BLKREFS
331
88
102
}
  0
BLOCK_RECORD
  5
78
330
1
100
AcDbSymbolTableRecord
100
AcDbBlockTableRecord
  2
Schaltplan
340
0
102
{BLKREFS
331
89
102
}
  0
BLOCK_RECORD
  5
7B
330
1
100
AcDbSymbolTableRecord
100
AcDbBlockTableRecord
  2
Untersicht
340
0
102
{BLKREFS
331
8A
102
}
  0
BLOCK_RECORD
  5
7E
330
1
100
AcDbSymbolTableRecord
100
AcDbBlockTableRecord
  2
Vorderansicht
340
0
102
{BLKREFS
331
8B
102
}
  0
BLOCK_RECORD
  5
81
330
1
100
AcDbSymbolTableRecord
100
AcDbBlockTableRecord
  2
a4kl
340
0
102
{BLKREFS
331
85
102
}
  0
BLOCK_RECORD
  5
84
330
1
100
AcDbSymbolTableRecord
100
AcDbBlockTableRecord
  2
Rahmen
340
0
102
{BLKREFS
331
8C
102
}
  0
BLOCK_RECORD
  5
124
330
1
100
AcDbSymbolTableRecord
100
AcDbBlockTableRecord
  2
*D9
340
0
  0
BLOCK_RECORD
  5
131
330
1
100
AcDbSymbolTableRecord
100
AcDbBlockTableRecord
  2
*D10
340
0
  0
BLOCK_RECORD
  5
13C
330
1
100
AcDbSymbolTableRecord
100
AcDbBlockTableRecord
  2
*D11
340
0
  0
BLOCK_RECORD
  5
28A
330
1
100
AcDbSymbolTableRecord
100
AcDbBlockTableRecord
  2
*D12
340
0
  0
BLOCK_RECORD
  5
295
330
1
100
AcDbSymbolTableRecord
100
AcDbBlockTableRecord
  2
*D13
340
0
  0
BLOCK_RECORD
  5
2A0
330
1
100
AcDbSymbolTableRecord
100
AcDbBlockTableRecord
  2
*D14
340
0
  0
BLOCK_RECORD
  5
2AC
330
1
100
AcDbSymbolTableRecord
100
AcDbBlockTableRecord
  2
*D15
340
0
  0
BLOCK_RECORD
  5
2B7
330
1
100
AcDbSymbolTableRecord
100
AcDbBlockTableRecord
  2
*D16
340
0
102
{BLKREFS
331
2C2
102
}
  0
ENDTAB
  0
ENDSEC
  0
SECTION
  2
BLOCKS
  0
BLOCK
  5
20
330
1F
100
AcDbEntity
  8
0
100
AcDbBlockBegin
  2
*Model_Space
 70
     0
 10
0.0
 20
0.0
 30
0.0
  3
*Model_Space
  1

  0
ENDBLK
  5
21
330
1F
100
AcDbEntity
  8
0
100
AcDbBlockEnd
  0
BLOCK
  5
1C
330
1B
100
AcDbEntity
 67
     1
  8
0
100
AcDbBlockBegin
  2
*Paper_Space
 70
     0
 10
0.0
 20
0.0
 30
0.0
  3
*Paper_Space
  1

  0
ENDBLK
  5
1D
330
1B
100
AcDbEntity
 67
     1
  8
0
100
AcDbBlockEnd
  0
BLOCK
  5
24
330
23
100
AcDbEntity
  8
0
100
AcDbBlockBegin
  2
*Paper_Space0
 70
     0
 10
0.0
 20
0.0
 30
0.0
  3
*Paper_Space0
  1

  0
ENDBLK
  5
25
330
23
100
AcDbEntity
  8
0
100
AcDbBlockEnd
  0
BLOCK
  5
4C
330
4B
100
AcDbEntity
  8
0
100
AcDbBlockBegin
  2
Mat_-Nr_Tabelle
 70
     0
 10
152.0066684218749
 20
43.0
 30
0.0
  3
Mat_-Nr_Tabelle
  1

  0
LINE
  5
8D
330
4B
100
AcDbEntity
  8
1
  6
Continuous
 62
     1
100
AcDbLine
 10
114.0066684218749
 20
55.0
 30
0.0
 11
190.0066684218749
 21
55.0
 31
0.0
  0
LINE
  5
8E
330
4B
100
AcDbEntity
  8
1
  6
Continuous
 62
     1
100
AcDbLine
 10
190.0066684218749
 20
55.0
 30
0.0
 11
190.0066684218749
 21
49.0
 31
0.0
  0
LINE
  5
8F
330
4B
100
AcDbEntity
  8
1
  6
Continuous
 62
     1
100
AcDbLine
 10
159.8581644577449
 20
55.0
 30
0.0
 11
159.8581644577449
 21
49.0
 31
0.0
  0
LINE
  5
90
330
4B
100
AcDbEntity
  8
1
  6
Continuous
 62
     1
100
AcDbLine
 10
114.0066684218749
 20
55.0
 30
0.0
 11
114.0066684218749
 21
49.0
 31
0.0
  0
LINE
  5
91
330
4B
100
AcDbEntity
  8
1
  6
Continuous
 62
     1
100
AcDbLine
 10
114.0066684218749
 20
49.0
 30
0.0
 11
190.0066684218749
 21
49.0
 31
0.0
  0
TEXT
  5
93
330
4B
100
AcDbEntity
  8
1
 62
     4
100
AcDbText
 10
167.0111528206539
 20
50.11560015770863
 30
0.0
 40
3.5
  1
155573
 41
0.9
  7
CONVERTER_11
100
AcDbText
  0
TEXT
  5
95
330
4B
100
AcDbEntity
  8
1
 62
     4
100
AcDbText
 10
115.0066684218749
 20
50.11560015770863
 30
0.0
 40
3.5
  1
GEZE Mat.-Nr.
 41
0.63
  7
CONVERTER_12
100
AcDbText
  0
ENDBLK
  5
4D
330
4B
100
AcDbEntity
  8
0
100
AcDbBlockEnd
  0
BLOCK
  5
72
330
4E
100
AcDbEntity
  8
0
100
AcDbBlockBegin
  2
1__1
 70
     0
 10
277.0
 20
66.0
 30
0.0
  3
1__1
  1

  0
INSERT
  5
71
330
4E
100
AcDbEntity
  8
1
100
AcDbBlockReference
  2
Mat_-Nr_Tabelle
 10
152.0066684218749
 20
43.0
 30
0.0
  0
ENDBLK
  5
73
330
4E
100
AcDbEntity
  8
0
100
AcDbBlockEnd
  0
BLOCK
  5
76
330
74
100
AcDbEntity
  8
0
100
AcDbBlockBegin
  2
Einfügen1
 70
     0
 10
277.0
 20
66.0
 30
0.0
  3
Einfügen1
  1

  0
INSERT
  5
75
330
74
100
AcDbEntity
  8
1
100
AcDbBlockReference
  2
1__1
 10
277.0
 20
66.0
 30
0.0
  0
ENDBLK
  5
77
330
74
100
AcDbEntity
  8
0
100
AcDbBlockEnd
  0
BLOCK
  5
79
330
78
100
AcDbEntity
  8
0
100
AcDbBlockBegin
  2
Schaltplan
 70
     0
 10
32.32919842187501
 20
48.89457355719998
 30
0.0
  3
Schaltplan
  1

  0
LINE
  5
96
330
78
100
AcDbEntity
  8
LC-003-002-----0
  6
Continuous
 62
     3
100
AcDbLine
 10
77.077339421875
 20
86.41364555719997
 30
0.0
 11
47.07733942187498
 21
86.41364555719997
 31
0.0
  0
LINE
  5
97
330
78
100
AcDbEntity
  8
LC-003-002-----0
  6
Continuous
 62
     3
100
AcDbLine
 10
42.13932742187502
 20
56.39612155719999
 30
0.0
 11
43.884699421875
 21
53.3570325572
 31
0.0
  0
LINE
  5
98
330
78
100
AcDbEntity
  8
LC-003-002-----0
  6
Continuous
 62
     3
100
AcDbLine
 10
39.90297342187502
 20
63.8118235572
 30
0.0
 11
38.55237542187503
 21
60.96363555720001
 31
0.0
  0
LINE
  5
99
330
78
100
AcDbEntity
  8
LC-003-002-----0
  6
Continuous
 62
     3
100
AcDbLine
 10
41.07448342187503
 20
83.88606855720002
 30
0.0
 11
39.68867842187503
 21
80.96363555719995
 31
0.0
  0
LINE
  5
9A
330
78
100
AcDbEntity
  8
LC-003-002-----0
  6
Continuous
 62
     3
100
AcDbLine
 10
40.57733942187498
 20
60.96363555720001
 30
0.0
 11
43.57733942187498
 21
60.96363555720001
 31
0.0
  0
LINE
  5
9B
330
78
100
AcDbEntity
  8
LC-003-002-----0
  6
Continuous
 62
     3
100
AcDbLine
 10
44.57733942187498
 20
60.96363555720001
 30
0.0
 11
61.07733942187498
 21
60.96363555720001
 31
0.0
  0
LINE
  5
9C
330
78
100
AcDbEntity
  8
LC-003-002-----0
  6
Continuous
 62
     3
100
AcDbLine
 10
42.07733942187498
 20
57.96363555720001
 30
0.0
 11
44.07733942187498
 21
59.96363555720001
 31
0.0
  0
LINE
  5
9D
330
78
100
AcDbEntity
  8
LC-003-002-----0
  6
Continuous
 62
     3
100
AcDbLine
 10
42.07733942187498
 20
57.96363555720001
 30
0.0
 11
40.07733942187498
 21
59.96363555720001
 31
0.0
  0
LINE
  5
9E
330
78
100
AcDbEntity
  8
LC-003-002-----0
  6
Continuous
 62
     3
100
AcDbLine
 10
44.07733942187498
 20
56.41364555719997
 30
0.0
 11
40.07733942187498
 21
56.41364555719997
 31
0.0
  0
LINE
  5
9F
330
78
100
AcDbEntity
  8
LC-003-002-----0
  6
Continuous
 62
     3
100
AcDbLine
 10
40.07733942187498
 20
59.96363555720001
 30
0.0
 11
44.07733942187498
 21
59.96363555720001
 31
0.0
  0
LINE
  5
A0
330
78
100
AcDbEntity
  8
LC-003-002-----0
  6
Continuous
 62
     3
100
AcDbLine
 10
41.82733942187498
 20
60.96363555720001
 30
0.0
 11
41.82733942187498
 21
56.41364555719997
 31
0.0
  0
LINE
  5
A1
330
78
100
AcDbEntity
  8
LC-003-002-----0
  6
Continuous
 62
     3
100
AcDbLine
 10
42.32733942187498
 20
60.96363555720001
 30
0.0
 11
42.32733942187498
 21
56.41364555719997
 31
0.0
  0
LINE
  5
A2
330
78
100
AcDbEntity
  8
LC-003-002-----0
  6
Continuous
 62
     3
100
AcDbLine
 10
62.07733942187498
 20
80.96363555719995
 30
0.0
 11
71.577339421875
 21
80.96363555719995
 31
0.0
  0
LINE
  5
A3
330
78
100
AcDbEntity
  8
LC-003-002-----0
  6
Continuous
 62
     3
100
AcDbLine
 10
62.07733942187498
 20
60.96363555720001
 30
0.0
 11
71.577339421875
 21
60.96363555720001
 31
0.0
  0
LINE
  5
A4
330
78
100
AcDbEntity
  8
LC-003-002-----0
  6
Continuous
 62
     3
100
AcDbLine
 10
77.077339421875
 20
56.41364555719997
 30
0.0
 11
47.07733942187498
 21
56.41364555719997
 31
0.0
  0
LINE
  5
A5
330
78
100
AcDbEntity
  8
LC-003-002-----0
  6
Continuous
 62
     3
100
AcDbLine
 10
77.077339421875
 20
56.41364555719997
 30
0.0
 11
77.077339421875
 21
86.41364555719997
 31
0.0
  0
LINE
  5
A6
330
78
100
AcDbEntity
  8
LC-003-002-----0
  6
Continuous
 62
     3
100
AcDbLine
 10
47.07733942187498
 20
56.41364555719997
 30
0.0
 11
47.07733942187498
 21
86.41364555719997
 31
0.0
  0
LINE
  5
A7
330
78
100
AcDbEntity
  8
LC-003-002-----0
  6
Continuous
 62
     3
100
AcDbLine
 10
50.07733942187498
 20
78.65423455719997
 30
0.0
 11
50.07733942187498
 21
83.27303655719999
 31
0.0
  0
LINE
  5
A8
330
78
100
AcDbEntity
  8
LC-003-002-----0
  6
Continuous
 62
     3
100
AcDbLine
 10
54.07733942187498
 20
80.96363555719995
 30
0.0
 11
50.07733942187498
 21
83.27303655719999
 31
0.0
  0
LINE
  5
A9
330
78
100
AcDbEntity
  8
LC-003-002-----0
  6
Continuous
 62
     3
100
AcDbLine
 10
69.077339421875
 20
73.4636355572
 30
0.0
 11
74.077339421875
 21
69.4636355572
 31
0.0
  0
LINE
  5
AA
330
78
100
AcDbEntity
  8
LC-003-002-----0
  6
Continuous
 62
     3
100
AcDbLine
 10
54.07733942187498
 20
80.96363555719995
 30
0.0
 11
50.07733942187498
 21
78.65423455719997
 31
0.0
  0
LINE
  5
AB
330
78
100
AcDbEntity
  8
LC-003-002-----0
  6
Continuous
 62
     3
100
AcDbLine
 10
63.886741421875
 20
69.4636355572
 30
0.0
 11
59.267938421875
 21
69.4636355572
 31
0.0
  0
LINE
  5
AC
330
78
100
AcDbEntity
  8
LC-003-002-----0
  6
Continuous
 62
     3
100
AcDbLine
 10
68.077339421875
 20
69.4636355572
 30
0.0
 11
75.077339421875
 21
69.4636355572
 31
0.0
  0
LINE
  5
AD
330
78
100
AcDbEntity
  8
LC-003-002-----0
  6
Continuous
 62
     3
100
AcDbLine
 10
61.57733942187498
 20
73.4636355572
 30
0.0
 11
59.267938421875
 21
69.4636355572
 31
0.0
  0
LINE
  5
AE
330
78
100
AcDbEntity
  8
LC-003-002-----0
  6
Continuous
 62
     3
100
AcDbLine
 10
54.07733942187498
 20
79.5202605572
 30
0.0
 11
54.07733942187498
 21
82.40701155720001
 31
0.0
  0
LINE
  5
AF
330
78
100
AcDbEntity
  8
LC-003-002-----0
  6
Continuous
 62
     3
100
AcDbLine
 10
61.57733942187498
 20
73.4636355572
 30
0.0
 11
63.886741421875
 21
69.4636355572
 31
0.0
  0
LINE
  5
B0
330
78
100
AcDbEntity
  8
LC-003-002-----0
  6
Continuous
 62
     3
100
AcDbLine
 10
63.020715421875
 20
73.4636355572
 30
0.0
 11
60.13396442187504
 21
73.4636355572
 31
0.0
  0
LINE
  5
B1
330
78
100
AcDbEntity
  8
LC-003-002-----0
  6
Continuous
 62
     3
100
AcDbLine
 10
71.577339421875
 20
68.4636355572
 30
0.0
 11
71.577339421875
 21
60.96363555720001
 31
0.0
  0
LINE
  5
B2
330
78
100
AcDbEntity
  8
LC-003-002-----0
  6
Continuous
 62
     3
100
AcDbLine
 10
68.077339421875
 20
73.4636355572
 30
0.0
 11
68.077339421875
 21
68.4636355572
 31
0.0
  0
LINE
  5
B3
330
78
100
AcDbEntity
  8
LC-003-002-----0
  6
Continuous
 62
     3
100
AcDbLine
 10
75.077339421875
 20
73.4636355572
 30
0.0
 11
75.077339421875
 21
68.4636355572
 31
0.0
  0
LINE
  5
B4
330
78
100
AcDbEntity
  8
LC-003-002-----0
  6
Continuous
 62
     3
100
AcDbLine
 10
68.077339421875
 20
68.4636355572
 30
0.0
 11
75.077339421875
 21
68.4636355572
 31
0.0
  0
LINE
  5
B5
330
78
100
AcDbEntity
  8
LC-003-002-----0
  6
Continuous
 62
     3
100
AcDbLine
 10
68.077339421875
 20
73.4636355572
 30
0.0
 11
75.077339421875
 21
73.4636355572
 31
0.0
  0
LINE
  5
B6
330
78
100
AcDbEntity
  8
LC-003-002-----0
  6
Continuous
 62
     3
100
AcDbLine
 10
61.57733942187498
 20
80.46363555719995
 30
0.0
 11
61.57733942187498
 21
61.46363555720001
 31
0.0
  0
LINE
  5
B7
330
78
100
AcDbEntity
  8
LC-003-002-----0
  6
Continuous
 62
     3
100
AcDbLine
 10
71.577339421875
 20
80.96363555719995
 30
0.0
 11
71.577339421875
 21
73.4636355572
 31
0.0
  0
LINE
  5
B8
330
78
100
AcDbEntity
  8
LC-003-002-----0
  6
Continuous
 62
     3
100
AcDbLine
 10
37.57733942187498
 20
80.96363555719995
 30
0.0
 11
61.07733942187498
 21
80.96363555719995
 31
0.0
  0
LINE
  5
B9
330
78
100
AcDbEntity
  8
LC-003-002-----0
  6
Continuous
 62
     3
100
AcDbLine
 10
37.57733942187498
 20
60.96363555720001
 30
0.0
 11
39.57733942187498
 21
60.96363555720001
 31
0.0
  0
CIRCLE
  5
BA
330
78
100
AcDbEntity
  8
LC-003-002-----0
  6
Continuous
 62
     3
100
AcDbCircle
 10
45.193215421875
 20
51.31764955720001
 30
0.0
 40
2.42307600000003
  0
CIRCLE
  5
BB
330
78
100
AcDbEntity
  8
LC-003-002-----0
  6
Continuous
 62
     3
100
AcDbCircle
 10
89.491692421875
 20
65.66643355719998
 30
0.0
 40
2.385502000000002
  0
CIRCLE
  5
BC
330
78
100
AcDbEntity
  8
LC-003-002-----0
  6
Continuous
 62
     3
100
AcDbCircle
 10
89.491692421875
 20
71.59684855720002
 30
0.0
 40
2.385502000000002
  0
CIRCLE
  5
BD
330
78
100
AcDbEntity
  8
LC-003-002-----0
  6
Continuous
 62
     3
100
AcDbCircle
 10
89.491692421875
 20
77.5272635572
 30
0.0
 40
2.385502000000002
  0
CIRCLE
  5
BE
330
78
100
AcDbEntity
  8
LC-003-002-----0
  6
Continuous
 62
     3
100
AcDbCircle
 10
40.47983342187503
 20
66.1652315572
 30
0.0
 40
2.42307599999998
  0
CIRCLE
  5
BF
330
78
100
AcDbEntity
  8
LC-003-002-----0
  6
Continuous
 62
     3
100
AcDbCircle
 10
41.75083942187503
 20
86.21283355719999
 30
0.0
 40
2.42307599999998
  0
CIRCLE
  5
C0
330
78
100
AcDbEntity
  8
LC-003-002-----0
  6
Continuous
 62
     3
100
AcDbCircle
 10
44.07733942187498
 20
60.96363555720001
 30
0.0
 40
0.5
  0
CIRCLE
  5
C1
330
78
100
AcDbEntity
  8
LC-003-002-----0
  6
Continuous
 62
     3
100
AcDbCircle
 10
40.07733942187498
 20
60.96363555720001
 30
0.0
 40
0.5
  0
CIRCLE
  5
C2
330
78
100
AcDbEntity
  8
LC-003-002-----0
  6
Continuous
 62
     3
100
AcDbCircle
 10
37.07733942187498
 20
60.96363555720001
 30
0.0
 40
0.5
  0
CIRCLE
  5
C3
330
78
100
AcDbEntity
  8
LC-003-002-----0
  6
Continuous
 62
     3
100
AcDbCircle
 10
37.07733942187498
 20
80.96363555719995
 30
0.0
 40
0.5
  0
CIRCLE
  5
C4
330
78
100
AcDbEntity
  8
LC-003-002-----0
  6
Continuous
 62
     3
100
AcDbCircle
 10
61.57733942187498
 20
60.96363555720001
 30
0.0
 40
0.5
  0
CIRCLE
  5
C5
330
78
100
AcDbEntity
  8
LC-003-002-----0
  6
Continuous
 62
     3
100
AcDbCircle
 10
61.57733942187498
 20
80.96363555719995
 30
0.0
 40
0.5
  0
MTEXT
  5
C7
330
78
100
AcDbEntity
  8
LC-009-004-----0
 62
     3
100
AcDbMText
 10
88.571883421875
 20
66.93821411440001
 30
0.0
 40
3.0
 41
0.0
 71
     1
 72
     1
  1
3
  7
CONVERTER_13
 73
     1
 44
1.32052821128451
  0
MTEXT
  5
C8
330
78
100
AcDbEntity
  8
LC-009-004-----0
 62
     3
100
AcDbMText
 10
44.15053942187502
 20
52.66110411440002
 30
0.0
 40
3.0
 41
0.0
 71
     1
 72
     1
  1
3
  7
CONVERTER_13
 73
     1
 44
1.32052821128451
  0
MTEXT
  5
C9
330
78
100
AcDbEntity
  8
LC-009-004-----0
 62
     3
100
AcDbMText
 10
39.571859421875
 20
67.55628811439999
 30
0.0
 40
3.0
 41
0.0
 71
     1
 72
     1
  1
2
  7
CONVERTER_13
 73
     1
 44
1.32052821128451
  0
MTEXT
  5
CA
330
78
100
AcDbEntity
  8
LC-009-004-----0
 62
     3
100
AcDbMText
 10
97.60770042187511
 20
66.95556611439997
 30
0.0
 40
3.0
 41
0.0
 71
     1
 72
     1
  1
Unterbrechertaste
  7
CONVERTER_13
 73
     1
 44
1.32052821128451
  0
MTEXT
  5
CB
330
78
100
AcDbEntity
  8
LC-009-004-----0
 62
     3
100
AcDbMText
 10
97.60770042187511
 20
72.95556611439997
 30
0.0
 40
3.0
 41
0.0
 71
     1
 72
     1
  1
blau
  7
CONVERTER_13
 73
     1
 44
1.32052821128451
  0
MTEXT
  5
CC
330
78
100
AcDbEntity
  8
LC-009-004-----0
 62
     3
100
AcDbMText
 10
97.60770042187511
 20
78.95556611439997
 30
0.0
 40
3.0
 41
0.0
 71
     1
 72
     1
  1
rot
  7
CONVERTER_13
 73
     1
 44
1.32052821128451
  0
MTEXT
  5
CD
330
78
100
AcDbEntity
  8
LC-009-004-----0
 62
     3
100
AcDbMText
 10
40.59828542187502
 20
87.45441311439998
 30
0.0
 40
3.0
 41
0.0
 71
     1
 72
     1
  1
1
  7
CONVERTER_13
 73
     1
 44
1.32052821128451
  0
MTEXT
  5
CE
330
78
100
AcDbEntity
  8
LC-009-004-----0
 62
     3
100
AcDbMText
 10
32.32919842187501
 20
62.69218344360002
 30
0.0
 40
3.0
 41
0.0
 71
     1
 72
     1
  1
-
  7
CONVERTER_13
 73
     1
 44
1.32052821128451
  0
MTEXT
  5
CF
330
78
100
AcDbEntity
  8
LC-009-004-----0
 62
     3
100
AcDbMText
 10
32.72427842187501
 20
82.71428844360003
 30
0.0
 40
3.0
 41
0.0
 71
     1
 72
     1
  1
+
  7
CONVERTER_13
 73
     1
 44
1.32052821128451
  0
MTEXT
  5
D0
330
78
100
AcDbEntity
  8
LC-009-004-----0
 62
     3
100
AcDbMText
 10
88.544655421875
 20
72.83218011439999
 30
0.0
 40
3.0
 41
0.0
 71
     1
 72
     1
  1
2
  7
CONVERTER_13
 73
     1
 44
1.32052821128451
  0
MTEXT
  5
D1
330
78
100
AcDbEntity
  8
LC-009-004-----0
 62
     3
100
AcDbMText
 10
88.2723774218751
 20
78.7808201144
 30
0.0
 40
3.0
 41
0.0
 71
     1
 72
     1
  1
1
  7
CONVERTER_13
 73
     1
 44
1.32052821128451
  0
ENDBLK
  5
7A
330
78
100
AcDbEntity
  8
0
100
AcDbBlockEnd
  0
BLOCK
  5
7C
330
7B
100
AcDbEntity
  8
0
100
AcDbBlockBegin
  2
Untersicht
 70
     0
 10
73.52187631424295
 20
191.509508
 30
0.0
  3
Untersicht
  1

  0
LINE
  5
D2
330
7B
100
AcDbEntity
  8
LC-003-002-----0
  6
Continuous
 62
     3
100
AcDbLine
 10
88.52187631424295
 20
197.009508
 30
0.0
 11
128.521876314243
 21
197.009508
 31
0.0
  0
LINE
  5
D3
330
7B
100
AcDbEntity
  8
LC-003-002-----0
  6
Continuous
 62
     3
100
AcDbLine
 10
73.52187631424295
 20
196.509508
 30
0.0
 11
73.52187631424295
 21
203.009508
 31
0.0
  0
LINE
  5
D4
330
7B
100
AcDbEntity
  8
LC-003-002-----0
  6
Continuous
 62
     3
100
AcDbLine
 10
143.521876314243
 20
196.509508
 30
0.0
 11
143.521876314243
 21
203.009508
 31
0.0
  0
LINE
  5
D5
330
7B
100
AcDbEntity
  8
LC-003-002-----0
  6
Continuous
 62
     3
100
AcDbLine
 10
128.521876314243
 20
196.509508
 30
0.0
 11
143.521876314243
 21
196.509508
 31
0.0
  0
LINE
  5
D6
330
7B
100
AcDbEntity
  8
LC-003-002-----0
  6
Continuous
 62
     3
100
AcDbLine
 10
73.52187631424295
 20
203.009508
 30
0.0
 11
143.521876314243
 21
203.009508
 31
0.0
  0
LINE
  5
D7
330
7B
100
AcDbEntity
  8
LC-003-002-----0
  6
Continuous
 62
     3
100
AcDbLine
 10
84.52187631424295
 20
261.509508
 30
0.0
 11
132.521876314243
 21
261.509508
 31
0.0
  0
LINE
  5
D8
330
7B
100
AcDbEntity
  8
LC-003-002-----0
  6
Continuous
 62
     3
100
AcDbLine
 10
128.521876314243
 20
196.509508
 30
0.0
 11
128.521876314243
 21
197.009508
 31
0.0
  0
LINE
  5
D9
330
7B
100
AcDbEntity
  8
LC-003-002-----0
  6
Continuous
 62
     3
100
AcDbLine
 10
88.52187631424295
 20
196.509508
 30
0.0
 11
73.52187631424295
 21
196.509508
 31
0.0
  0
LINE
  5
DA
330
7B
100
AcDbEntity
  8
LC-003-002-----0
  6
Continuous
 62
     3
100
AcDbLine
 10
88.52187631424295
 20
196.509508
 30
0.0
 11
88.52187631424295
 21
197.009508
 31
0.0
  0
LINE
  5
DB
330
7B
100
AcDbEntity
  8
LC-003-002-----0
  6
Continuous
 62
     3
100
AcDbLine
 10
81.02187631424295
 20
260.509508
 30
0.0
 11
136.021876314243
 21
260.509508
 31
0.0
  0
LINE
  5
DC
330
7B
100
AcDbEntity
  8
LC-003-002-----0
  6
Continuous
 62
     3
100
AcDbLine
 10
81.02187631424295
 20
203.009508
 30
0.0
 11
81.02187631424295
 21
260.509508
 31
0.0
  0
LINE
  5
DD
330
7B
100
AcDbEntity
  8
LC-003-002-----0
  6
Continuous
 62
     3
100
AcDbLine
 10
84.1508113142429
 20
218.339848
 30
0.0
 11
86.27213131424287
 21
218.339848
 31
0.0
  0
LINE
  5
DE
330
7B
100
AcDbEntity
  8
LC-003-002-----0
  6
Continuous
 62
     3
100
AcDbLine
 10
114.1799153142429
 20
203.009508
 30
0.0
 11
114.1799153142429
 21
260.509508
 31
0.0
  0
LINE
  5
DF
330
7B
100
AcDbEntity
  8
LC-003-002-----0
  6
Continuous
 62
     3
100
AcDbLine
 10
107.021876314243
 20
203.009508
 30
0.0
 11
107.021876314243
 21
260.509508
 31
0.0
  0
LINE
  5
E0
330
7B
100
AcDbEntity
  8
LC-003-002-----0
  6
Continuous
 62
     3
100
AcDbLine
 10
110.021876314243
 20
203.009508
 30
0.0
 11
110.021876314243
 21
260.509508
 31
0.0
  0
LINE
  5
E1
330
7B
100
AcDbEntity
  8
LC-003-002-----0
  6
Continuous
 62
     3
100
AcDbLine
 10
84.1508113142429
 20
218.339848
 30
0.0
 11
84.1508113142429
 21
203.009508
 31
0.0
  0
LINE
  5
E2
330
7B
100
AcDbEntity
  8
LC-003-002-----0
  6
Continuous
 62
     3
100
AcDbLine
 10
102.8638373142429
 20
203.009508
 30
0.0
 11
102.8638373142429
 21
260.509508
 31
0.0
  0
LINE
  5
E3
330
7B
100
AcDbEntity
  8
LC-003-002-----0
  6
Continuous
 62
     3
100
AcDbLine
 10
102.8638373142429
 20
260.509508
 30
0.0
 11
100.920421314243
 21
203.009508
 31
0.0
  0
LINE
  5
E4
330
7B
100
AcDbEntity
  8
LC-003-002-----0
  6
Continuous
 62
     3
100
AcDbLine
 10
99.9660603142429
 20
260.509508
 30
0.0
 11
98.02264431424294
 21
203.009508
 31
0.0
  0
LINE
  5
E5
330
7B
100
AcDbEntity
  8
LC-003-002-----0
  6
Continuous
 62
     3
100
AcDbLine
 10
96.09138431424299
 20
260.509508
 30
0.0
 11
92.33699331424293
 21
203.009508
 31
0.0
  0
LINE
  5
E6
330
7B
100
AcDbEntity
  8
LC-003-002-----0
  6
Continuous
 62
     3
100
AcDbLine
 10
93.493308314243
 20
260.509508
 30
0.0
 11
89.73891731424294
 21
203.009508
 31
0.0
  0
LINE
  5
E7
330
7B
100
AcDbEntity
  8
LC-003-002-----0
  6
Continuous
 62
     3
100
AcDbLine
 10
90.16604931424285
 20
260.509508
 30
0.0
 11
86.27213131424287
 21
218.339848
 31
0.0
  0
LINE
  5
E8
330
7B
100
AcDbEntity
  8
LC-003-002-----0
  6
Continuous
 62
     3
100
AcDbLine
 10
88.04472831424289
 20
260.509508
 30
0.0
 11
84.1508113142429
 21
218.339848
 31
0.0
  0
LINE
  5
E9
330
7B
100
AcDbEntity
  8
LC-003-002-----0
  6
Continuous
 62
     3
100
AcDbLine
 10
96.09138431424299
 20
203.009508
 30
0.0
 11
96.09138431424299
 21
260.509508
 31
0.0
  0
LINE
  5
EA
330
7B
100
AcDbEntity
  8
LC-003-002-----0
  6
Continuous
 62
     3
100
AcDbLine
 10
90.16604931424285
 20
209.5512
 30
0.0
 11
90.16604931424285
 21
260.509508
 31
0.0
  0
LINE
  5
EB
330
7B
100
AcDbEntity
  8
LC-003-002-----0
  6
Continuous
 62
     3
100
AcDbLine
 10
86.27213131424287
 20
203.009508
 30
0.0
 11
86.27213131424287
 21
218.339848
 31
0.0
  0
LINE
  5
EC
330
7B
100
AcDbEntity
  8
LC-003-002-----0
  6
Continuous
 62
     3
100
AcDbLine
 10
114.1799153142429
 20
260.509508
 30
0.0
 11
116.1233313142429
 21
203.009508
 31
0.0
  0
LINE
  5
ED
330
7B
100
AcDbEntity
  8
LC-003-002-----0
  6
Continuous
 62
     3
100
AcDbLine
 10
117.0776933142429
 20
260.509508
 30
0.0
 11
119.021108314243
 21
203.009508
 31
0.0
  0
LINE
  5
EE
330
7B
100
AcDbEntity
  8
LC-003-002-----0
  6
Continuous
 62
     3
100
AcDbLine
 10
120.9523683142429
 20
203.009508
 30
0.0
 11
120.9523683142429
 21
260.509508
 31
0.0
  0
LINE
  5
EF
330
7B
100
AcDbEntity
  8
LC-003-002-----0
  6
Continuous
 62
     3
100
AcDbLine
 10
120.9523683142429
 20
260.509508
 30
0.0
 11
124.7067593142428
 21
203.009508
 31
0.0
  0
LINE
  5
F0
330
7B
100
AcDbEntity
  8
LC-003-002-----0
  6
Continuous
 62
     3
100
AcDbLine
 10
123.5504453142429
 20
260.509508
 30
0.0
 11
127.304835314243
 21
203.009508
 31
0.0
  0
LINE
  5
F1
330
7B
100
AcDbEntity
  8
LC-003-002-----0
  6
Continuous
 62
     3
100
AcDbLine
 10
126.8777043142429
 20
209.5512
 30
0.0
 11
126.8777043142429
 21
260.509508
 31
0.0
  0
LINE
  5
F2
330
7B
100
AcDbEntity
  8
LC-003-002-----0
  6
Continuous
 62
     3
100
AcDbLine
 10
126.8777043142429
 20
260.509508
 30
0.0
 11
130.7716213142429
 21
218.339848
 31
0.0
  0
LINE
  5
F3
330
7B
100
AcDbEntity
  8
LC-003-002-----0
  6
Continuous
 62
     3
100
AcDbLine
 10
128.9990243142429
 20
260.509508
 30
0.0
 11
132.8929423142429
 21
218.339848
 31
0.0
  0
LINE
  5
F4
330
7B
100
AcDbEntity
  8
LC-003-002-----0
  6
Continuous
 62
     3
100
AcDbLine
 10
132.8929423142429
 20
218.339848
 30
0.0
 11
130.7716213142429
 21
218.339848
 31
0.0
  0
LINE
  5
F5
330
7B
100
AcDbEntity
  8
LC-003-002-----0
  6
Continuous
 62
     3
100
AcDbLine
 10
132.8929423142429
 20
203.009508
 30
0.0
 11
132.8929423142429
 21
218.339848
 31
0.0
  0
LINE
  5
F6
330
7B
100
AcDbEntity
  8
LC-003-002-----0
  6
Continuous
 62
     3
100
AcDbLine
 10
130.7716213142429
 20
203.009508
 30
0.0
 11
130.7716213142429
 21
218.339848
 31
0.0
  0
LINE
  5
F7
330
7B
100
AcDbEntity
  8
LC-003-002-----0
  6
Continuous
 62
     3
100
AcDbLine
 10
136.021876314243
 20
234.249884
 30
0.0
 11
136.021876314243
 21
260.509508
 31
0.0
  0
LINE
  5
F8
330
7B
100
AcDbEntity
  8
LC-003-002-----0
  6
Continuous
 62
     3
100
AcDbLine
 10
131.552120314243
 20
232.860442
 30
0.0
 11
131.552120314243
 21
260.509508
 31
0.0
  0
LINE
  5
F9
330
7B
100
AcDbEntity
  8
LC-003-002-----0
  6
Continuous
 62
     3
100
AcDbLine
 10
138.271876314243
 20
196.509508
 30
0.0
 11
138.271876314243
 21
203.009508
 31
0.0
  0
LINE
  5
FA
330
7B
100
AcDbEntity
  8
LC-003-002-----0
  6
Continuous
 62
     3
100
AcDbLine
 10
131.552120314243
 20
260.509508
 30
0.0
 11
138.054916314243
 21
203.009508
 31
0.0
  0
LINE
  5
FB
330
7B
100
AcDbEntity
  8
LC-003-002-----0
  6
Continuous
 62
     3
100
AcDbLine
 10
133.052120314243
 20
260.509508
 30
0.0
 11
139.554916314243
 21
203.009508
 31
0.0
  0
LINE
  5
FC
330
7B
100
AcDbEntity
  8
LC-003-002-----0
  6
Continuous
 62
     3
100
AcDbLine
 10
133.771876314243
 20
196.509508
 30
0.0
 11
133.771876314243
 21
203.009508
 31
0.0
  0
LINE
  5
FD
330
7B
100
AcDbEntity
  8
LC-003-002-----0
  6
PHANTOM
 62
     3
100
AcDbLine
 10
83.27187631424295
 20
196.509508
 30
0.0
 11
83.27187631424295
 21
203.009508
 31
0.0
  0
LINE
  5
FE
330
7B
100
AcDbEntity
  8
LC-003-002-----0
  6
PHANTOM
 62
     3
100
AcDbLine
 10
78.77187631424295
 20
196.509508
 30
0.0
 11
78.77187631424295
 21
203.009508
 31
0.0
  0
LINE
  5
FF
330
7B
100
AcDbEntity
  8
LC-003-002-----0
  6
Continuous
 62
     3
100
AcDbLine
 10
106.021876314243
 20
261.8095080000001
 30
0.0
 11
111.021876314243
 21
261.8095080000001
 31
0.0
  0
LINE
  5
100
330
7B
100
AcDbEntity
  8
LC-003-002-----0
  6
Continuous
 62
     3
100
AcDbLine
 10
132.521876314243
 20
261.509508
 30
0.0
 11
133.521876314243
 21
260.509508
 31
0.0
  0
LINE
  5
101
330
7B
100
AcDbEntity
  8
LC-003-002-----0
  6
Continuous
 62
     3
100
AcDbLine
 10
84.52187631424295
 20
261.509508
 30
0.0
 11
83.52187631424295
 21
260.509508
 31
0.0
  0
LINE
  5
102
330
7B
100
AcDbEntity
  8
LC-003-002-----0
  6
Continuous
 62
     3
100
AcDbLine
 10
106.021876314243
 20
261.509508
 30
0.0
 11
106.021876314243
 21
261.8095080000001
 31
0.0
  0
LINE
  5
103
330
7B
100
AcDbEntity
  8
LC-003-002-----0
  6
Continuous
 62
     3
100
AcDbLine
 10
111.021876314243
 20
261.509508
 30
0.0
 11
111.021876314243
 21
261.8095080000001
 31
0.0
  0
LINE
  5
104
330
7B
100
AcDbEntity
  8
LC-003-002-----0
  6
Continuous
 62
     3
100
AcDbLine
 10
141.357653314243
 20
206.97965
 30
0.0
 11
139.1512923142429
 21
206.578493
 31
0.0
  0
LINE
  5
105
330
7B
100
AcDbEntity
  8
LC-003-002-----0
  6
Continuous
 62
     3
100
AcDbLine
 10
140.6212423142429
 20
207.563036
 30
0.0
 11
139.071808314243
 21
207.2813209999999
 31
0.0
  0
LINE
  5
106
330
7B
100
AcDbEntity
  8
LC-003-002-----0
  6
Continuous
 62
     3
100
AcDbLine
 10
140.4906743142429
 20
208.3466089999999
 30
0.0
 11
138.9823473142429
 21
208.072368
 31
0.0
  0
LINE
  5
107
330
7B
100
AcDbEntity
  8
LC-003-002-----0
  6
Continuous
 62
     3
100
AcDbLine
 10
141.5218763154429
 20
223.842592999
 30
0.0
 11
141.5218763154429
 21
207.176423999
 31
0.0
  0
LINE
  5
108
330
7B
100
AcDbEntity
  8
LC-003-002-----0
  6
Continuous
 62
     3
100
AcDbLine
 10
141.357653314243
 20
224.039366998
 30
0.0
 11
137.088829314243
 21
224.815516998
 31
0.0
  0
LINE
  5
109
330
7B
100
AcDbEntity
  8
LC-003-002-----0
  6
Continuous
 62
     3
100
AcDbLine
 10
140.6212423142429
 20
223.455981
 30
0.0
 11
137.1716503142429
 21
224.08318
 31
0.0
  0
LINE
  5
10A
330
7B
100
AcDbEntity
  8
LC-003-002-----0
  6
Continuous
 62
     3
100
AcDbLine
 10
140.4906743142429
 20
222.672408
 30
0.0
 11
137.2648683142429
 21
223.258918
 31
0.0
  0
LINE
  5
10B
330
7B
100
AcDbEntity
  8
LC-003-002-----0
  6
Continuous
 62
     3
100
AcDbLine
 10
141.521876314243
 20
210.509508
 30
0.0
 11
144.3218763142429
 21
210.509508
 31
0.0
  0
LINE
  5
10C
330
7B
100
AcDbEntity
  8
LC-003-002-----0
  6
Continuous
 62
     3
100
AcDbLine
 10
144.521876314243
 20
220.3095080000001
 30
0.0
 11
144.521876314243
 21
210.709508
 31
0.0
  0
LINE
  5
10D
330
7B
100
AcDbEntity
  8
LC-003-002-----0
  6
Continuous
 62
     3
100
AcDbLine
 10
141.521876314243
 20
220.509508
 30
0.0
 11
144.3218763142429
 21
220.509508
 31
0.0
  0
LINE
  5
10E
330
7B
100
AcDbEntity
  8
LC-003-002-----0
  6
Continuous
 62
     3
100
AcDbLine
 10
142.1369833142429
 20
219.509508
 30
0.0
 11
143.612051314243
 21
219.509508
 31
0.0
  0
LINE
  5
10F
330
7B
100
AcDbEntity
  8
LC-003-002-----0
  6
Continuous
 62
     3
100
AcDbLine
 10
142.1369833142429
 20
219.509508
 30
0.0
 11
143.612051314243
 21
219.509508
 31
0.0
  0
LINE
  5
110
330
7B
100
AcDbEntity
  8
LC-003-002-----0
  6
Continuous
 62
     3
100
AcDbLine
 10
142.1369833142429
 20
211.509508
 30
0.0
 11
143.612051314243
 21
211.509508
 31
0.0
  0
LINE
  5
111
330
7B
100
AcDbEntity
  8
LC-003-002-----0
  6
Continuous
 62
     3
100
AcDbLine
 10
141.8695083142429
 20
211.009508
 30
0.0
 11
144.0090213142429
 21
211.009508
 31
0.0
  0
LINE
  5
112
330
7B
100
AcDbEntity
  8
LC-003-002-----0
  6
Continuous
 62
     3
100
AcDbLine
 10
141.8695083142429
 20
220.009508
 30
0.0
 11
144.0090213142429
 21
220.009508
 31
0.0
  0
LINE
  5
113
330
7B
100
AcDbEntity
  8
LC-004-005-----0
  6
Continuous
 62
     3
100
AcDbLine
 10
126.7673453142429
 20
197.009508
 30
0.0
 11
127.588097314243
 21
198.447964
 31
0.0
  0
LINE
  5
114
330
7B
100
AcDbEntity
  8
LC-004-005-----0
  6
Continuous
 62
     3
100
AcDbLine
 10
127.588097314243
 20
198.447964
 30
0.0
 11
127.2064113142429
 21
200.146697
 31
0.0
  0
LINE
  5
115
330
7B
100
AcDbEntity
  8
LC-004-005-----0
  6
Continuous
 62
     3
100
AcDbLine
 10
127.2064113142429
 20
200.146697
 30
0.0
 11
127.798029314243
 21
201.780294
 31
0.0
  0
LINE
  5
116
330
7B
100
AcDbEntity
  8
LC-004-005-----0
  6
Continuous
 62
     3
100
AcDbLine
 10
127.798029314243
 20
201.780294
 30
0.0
 11
127.9206203142429
 21
203.009508
 31
0.0
  0
LINE
  5
117
330
7B
100
AcDbEntity
  8
LC-004-005-----0
  6
Continuous
 62
     7
100
AcDbLine
 10
139.2792353142429
 20
196.509508
 30
0.0
 11
143.521876314243
 21
200.752149
 31
0.0
  0
LINE
  5
118
330
7B
100
AcDbEntity
  8
LC-004-005-----0
  6
Continuous
 62
     7
100
AcDbLine
 10
138.271876314243
 20
199.74479
 30
0.0
 11
141.536595314243
 21
203.009508
 31
0.0
  0
LINE
  5
119
330
7B
100
AcDbEntity
  8
LC-004-005-----0
  6
Continuous
 62
     7
100
AcDbLine
 10
130.7939543142429
 20
196.509508
 30
0.0
 11
133.771876314243
 21
199.487431
 31
0.0
  0
LINE
  5
11A
330
7B
100
AcDbEntity
  8
LC-004-005-----0
  6
Continuous
 62
     7
100
AcDbLine
 10
127.0513133142429
 20
197.009508
 30
0.0
 11
133.0513133142429
 21
203.009508
 31
0.0
  0
LINE
  5
11B
330
7B
100
AcDbEntity
  8
LC-004-005-----0
  6
Continuous
 62
     7
100
AcDbLine
 10
127.8222423142429
 20
202.0230779999999
 30
0.0
 11
128.8086733142429
 21
203.009508
 31
0.0
  0
LINE
  5
11C
330
7B
100
AcDbEntity
  8
1
  6
DOT_CENTER
 62
     3
100
AcDbLine
 10
136.021876314243
 20
196.009508
 30
0.0
 11
136.021876314243
 21
203.509508
 31
0.0
  0
LINE
  5
11D
330
7B
100
AcDbEntity
  8
1
  6
DOT_CENTER
 62
     3
100
AcDbLine
 10
81.02187631424295
 20
196.009508
 30
0.0
 11
81.02187631424295
 21
203.509508
 31
0.0
  0
LINE
  5
11E
330
7B
100
AcDbEntity
  8
1
  6
DOT_CENTER
 62
     3
100
AcDbLine
 10
145.9609005639351
 20
215.5095089857741
 30
0.0
 11
135.0429164662274
 21
215.509508122193
 31
0.0
  0
LINE
  5
11F
330
7B
100
AcDbEntity
  8
1
  6
DOT_CENTER
 62
     3
100
AcDbLine
 10
108.521876314243
 20
194.558438155943
 30
0.0
 11
108.521876314243
 21
262.8671781837051
 31
0.0
  0
ARC
  5
120
330
7B
100
AcDbEntity
  8
LC-005-002-RND-0
  6
Continuous
 62
     3
100
AcDbCircle
 10
141.321876314443
 20
223.842592999
 30
0.0
 40
0.2000000009999212
100
AcDbArc
 50
0.0
 51
79.69517915980357
  0
ARC
  5
121
330
7B
100
AcDbEntity
  8
LC-005-002-RND-0
  6
Continuous
 62
     3
100
AcDbCircle
 10
141.321876314443
 20
207.176423999
 30
0.0
 40
0.2000000009928719
100
AcDbArc
 50
280.304820840195
 51
0.0
  0
ARC
  5
122
330
7B
100
AcDbEntity
  8
LC-005-002-RND-0
  6
Continuous
 62
     3
100
AcDbCircle
 10
144.3218763142429
 20
220.3095080000001
 30
0.0
 40
0.2000000000001023
100
AcDbArc
 50
0.0
 51
90.0
  0
ARC
  5
123
330
7B
100
AcDbEntity
  8
LC-005-002-RND-0
  6
Continuous
 62
     3
100
AcDbCircle
 10
144.3218763142429
 20
210.709508
 30
0.0
 40
0.1999999999999886
100
AcDbArc
 50
270.0
 51
0.0
  0
DIMENSION
  5
130
330
7B
100
AcDbEntity
  8
1
100
AcDbDimension
  2
*D9
 10
153.508540225283
 20
196.509508
 30
0.0
 11
149.758540225283
 21
210.963778107031
 31
0.0
 70
    32
  1
<>
 71
     5
 42
-1.0
 53
90.0
  3
ME10_DIM_10
100
AcDbAlignedDimension
 13
143.521876314243
 23
203.009508
 33
0.0
 14
143.521876314243
 24
196.509508
 34
0.0
 50
90.0
100
AcDbRotatedDimension
  0
DIMENSION
  5
13B
330
7B
100
AcDbEntity
  8
1
100
AcDbDimension
  2
*D10
 10
83.52187631424295
 20
271.509508
 30
0.0
 11
107.816713186364
 21
275.259508
 31
0.0
 70
    33
  1
<>
 71
     5
 42
-1.0
 53
0.00013888888889
  3
ME10_DIM_11
100
AcDbAlignedDimension
 13
133.521876314243
 23
260.509508
 33
0.0
 14
83.52187631424295
 24
260.509508
 34
0.0
  0
DIMENSION
  5
146
330
7B
100
AcDbEntity
  8
1
100
AcDbDimension
  2
*D11
 10
161.613359481881
 20
261.509508
 30
0.0
 11
157.863359481881
 21
228.217804650847
 31
0.0
 70
    32
  1
<>
 71
     5
 42
-1.0
 53
90.0
  3
ME10_DIM_12
100
AcDbAlignedDimension
 13
143.521876314243
 23
196.509508
 33
0.0
 14
132.521876314243
 24
261.509508
 34
0.0
 50
90.0
100
AcDbRotatedDimension
  0
ENDBLK
  5
7D
330
7B
100
AcDbEntity
  8
0
100
AcDbBlockEnd
  0
BLOCK
  5
7F
330
7E
100
AcDbEntity
  8
0
100
AcDbBlockBegin
  2
Vorderansicht
 70
     0
 10
68.631701314243
 20
95.334215484086
 30
0.0
  3
Vorderansicht
  1

  0
LINE
  5
147
330
7E
100
AcDbEntity
  8
LC-003-002-----0
  6
Continuous
 62
     3
100
AcDbLine
 10
143.631701314243
 20
141.884215484086
 30
0.0
 11
143.631701314243
 21
119.384215484086
 31
0.0
  0
LINE
  5
148
330
7E
100
AcDbEntity
  8
LC-003-002-----0
  6
Continuous
 62
     3
100
AcDbLine
 10
141.2674783142429
 20
155.414073482086
 30
0.0
 11
135.9317013142429
 21
156.384215482086
 31
0.0
  0
LINE
  5
149
330
7E
100
AcDbEntity
  8
LC-003-002-----0
  6
Continuous
 62
     3
100
AcDbLine
 10
140.5310673142431
 20
154.830687484086
 30
0.0
 11
136.131701314243
 21
155.630572484086
 31
0.0
  0
LINE
  5
14A
330
7E
100
AcDbEntity
  8
LC-003-002-----0
  6
Continuous
 62
     3
100
AcDbLine
 10
140.400499314243
 20
154.047114484086
 30
0.0
 11
136.131701314243
 21
154.823259484086
 31
0.0
  0
LINE
  5
14B
330
7E
100
AcDbEntity
  8
LC-003-002-----0
  6
Continuous
 62
     3
100
AcDbLine
 10
140.400499314243
 20
139.721315484086
 30
0.0
 11
136.131701314243
 21
138.945170484086
 31
0.0
  0
LINE
  5
14C
330
7E
100
AcDbEntity
  8
LC-003-002-----0
  6
Continuous
 62
     3
100
AcDbLine
 10
140.5310673142431
 20
138.937742484086
 30
0.0
 11
136.131701314243
 21
138.137857484086
 31
0.0
  0
LINE
  5
14D
330
7E
100
AcDbEntity
  8
LC-003-002-----0
  6
Continuous
 62
     3
100
AcDbLine
 10
141.2674783142429
 20
138.354356484086
 30
0.0
 11
135.9317013142429
 21
137.384215484086
 31
0.0
  0
LINE
  5
14E
330
7E
100
AcDbEntity
  8
LC-003-002-----0
  6
Continuous
 62
     3
100
AcDbLine
 10
141.431701315443
 20
155.217299483086
 30
0.0
 11
141.431701315443
 21
138.551130483086
 31
0.0
  0
LINE
  5
14F
330
7E
100
AcDbEntity
  8
LC-003-002-----0
  6
Continuous
 62
     3
100
AcDbLine
 10
141.4317013142429
 20
141.884215484086
 30
0.0
 11
144.231701314243
 21
141.884215484086
 31
0.0
  0
LINE
  5
150
330
7E
100
AcDbEntity
  8
LC-003-002-----0
  6
Continuous
 62
     3
100
AcDbLine
 10
110.131701314243
 20
181.852057484086
 30
0.0
 11
110.131701314243
 21
174.343275484086
 31
0.0
  0
LINE
  5
151
330
7E
100
AcDbEntity
  8
LC-003-002-----0
  6
Continuous
 62
     3
100
AcDbLine
 10
107.131701314243
 20
181.852057484086
 30
0.0
 11
107.131701314243
 21
174.343275484086
 31
0.0
  0
LINE
  5
152
330
7E
100
AcDbEntity
  8
LC-003-002-----0
  6
Continuous
 62
     3
100
AcDbLine
 10
107.131701314243
 20
119.425154484086
 30
0.0
 11
107.131701314243
 21
111.916372484086
 31
0.0
  0
LINE
  5
153
330
7E
100
AcDbEntity
  8
LC-003-002-----0
  6
Continuous
 62
     3
100
AcDbLine
 10
110.131701314243
 20
119.425154484086
 30
0.0
 11
110.131701314243
 21
111.916372484086
 31
0.0
  0
LINE
  5
154
330
7E
100
AcDbEntity
  8
LC-003-002-----0
  6
Continuous
 62
     3
100
AcDbLine
 10
114.289740313243
 20
119.972570488686
 30
0.0
 11
116.2331563132429
 21
112.719644488686
 31
0.0
  0
LINE
  5
155
330
7E
100
AcDbEntity
  8
LC-003-002-----0
  6
Continuous
 62
     3
100
AcDbLine
 10
121.062193294943
 20
122.353971472986
 30
0.0
 11
124.8165842437429
 21
115.851175598186
 31
0.0
  0
LINE
  5
156
330
7E
100
AcDbEntity
  8
LC-003-002-----0
  6
Continuous
 62
     3
100
AcDbLine
 10
126.9875293142429
 20
126.407067484086
 30
0.0
 11
130.905565314243
 21
122.489031484086
 31
0.0
  0
LINE
  5
157
330
7E
100
AcDbEntity
  8
LC-003-002-----0
  6
Continuous
 62
     3
100
AcDbLine
 10
131.6619451507429
 20
131.855646609686
 30
0.0
 11
138.1647411416429
 21
128.101255593886
 31
0.0
  0
LINE
  5
158
330
7E
100
AcDbEntity
  8
LC-003-002-----0
  6
Continuous
 62
     3
100
AcDbLine
 10
133.161945266843
 20
159.314707438786
 30
0.0
 11
139.6647412577429
 21
163.069098454586
 31
0.0
  0
LINE
  5
159
330
7E
100
AcDbEntity
  8
LC-003-002-----0
  6
Continuous
 62
     3
100
AcDbLine
 10
129.1088493142429
 20
165.240042484086
 30
0.0
 11
133.0268853142429
 21
169.158078484086
 31
0.0
  0
LINE
  5
15A
330
7E
100
AcDbEntity
  8
LC-003-002-----0
  6
Continuous
 62
     3
100
AcDbLine
 10
123.660270314243
 20
169.914459484086
 30
0.0
 11
127.414660747343
 21
176.417255201286
 31
0.0
  0
LINE
  5
15B
330
7E
100
AcDbEntity
  8
LC-003-002-----0
  6
Continuous
 62
     3
100
AcDbLine
 10
117.187518312343
 20
173.019402477986
 30
0.0
 11
119.1309333123429
 21
180.272328477986
 31
0.0
  0
LINE
  5
15C
330
7E
100
AcDbEntity
  8
LC-003-002-----0
  6
Continuous
 62
     3
100
AcDbLine
 10
110.131701314243
 20
174.343275484086
 30
0.0
 11
110.131701314243
 21
179.884215484086
 31
0.0
  0
LINE
  5
15D
330
7E
100
AcDbEntity
  8
LC-003-002-----0
  6
Continuous
 62
     3
100
AcDbLine
 10
102.973662254343
 20
173.7958597531861
 30
0.0
 11
101.030246254343
 21
181.048785753186
 31
0.0
  0
LINE
  5
15E
330
7E
100
AcDbEntity
  8
LC-003-002-----0
  6
Continuous
 62
     3
100
AcDbLine
 10
96.20120914014296
 20
171.414459817886
 30
0.0
 11
92.44681814014302
 21
177.917254817886
 31
0.0
  0
LINE
  5
15F
330
7E
100
AcDbEntity
  8
LC-003-002-----0
  6
Continuous
 62
     3
100
AcDbLine
 10
90.27587431424297
 20
167.361363484086
 30
0.0
 11
86.38195631424298
 21
171.255280484086
 31
0.0
  0
LINE
  5
160
330
7E
100
AcDbEntity
  8
LC-003-002-----0
  6
Continuous
 62
     3
100
AcDbLine
 10
117.1875183156431
 20
120.749028479586
 30
0.0
 11
119.130933315643
 21
113.496101479586
 31
0.0
  0
LINE
  5
161
330
7E
100
AcDbEntity
  8
LC-003-002-----0
  6
Continuous
 62
     3
100
AcDbLine
 10
123.660270314243
 20
123.853971484086
 30
0.0
 11
127.414660747343
 21
117.351175766886
 31
0.0
  0
LINE
  5
162
330
7E
100
AcDbEntity
  8
LC-003-002-----0
  6
Continuous
 62
     3
100
AcDbLine
 10
129.1088493142429
 20
128.528387484086
 30
0.0
 11
133.0268853142429
 21
124.610351484086
 31
0.0
  0
LINE
  5
163
330
7E
100
AcDbEntity
  8
LC-003-002-----0
  6
Continuous
 62
     3
100
AcDbLine
 10
133.161945504743
 20
134.453723405286
 30
0.0
 11
139.6647414956431
 21
130.699332389486
 31
0.0
  0
LINE
  5
164
330
7E
100
AcDbEntity
  8
LC-003-002-----0
  6
Continuous
 62
     3
100
AcDbLine
 10
131.661945377143
 20
161.912783502486
 30
0.0
 11
138.164741368043
 21
165.667174518286
 31
0.0
  0
LINE
  5
165
330
7E
100
AcDbEntity
  8
LC-003-002-----0
  6
Continuous
 62
     3
100
AcDbLine
 10
126.9875293142429
 20
167.361363484086
 30
0.0
 11
130.905565314243
 21
171.279399484086
 31
0.0
  0
LINE
  5
166
330
7E
100
AcDbEntity
  8
LC-003-002-----0
  6
Continuous
 62
     3
100
AcDbLine
 10
121.062193294943
 20
171.414459495186
 30
0.0
 11
124.8165842437429
 21
177.917255369986
 31
0.0
  0
LINE
  5
167
330
7E
100
AcDbEntity
  8
LC-003-002-----0
  6
Continuous
 62
     3
100
AcDbLine
 10
114.289740315643
 20
173.795859490286
 30
0.0
 11
116.233156315643
 21
181.048785490286
 31
0.0
  0
LINE
  5
168
330
7E
100
AcDbEntity
  8
LC-003-002-----0
  6
Continuous
 62
     3
100
AcDbLine
 10
107.131701314243
 20
174.343275484086
 30
0.0
 11
107.131701314243
 21
179.884215484086
 31
0.0
  0
LINE
  5
169
330
7E
100
AcDbEntity
  8
LC-003-002-----0
  6
Continuous
 62
     3
100
AcDbLine
 10
100.075885396943
 20
173.019402221086
 30
0.0
 11
98.13246892494294
 21
180.272328637386
 31
0.0
  0
LINE
  5
16A
330
7E
100
AcDbEntity
  8
LC-003-002-----0
  6
Continuous
 62
     3
100
AcDbLine
 10
93.6031335162429
 20
169.914459166486
 30
0.0
 11
89.848742083243
 21
176.417254883586
 31
0.0
  0
LINE
  5
16B
330
7E
100
AcDbEntity
  8
LC-003-002-----0
  6
Continuous
 62
     3
100
AcDbLine
 10
88.154553314243
 20
165.240042484086
 30
0.0
 11
84.26063631424296
 21
169.133960484086
 31
0.0
  0
LINE
  5
16C
330
7E
100
AcDbEntity
  8
LC-003-002-----0
  6
Continuous
 62
     3
100
AcDbLine
 10
88.154553314243
 20
128.528387484086
 30
0.0
 11
84.23651731424297
 21
124.610351484086
 31
0.0
  0
LINE
  5
16D
330
7E
100
AcDbEntity
  8
LC-003-002-----0
  6
Continuous
 62
     3
100
AcDbLine
 10
90.27587431424297
 20
126.407067484086
 30
0.0
 11
86.35783831424305
 21
122.489031484086
 31
0.0
  0
LINE
  5
16E
330
7E
100
AcDbEntity
  8
LC-003-002-----0
  6
Continuous
 62
     3
100
AcDbLine
 10
93.603133314243
 20
123.853971484086
 30
0.0
 11
89.84874188114304
 21
117.351175766886
 31
0.0
  0
LINE
  5
16F
330
7E
100
AcDbEntity
  8
LC-003-002-----0
  6
Continuous
 62
     3
100
AcDbLine
 10
96.20120933354292
 20
122.353971472986
 30
0.0
 11
92.44681838474298
 21
115.851175598186
 31
0.0
  0
LINE
  5
170
330
7E
100
AcDbEntity
  8
LC-003-002-----0
  6
Continuous
 62
     3
100
AcDbLine
 10
100.0758853142429
 20
120.749028484086
 30
0.0
 11
98.13246884224304
 21
113.496102067786
 31
0.0
  0
LINE
  5
171
330
7E
100
AcDbEntity
  8
LC-003-002-----0
  6
Continuous
 62
     3
100
AcDbLine
 10
102.973662314243
 20
119.972570484086
 30
0.0
 11
101.030246647043
 21
112.719644845186
 31
0.0
  0
LINE
  5
172
330
7E
100
AcDbEntity
  8
LC-003-002-----0
  6
Continuous
 62
     3
100
AcDbLine
 10
81.131701314243
 20
181.884215484086
 30
0.0
 11
136.131701314243
 21
181.884215484086
 31
0.0
  0
LINE
  5
173
330
7E
100
AcDbEntity
  8
LC-003-002-----0
  6
Continuous
 62
     3
100
AcDbLine
 10
81.131701314243
 20
111.884215484086
 30
0.0
 11
136.131701314243
 21
111.884215484086
 31
0.0
  0
LINE
  5
174
330
7E
100
AcDbEntity
  8
LC-003-002-----0
  6
Continuous
 62
     3
100
AcDbLine
 10
143.631701314243
 20
174.384215484086
 30
0.0
 11
143.631701314243
 21
151.884215484086
 31
0.0
  0
LINE
  5
175
330
7E
100
AcDbEntity
  8
LC-003-002-----0
  6
Continuous
 62
     3
100
AcDbLine
 10
73.631701314243
 20
174.384215484086
 30
0.0
 11
73.631701314243
 21
119.384215484086
 31
0.0
  0
LINE
  5
176
330
7E
100
AcDbEntity
  8
LC-003-002-----0
  6
Continuous
 62
     3
100
AcDbLine
 10
144.4317013142429
 20
151.684215484086
 30
0.0
 11
144.4317013142429
 21
142.084215484086
 31
0.0
  0
LINE
  5
177
330
7E
100
AcDbEntity
  8
LC-003-002-----0
  6
Continuous
 62
     3
100
AcDbLine
 10
141.4317013142429
 20
151.884215484086
 30
0.0
 11
144.231701314243
 21
151.884215484086
 31
0.0
  0
LINE
  5
178
330
7E
100
AcDbEntity
  8
LC-003-002-----0
  6
Continuous
 62
     3
100
AcDbLine
 10
142.046808314243
 20
150.884215484086
 30
0.0
 11
143.521876314243
 21
150.884215484086
 31
0.0
  0
LINE
  5
179
330
7E
100
AcDbEntity
  8
LC-003-002-----0
  6
Continuous
 62
     3
100
AcDbLine
 10
142.046808314243
 20
150.884215484086
 30
0.0
 11
143.521876314243
 21
150.884215484086
 31
0.0
  0
LINE
  5
17A
330
7E
100
AcDbEntity
  8
LC-003-002-----0
  6
Continuous
 62
     3
100
AcDbLine
 10
142.046808314243
 20
142.884215484086
 30
0.0
 11
143.521876314243
 21
142.884215484086
 31
0.0
  0
LINE
  5
17B
330
7E
100
AcDbEntity
  8
LC-003-002-----0
  6
Continuous
 62
     3
100
AcDbLine
 10
141.779333314243
 20
142.384215484086
 30
0.0
 11
143.918846314243
 21
142.384215484086
 31
0.0
  0
LINE
  5
17C
330
7E
100
AcDbEntity
  8
LC-003-002-----0
  6
Continuous
 62
     3
100
AcDbLine
 10
141.779333314243
 20
151.384215484086
 30
0.0
 11
143.918846314243
 21
151.384215484086
 31
0.0
  0
LINE
  5
17D
330
7E
100
AcDbEntity
  8
LC-003-002-----0
  6
Continuous
 62
     3
100
AcDbLine
 10
135.9317013142429
 20
136.884215484086
 30
0.0
 11
135.9317013142429
 21
143.5736264840861
 31
0.0
  0
LINE
  5
17E
330
7E
100
AcDbEntity
  8
LC-003-002-----0
  6
Continuous
 62
     3
100
AcDbLine
 10
134.249078314243
 20
156.884215484086
 30
0.0
 11
135.9317013142429
 21
156.884215484086
 31
0.0
  0
LINE
  5
17F
330
7E
100
AcDbEntity
  8
LC-003-002-----0
  6
Continuous
 62
     3
100
AcDbLine
 10
134.249078314243
 20
136.884215484086
 30
0.0
 11
135.9317013142429
 21
136.884215484086
 31
0.0
  0
LINE
  5
180
330
7E
100
AcDbEntity
  8
LC-003-002-----0
  6
Continuous
 62
     3
100
AcDbLine
 10
135.9317013142429
 20
150.194804484086
 30
0.0
 11
135.9317013142429
 21
156.884215484086
 31
0.0
  0
LINE
  5
181
330
7E
100
AcDbEntity
  8
LC-004-005-----0
  6
Continuous
 62
     3
100
AcDbLine
 10
105.094753314243
 20
126.184215484086
 30
0.0
 11
112.168649314243
 21
126.184215484086
 31
0.0
  0
LINE
  5
182
330
7E
100
AcDbEntity
  8
LC-004-005-----0
  6
Continuous
 62
     3
100
AcDbLine
 10
103.647727314243
 20
126.484215484086
 30
0.0
 11
113.6156763142431
 21
126.484215484086
 31
0.0
  0
LINE
  5
183
330
7E
100
AcDbEntity
  8
LC-004-005-----0
  6
Continuous
 62
     3
100
AcDbLine
 10
102.5497613142429
 20
126.784215484086
 30
0.0
 11
114.713642314243
 21
126.784215484086
 31
0.0
  0
LINE
  5
184
330
7E
100
AcDbEntity
  8
LC-004-005-----0
  6
Continuous
 62
     3
100
AcDbLine
 10
101.634559314243
 20
127.084215484086
 30
0.0
 11
115.6288433142429
 21
127.084215484086
 31
0.0
  0
LINE
  5
185
330
7E
100
AcDbEntity
  8
LC-004-005-----0
  6
Continuous
 62
     3
100
AcDbLine
 10
100.837473314243
 20
127.384215484086
 30
0.0
 11
116.425930314243
 21
127.384215484086
 31
0.0
  0
LINE
  5
186
330
7E
100
AcDbEntity
  8
LC-004-005-----0
  6
Continuous
 62
     3
100
AcDbLine
 10
100.1252333142429
 20
127.684215484086
 30
0.0
 11
117.138169314243
 21
127.684215484086
 31
0.0
  0
LINE
  5
187
330
7E
100
AcDbEntity
  8
LC-004-005-----0
  6
Continuous
 62
     3
100
AcDbLine
 10
99.47801331424296
 20
127.984215484086
 30
0.0
 11
117.7853893142431
 21
127.984215484086
 31
0.0
  0
LINE
  5
188
330
7E
100
AcDbEntity
  8
LC-004-005-----0
  6
Continuous
 62
     3
100
AcDbLine
 10
98.88285531424299
 20
128.284215484086
 30
0.0
 11
118.3805473142429
 21
128.284215484086
 31
0.0
  0
LINE
  5
189
330
7E
100
AcDbEntity
  8
LC-004-005-----0
  6
Continuous
 62
     3
100
AcDbLine
 10
98.33073031424306
 20
128.584215484086
 30
0.0
 11
118.9326723142431
 21
128.584215484086
 31
0.0
  0
LINE
  5
18A
330
7E
100
AcDbEntity
  8
LC-004-005-----0
  6
Continuous
 62
     3
100
AcDbLine
 10
97.81504731424297
 20
128.884215484086
 30
0.0
 11
119.4483553142429
 21
128.884215484086
 31
0.0
  0
LINE
  5
18B
330
7E
100
AcDbEntity
  8
LC-004-005-----0
  6
Continuous
 62
     3
100
AcDbLine
 10
97.33081631424307
 20
129.184215484086
 30
0.0
 11
119.9325863142431
 21
129.184215484086
 31
0.0
  0
LINE
  5
18C
330
7E
100
AcDbEntity
  8
LC-004-005-----0
  6
Continuous
 62
     3
100
AcDbLine
 10
96.87415031424302
 20
129.484215484086
 30
0.0
 11
120.389252314243
 21
129.484215484086
 31
0.0
  0
LINE
  5
18D
330
7E
100
AcDbEntity
  8
LC-004-005-----0
  6
Continuous
 62
     3
100
AcDbLine
 10
96.44195131424294
 20
129.784215484086
 30
0.0
 11
120.821451314243
 21
129.784215484086
 31
0.0
  0
LINE
  5
18E
330
7E
100
AcDbEntity
  8
LC-004-005-----0
  6
Continuous
 62
     3
100
AcDbLine
 10
96.03170131424304
 20
130.084215484086
 30
0.0
 11
121.231701314243
 21
130.084215484086
 31
0.0
  0
LINE
  5
18F
330
7E
100
AcDbEntity
  8
LC-004-005-----0
  6
Continuous
 62
     3
100
AcDbLine
 10
95.64132031424299
 20
130.384215484086
 30
0.0
 11
121.622082314243
 21
130.384215484086
 31
0.0
  0
LINE
  5
190
330
7E
100
AcDbEntity
  8
LC-004-005-----0
  6
Continuous
 62
     3
100
AcDbLine
 10
95.26906731424299
 20
130.684215484086
 30
0.0
 11
121.9943363142429
 21
130.684215484086
 31
0.0
  0
LINE
  5
191
330
7E
100
AcDbEntity
  8
LC-004-005-----0
  6
Continuous
 62
     3
100
AcDbLine
 10
94.91346531424301
 20
130.984215484086
 30
0.0
 11
122.349937314243
 21
130.984215484086
 31
0.0
  0
LINE
  5
192
330
7E
100
AcDbEntity
  8
LC-004-005-----0
  6
Continuous
 62
     3
100
AcDbLine
 10
94.57325231424306
 20
131.284215484086
 30
0.0
 11
122.6901513142429
 21
131.284215484086
 31
0.0
  0
LINE
  5
193
330
7E
100
AcDbEntity
  8
LC-004-005-----0
  6
Continuous
 62
     3
100
AcDbLine
 10
94.24733531424295
 20
131.584215484086
 30
0.0
 11
123.0160683142431
 21
131.584215484086
 31
0.0
  0
LINE
  5
194
330
7E
100
AcDbEntity
  8
LC-004-005-----0
  6
Continuous
 62
     3
100
AcDbLine
 10
93.9347633142429
 20
131.884215484086
 30
0.0
 11
123.328640314243
 21
131.884215484086
 31
0.0
  0
LINE
  5
195
330
7E
100
AcDbEntity
  8
LC-004-005-----0
  6
Continuous
 62
     3
100
AcDbLine
 10
93.63470131424299
 20
132.184215484086
 30
0.0
 11
123.628701314243
 21
132.184215484086
 31
0.0
  0
LINE
  5
196
330
7E
100
AcDbEntity
  8
LC-004-005-----0
  6
Continuous
 62
     3
100
AcDbLine
 10
93.34641431424302
 20
132.484215484086
 30
0.0
 11
123.916988314243
 21
132.484215484086
 31
0.0
  0
LINE
  5
197
330
7E
100
AcDbEntity
  8
LC-004-005-----0
  6
Continuous
 62
     3
100
AcDbLine
 10
93.06924631424295
 20
132.784215484086
 30
0.0
 11
124.194156314243
 21
132.784215484086
 31
0.0
  0
LINE
  5
198
330
7E
100
AcDbEntity
  8
LC-004-005-----0
  6
Continuous
 62
     3
100
AcDbLine
 10
92.80261431424299
 20
133.084215484086
 30
0.0
 11
124.460788314243
 21
133.084215484086
 31
0.0
  0
LINE
  5
199
330
7E
100
AcDbEntity
  8
LC-004-005-----0
  6
Continuous
 62
     3
100
AcDbLine
 10
92.54599331424299
 20
133.384215484086
 30
0.0
 11
124.717409314243
 21
133.384215484086
 31
0.0
  0
LINE
  5
19A
330
7E
100
AcDbEntity
  8
LC-004-005-----0
  6
Continuous
 62
     3
100
AcDbLine
 10
92.2989123142429
 20
133.684215484086
 30
0.0
 11
124.964490314243
 21
133.684215484086
 31
0.0
  0
LINE
  5
19B
330
7E
100
AcDbEntity
  8
LC-004-005-----0
  6
Continuous
 62
     3
100
AcDbLine
 10
92.06094431424299
 20
133.984215484086
 30
0.0
 11
125.202459314243
 21
133.984215484086
 31
0.0
  0
LINE
  5
19C
330
7E
100
AcDbEntity
  8
LC-004-005-----0
  6
Continuous
 62
     3
100
AcDbLine
 10
91.83170131424299
 20
134.284215484086
 30
0.0
 11
125.4317013142429
 21
134.284215484086
 31
0.0
  0
LINE
  5
19D
330
7E
100
AcDbEntity
  8
LC-004-005-----0
  6
Continuous
 62
     3
100
AcDbLine
 10
91.610832314243
 20
134.584215484086
 30
0.0
 11
125.652571314243
 21
134.584215484086
 31
0.0
  0
LINE
  5
19E
330
7E
100
AcDbEntity
  8
LC-004-005-----0
  6
Continuous
 62
     3
100
AcDbLine
 10
91.39801331424292
 20
134.884215484086
 30
0.0
 11
106.169487314243
 21
134.884215484086
 31
0.0
  0
LINE
  5
19F
330
7E
100
AcDbEntity
  8
LC-004-005-----0
  6
Continuous
 62
     3
100
AcDbLine
 10
111.093916314243
 20
134.884215484086
 30
0.0
 11
125.865389314243
 21
134.884215484086
 31
0.0
  0
LINE
  5
1A0
330
7E
100
AcDbEntity
  8
LC-004-005-----0
  6
Continuous
 62
     3
100
AcDbLine
 10
91.19295131424292
 20
135.184215484086
 30
0.0
 11
105.0023073142429
 21
135.184215484086
 31
0.0
  0
LINE
  5
1A1
330
7E
100
AcDbEntity
  8
LC-004-005-----0
  6
Continuous
 62
     3
100
AcDbLine
 10
112.261095314243
 20
135.184215484086
 30
0.0
 11
126.070451314243
 21
135.184215484086
 31
0.0
  0
LINE
  5
1A2
330
7E
100
AcDbEntity
  8
LC-004-005-----0
  6
Continuous
 62
     3
100
AcDbLine
 10
90.99537531424289
 20
135.484215484086
 30
0.0
 11
104.148120314243
 21
135.484215484086
 31
0.0
  0
LINE
  5
1A3
330
7E
100
AcDbEntity
  8
LC-004-005-----0
  6
Continuous
 62
     3
100
AcDbLine
 10
113.1152823142429
 20
135.484215484086
 30
0.0
 11
126.268027314243
 21
135.484215484086
 31
0.0
  0
LINE
  5
1A4
330
7E
100
AcDbEntity
  8
LC-004-005-----0
  6
Continuous
 62
     3
100
AcDbLine
 10
90.8050363142429
 20
135.784215484086
 30
0.0
 11
103.449761314243
 21
135.784215484086
 31
0.0
  0
LINE
  5
1A5
330
7E
100
AcDbEntity
  8
LC-004-005-----0
  6
Continuous
 62
     3
100
AcDbLine
 10
113.8136413142429
 20
135.784215484086
 30
0.0
 11
126.458367314243
 21
135.784215484086
 31
0.0
  0
LINE
  5
1A6
330
7E
100
AcDbEntity
  8
LC-004-005-----0
  6
Continuous
 62
     3
100
AcDbLine
 10
90.62170431424306
 20
136.084215484086
 30
0.0
 11
102.850482314243
 21
136.084215484086
 31
0.0
  0
LINE
  5
1A7
330
7E
100
AcDbEntity
  8
LC-004-005-----0
  6
Continuous
 62
     3
100
AcDbLine
 10
114.412921314243
 20
136.084215484086
 30
0.0
 11
126.6416983142431
 21
136.084215484086
 31
0.0
  0
LINE
  5
1A8
330
7E
100
AcDbEntity
  8
LC-004-005-----0
  6
Continuous
 62
     3
100
AcDbLine
 10
90.44516831424289
 20
136.384215484086
 30
0.0
 11
102.321986314243
 21
136.384215484086
 31
0.0
  0
LINE
  5
1A9
330
7E
100
AcDbEntity
  8
LC-004-005-----0
  6
Continuous
 62
     3
100
AcDbLine
 10
114.941416314243
 20
136.384215484086
 30
0.0
 11
126.818235314243
 21
136.384215484086
 31
0.0
  0
LINE
  5
1AA
330
7E
100
AcDbEntity
  8
LC-004-005-----0
  6
Continuous
 62
     3
100
AcDbLine
 10
90.275231314243
 20
136.684215484086
 30
0.0
 11
101.847713314243
 21
136.684215484086
 31
0.0
  0
LINE
  5
1AB
330
7E
100
AcDbEntity
  8
LC-004-005-----0
  6
Continuous
 62
     3
100
AcDbLine
 10
115.415690314243
 20
136.684215484086
 30
0.0
 11
126.9881713142429
 21
136.684215484086
 31
0.0
  0
LINE
  5
1AC
330
7E
100
AcDbEntity
  8
LC-004-005-----0
  6
Continuous
 62
     3
100
AcDbLine
 10
90.11171231424305
 20
136.984215484086
 30
0.0
 11
101.4169593142431
 21
136.984215484086
 31
0.0
  0
LINE
  5
1AD
330
7E
100
AcDbEntity
  8
LC-004-005-----0
  6
Continuous
 62
     3
100
AcDbLine
 10
115.8464433142431
 20
136.984215484086
 30
0.0
 11
127.1516903142431
 21
136.984215484086
 31
0.0
  0
LINE
  5
1AE
330
7E
100
AcDbEntity
  8
LC-004-005-----0
  6
Continuous
 62
     3
100
AcDbLine
 10
89.9544423142429
 20
137.284215484086
 30
0.0
 11
101.0223323142429
 21
137.284215484086
 31
0.0
  0
LINE
  5
1AF
330
7E
100
AcDbEntity
  8
LC-004-005-----0
  6
Continuous
 62
     3
100
AcDbLine
 10
116.241070314243
 20
137.284215484086
 30
0.0
 11
127.308960314243
 21
137.284215484086
 31
0.0
  0
LINE
  5
1B0
330
7E
100
AcDbEntity
  8
LC-004-005-----0
  6
Continuous
 62
     3
100
AcDbLine
 10
89.80326531424294
 20
137.584215484086
 30
0.0
 11
100.6584653142429
 21
137.584215484086
 31
0.0
  0
LINE
  5
1B1
330
7E
100
AcDbEntity
  8
LC-004-005-----0
  6
Continuous
 62
     3
100
AcDbLine
 10
116.604938314243
 20
137.584215484086
 30
0.0
 11
127.460137314243
 21
137.584215484086
 31
0.0
  0
LINE
  5
1B2
330
7E
100
AcDbEntity
  8
LC-004-005-----0
  6
Continuous
 62
     3
100
AcDbLine
 10
89.65803531424297
 20
137.884215484086
 30
0.0
 11
100.321316314243
 21
137.884215484086
 31
0.0
  0
LINE
  5
1B3
330
7E
100
AcDbEntity
  8
LC-004-005-----0
  6
Continuous
 62
     3
100
AcDbLine
 10
116.9420863142429
 20
137.884215484086
 30
0.0
 11
127.605367314243
 21
137.884215484086
 31
0.0
  0
LINE
  5
1B4
330
7E
100
AcDbEntity
  8
LC-004-005-----0
  6
Continuous
 62
     3
100
AcDbLine
 10
89.51861731424299
 20
138.184215484086
 30
0.0
 11
100.0077523142429
 21
138.184215484086
 31
0.0
  0
LINE
  5
1B5
330
7E
100
AcDbEntity
  8
LC-004-005-----0
  6
Continuous
 62
     3
100
AcDbLine
 10
117.255650314243
 20
138.184215484086
 30
0.0
 11
127.7447863142429
 21
138.184215484086
 31
0.0
  0
LINE
  5
1B6
330
7E
100
AcDbEntity
  8
LC-004-005-----0
  6
Continuous
 62
     3
100
AcDbLine
 10
89.38488331424298
 20
138.484215484086
 30
0.0
 11
99.71528431424304
 21
138.484215484086
 31
0.0
  0
LINE
  5
1B7
330
7E
100
AcDbEntity
  8
LC-004-005-----0
  6
Continuous
 62
     3
100
AcDbLine
 10
117.548119314243
 20
138.484215484086
 30
0.0
 11
127.878519314243
 21
138.484215484086
 31
0.0
  0
LINE
  5
1B8
330
7E
100
AcDbEntity
  8
LC-004-005-----0
  6
Continuous
 62
     3
100
AcDbLine
 10
89.2567173142429
 20
138.784215484086
 30
0.0
 11
99.44189731424296
 21
138.784215484086
 31
0.0
  0
LINE
  5
1B9
330
7E
100
AcDbEntity
  8
LC-004-005-----0
  6
Continuous
 62
     3
100
AcDbLine
 10
117.821505314243
 20
138.784215484086
 30
0.0
 11
128.006685314243
 21
138.784215484086
 31
0.0
  0
LINE
  5
1BA
330
7E
100
AcDbEntity
  8
LC-004-005-----0
  6
Continuous
 62
     3
100
AcDbLine
 10
89.13400931424303
 20
139.084215484086
 30
0.0
 11
99.1859353142429
 21
139.084215484086
 31
0.0
  0
LINE
  5
1BB
330
7E
100
AcDbEntity
  8
LC-004-005-----0
  6
Continuous
 62
     3
100
AcDbLine
 10
118.077467314243
 20
139.084215484086
 30
0.0
 11
128.129393314243
 21
139.084215484086
 31
0.0
  0
LINE
  5
1BC
330
7E
100
AcDbEntity
  8
LC-004-005-----0
  6
Continuous
 62
     3
100
AcDbLine
 10
89.01665631424294
 20
139.384215484086
 30
0.0
 11
98.94601631424302
 21
139.384215484086
 31
0.0
  0
LINE
  5
1BD
330
7E
100
AcDbEntity
  8
LC-004-005-----0
  6
Continuous
 62
     3
100
AcDbLine
 10
118.317386314243
 20
139.384215484086
 30
0.0
 11
128.246746314243
 21
139.384215484086
 31
0.0
  0
LINE
  5
1BE
330
7E
100
AcDbEntity
  8
LC-004-005-----0
  6
Continuous
 62
     3
100
AcDbLine
 10
88.90456331424298
 20
139.684215484086
 30
0.0
 11
98.72097531424299
 21
139.684215484086
 31
0.0
  0
LINE
  5
1BF
330
7E
100
AcDbEntity
  8
LC-004-005-----0
  6
Continuous
 62
     3
100
AcDbLine
 10
118.5424283142429
 20
139.684215484086
 30
0.0
 11
128.358840314243
 21
139.684215484086
 31
0.0
  0
LINE
  5
1C0
330
7E
100
AcDbEntity
  8
LC-004-005-----0
  6
Continuous
 62
     3
100
AcDbLine
 10
88.79764031424293
 20
139.984215484086
 30
0.0
 11
98.50981931424303
 21
139.984215484086
 31
0.0
  0
LINE
  5
1C1
330
7E
100
AcDbEntity
  8
LC-004-005-----0
  6
Continuous
 62
     3
100
AcDbLine
 10
118.753583314243
 20
139.984215484086
 30
0.0
 11
128.465763314243
 21
139.984215484086
 31
0.0
  0
LINE
  5
1C2
330
7E
100
AcDbEntity
  8
LC-004-005-----0
  6
Continuous
 62
     3
100
AcDbLine
 10
88.69580431424299
 20
140.284215484086
 30
0.0
 11
98.31169631424291
 21
140.284215484086
 31
0.0
  0
LINE
  5
1C3
330
7E
100
AcDbEntity
  8
LC-004-005-----0
  6
Continuous
 62
     3
100
AcDbLine
 10
118.951706314243
 20
140.284215484086
 30
0.0
 11
128.567598314243
 21
140.284215484086
 31
0.0
  0
LINE
  5
1C4
330
7E
100
AcDbEntity
  8
LC-004-005-----0
  6
Continuous
 62
     3
100
AcDbLine
 10
88.59897831424291
 20
140.584215484086
 30
0.0
 11
98.12586931424289
 21
140.584215484086
 31
0.0
  0
LINE
  5
1C5
330
7E
100
AcDbEntity
  8
LC-004-005-----0
  6
Continuous
 62
     3
100
AcDbLine
 10
119.137533314243
 20
140.584215484086
 30
0.0
 11
128.664424314243
 21
140.584215484086
 31
0.0
  0
LINE
  5
1C6
330
7E
100
AcDbEntity
  8
LC-004-005-----0
  6
Continuous
 62
     3
100
AcDbLine
 10
88.50708931424299
 20
140.884215484086
 30
0.0
 11
97.95169731424289
 21
140.884215484086
 31
0.0
  0
LINE
  5
1C7
330
7E
100
AcDbEntity
  8
LC-004-005-----0
  6
Continuous
 62
     3
100
AcDbLine
 10
119.311706314243
 20
140.884215484086
 30
0.0
 11
128.756313314243
 21
140.884215484086
 31
0.0
  0
LINE
  5
1C8
330
7E
100
AcDbEntity
  8
LC-004-005-----0
  6
Continuous
 62
     3
100
AcDbLine
 10
88.42007131424293
 20
141.184215484086
 30
0.0
 11
97.78861631424297
 21
141.184215484086
 31
0.0
  0
LINE
  5
1C9
330
7E
100
AcDbEntity
  8
LC-004-005-----0
  6
Continuous
 62
     3
100
AcDbLine
 10
119.474787314243
 20
141.184215484086
 30
0.0
 11
128.843332314243
 21
141.184215484086
 31
0.0
  0
LINE
  5
1CA
330
7E
100
AcDbEntity
  8
LC-004-005-----0
  6
Continuous
 62
     3
100
AcDbLine
 10
88.33786031424302
 20
141.484215484086
 30
0.0
 11
97.63613431424301
 21
141.484215484086
 31
0.0
  0
LINE
  5
1CB
330
7E
100
AcDbEntity
  8
LC-004-005-----0
  6
Continuous
 62
     3
100
AcDbLine
 10
119.627268314243
 20
141.484215484086
 30
0.0
 11
128.925543314243
 21
141.484215484086
 31
0.0
  0
LINE
  5
1CC
330
7E
100
AcDbEntity
  8
LC-004-005-----0
  6
Continuous
 62
     3
100
AcDbLine
 10
88.26039831424305
 20
141.784215484086
 30
0.0
 11
97.49381531424297
 21
141.784215484086
 31
0.0
  0
LINE
  5
1CD
330
7E
100
AcDbEntity
  8
LC-004-005-----0
  6
Continuous
 62
     3
100
AcDbLine
 10
119.7695873142429
 20
141.784215484086
 30
0.0
 11
129.003005314243
 21
141.784215484086
 31
0.0
  0
LINE
  5
1CE
330
7E
100
AcDbEntity
  8
LC-004-005-----0
  6
Continuous
 62
     3
100
AcDbLine
 10
88.18763131424294
 20
142.084215484086
 30
0.0
 11
97.3612753142429
 21
142.084215484086
 31
0.0
  0
LINE
  5
1CF
330
7E
100
AcDbEntity
  8
LC-004-005-----0
  6
Continuous
 62
     3
100
AcDbLine
 10
119.902127314243
 20
142.084215484086
 30
0.0
 11
129.075771314243
 21
142.084215484086
 31
0.0
  0
LINE
  5
1D0
330
7E
100
AcDbEntity
  8
LC-004-005-----0
  6
Continuous
 62
     3
100
AcDbLine
 10
88.11951031424292
 20
142.384215484086
 30
0.0
 11
97.238172314243
 21
142.384215484086
 31
0.0
  0
LINE
  5
1D1
330
7E
100
AcDbEntity
  8
LC-004-005-----0
  6
Continuous
 62
     3
100
AcDbLine
 10
120.0252303142429
 20
142.384215484086
 30
0.0
 11
129.143893314243
 21
142.384215484086
 31
0.0
  0
LINE
  5
1D2
330
7E
100
AcDbEntity
  8
LC-004-005-----0
  6
Continuous
 62
     3
100
AcDbLine
 10
88.055987314243
 20
142.684215484086
 30
0.0
 11
97.12420431424289
 21
142.684215484086
 31
0.0
  0
LINE
  5
1D3
330
7E
100
AcDbEntity
  8
LC-004-005-----0
  6
Continuous
 62
     3
100
AcDbLine
 10
120.1391993142429
 20
142.684215484086
 30
0.0
 11
129.207415314243
 21
142.684215484086
 31
0.0
  0
LINE
  5
1D4
330
7E
100
AcDbEntity
  8
LC-004-005-----0
  6
Continuous
 62
     3
100
AcDbLine
 10
87.99702231424294
 20
142.984215484086
 30
0.0
 11
97.0191003142429
 21
142.984215484086
 31
0.0
  0
LINE
  5
1D5
330
7E
100
AcDbEntity
  8
LC-004-005-----0
  6
Continuous
 62
     3
100
AcDbLine
 10
120.244302314243
 20
142.984215484086
 30
0.0
 11
129.2663813142431
 21
142.984215484086
 31
0.0
  0
LINE
  5
1D6
330
7E
100
AcDbEntity
  8
LC-004-005-----0
  6
Continuous
 62
     3
100
AcDbLine
 10
87.94257431424296
 20
143.284215484086
 30
0.0
 11
96.92262431424297
 21
143.284215484086
 31
0.0
  0
LINE
  5
1D7
330
7E
100
AcDbEntity
  8
LC-004-005-----0
  6
Continuous
 62
     3
100
AcDbLine
 10
120.340779314243
 20
143.284215484086
 30
0.0
 11
129.3208293142429
 21
143.284215484086
 31
0.0
  0
LINE
  5
1D8
330
7E
100
AcDbEntity
  8
LC-004-005-----0
  6
Continuous
 62
     3
100
AcDbLine
 10
87.89260831424303
 20
143.584215484086
 30
0.0
 11
96.83456231424293
 21
143.584215484086
 31
0.0
  0
LINE
  5
1D9
330
7E
100
AcDbEntity
  8
LC-004-005-----0
  6
Continuous
 62
     3
100
AcDbLine
 10
120.428841314243
 20
143.584215484086
 30
0.0
 11
129.370795314243
 21
143.584215484086
 31
0.0
  0
LINE
  5
1DA
330
7E
100
AcDbEntity
  8
LC-004-005-----0
  6
Continuous
 62
     3
100
AcDbLine
 10
87.84709131424302
 20
143.884215484086
 30
0.0
 11
96.75472831424304
 21
143.884215484086
 31
0.0
  0
LINE
  5
1DB
330
7E
100
AcDbEntity
  8
LC-004-005-----0
  6
Continuous
 62
     3
100
AcDbLine
 10
120.508675314243
 20
143.884215484086
 30
0.0
 11
129.416311314243
 21
143.884215484086
 31
0.0
  0
LINE
  5
1DC
330
7E
100
AcDbEntity
  8
LC-004-005-----0
  6
Continuous
 62
     3
100
AcDbLine
 10
87.80599631424298
 20
144.184215484086
 30
0.0
 11
96.68295631424303
 21
144.184215484086
 31
0.0
  0
LINE
  5
1DD
330
7E
100
AcDbEntity
  8
LC-004-005-----0
  6
Continuous
 62
     3
100
AcDbLine
 10
120.580446314243
 20
144.184215484086
 30
0.0
 11
129.4574063142429
 21
144.184215484086
 31
0.0
  0
LINE
  5
1DE
330
7E
100
AcDbEntity
  8
LC-004-005-----0
  6
Continuous
 62
     3
100
AcDbLine
 10
87.76929531424298
 20
144.484215484086
 30
0.0
 11
96.61910431424303
 21
144.484215484086
 31
0.0
  0
LINE
  5
1DF
330
7E
100
AcDbEntity
  8
LC-004-005-----0
  6
Continuous
 62
     3
100
AcDbLine
 10
120.644299314243
 20
144.484215484086
 30
0.0
 11
129.494108314243
 21
144.484215484086
 31
0.0
  0
LINE
  5
1E0
330
7E
100
AcDbEntity
  8
LC-004-005-----0
  6
Continuous
 62
     3
100
AcDbLine
 10
87.73696531424298
 20
144.784215484086
 30
0.0
 11
96.56304331424303
 21
144.784215484086
 31
0.0
  0
LINE
  5
1E1
330
7E
100
AcDbEntity
  8
LC-004-005-----0
  6
Continuous
 62
     3
100
AcDbLine
 10
120.700359314243
 20
144.784215484086
 30
0.0
 11
129.5264373142429
 21
144.784215484086
 31
0.0
  0
LINE
  5
1E2
330
7E
100
AcDbEntity
  8
LC-004-005-----0
  6
Continuous
 62
     3
100
AcDbLine
 10
87.70898631424302
 20
145.084215484086
 30
0.0
 11
96.51466831424295
 21
145.084215484086
 31
0.0
  0
LINE
  5
1E3
330
7E
100
AcDbEntity
  8
LC-004-005-----0
  6
Continuous
 62
     3
100
AcDbLine
 10
120.7487353142431
 20
145.084215484086
 30
0.0
 11
129.554416314243
 21
145.084215484086
 31
0.0
  0
LINE
  5
1E4
330
7E
100
AcDbEntity
  8
LC-004-005-----0
  6
Continuous
 62
     3
100
AcDbLine
 10
87.68534131424303
 20
145.384215484086
 30
0.0
 11
96.47388531424303
 21
145.384215484086
 31
0.0
  0
LINE
  5
1E5
330
7E
100
AcDbEntity
  8
LC-004-005-----0
  6
Continuous
 62
     3
100
AcDbLine
 10
120.789518314243
 20
145.384215484086
 30
0.0
 11
129.578061314243
 21
145.384215484086
 31
0.0
  0
LINE
  5
1E6
330
7E
100
AcDbEntity
  8
LC-004-005-----0
  6
Continuous
 62
     3
100
AcDbLine
 10
87.66601531424294
 20
145.684215484086
 30
0.0
 11
96.44061831424301
 21
145.684215484086
 31
0.0
  0
LINE
  5
1E7
330
7E
100
AcDbEntity
  8
LC-004-005-----0
  6
Continuous
 62
     3
100
AcDbLine
 10
120.822784314243
 20
145.684215484086
 30
0.0
 11
129.597387314243
 21
145.684215484086
 31
0.0
  0
LINE
  5
1E8
330
7E
100
AcDbEntity
  8
LC-004-005-----0
  6
Continuous
 62
     3
100
AcDbLine
 10
87.650996314243
 20
145.984215484086
 30
0.0
 11
96.41480731424303
 21
145.984215484086
 31
0.0
  0
LINE
  5
1E9
330
7E
100
AcDbEntity
  8
LC-004-005-----0
  6
Continuous
 62
     3
100
AcDbLine
 10
120.848595314243
 20
145.984215484086
 30
0.0
 11
129.612407314243
 21
145.984215484086
 31
0.0
  0
LINE
  5
1EA
330
7E
100
AcDbEntity
  8
LC-004-005-----0
  6
Continuous
 62
     3
100
AcDbLine
 10
87.64027431424302
 20
146.284215484086
 30
0.0
 11
96.396404314243
 21
146.284215484086
 31
0.0
  0
LINE
  5
1EB
330
7E
100
AcDbEntity
  8
LC-004-005-----0
  6
Continuous
 62
     3
100
AcDbLine
 10
120.8669983142429
 20
146.284215484086
 30
0.0
 11
129.623128314243
 21
146.284215484086
 31
0.0
  0
LINE
  5
1EC
330
7E
100
AcDbEntity
  8
LC-004-005-----0
  6
Continuous
 62
     3
100
AcDbLine
 10
87.63384431424299
 20
146.584215484086
 30
0.0
 11
96.38537531424299
 21
146.584215484086
 31
0.0
  0
LINE
  5
1ED
330
7E
100
AcDbEntity
  8
LC-004-005-----0
  6
Continuous
 62
     3
100
AcDbLine
 10
120.8780273142429
 20
146.584215484086
 30
0.0
 11
129.629558314243
 21
146.584215484086
 31
0.0
  0
LINE
  5
1EE
330
7E
100
AcDbEntity
  8
LC-004-005-----0
  6
Continuous
 62
     3
100
AcDbLine
 10
87.63170131424295
 20
146.884215484086
 30
0.0
 11
96.38170131424295
 21
146.884215484086
 31
0.0
  0
LINE
  5
1EF
330
7E
100
AcDbEntity
  8
LC-004-005-----0
  6
Continuous
 62
     3
100
AcDbLine
 10
120.881701314243
 20
146.884215484086
 30
0.0
 11
129.631701314243
 21
146.884215484086
 31
0.0
  0
LINE
  5
1F0
330
7E
100
AcDbEntity
  8
LC-004-005-----0
  6
Continuous
 62
     3
100
AcDbLine
 10
87.63384431424299
 20
147.184215484086
 30
0.0
 11
96.38537531424299
 21
147.184215484086
 31
0.0
  0
LINE
  5
1F1
330
7E
100
AcDbEntity
  8
LC-004-005-----0
  6
Continuous
 62
     3
100
AcDbLine
 10
120.8780273142429
 20
147.184215484086
 30
0.0
 11
129.629558314243
 21
147.184215484086
 31
0.0
  0
LINE
  5
1F2
330
7E
100
AcDbEntity
  8
LC-004-005-----0
  6
Continuous
 62
     3
100
AcDbLine
 10
87.64027431424302
 20
147.484215484086
 30
0.0
 11
96.396404314243
 21
147.484215484086
 31
0.0
  0
LINE
  5
1F3
330
7E
100
AcDbEntity
  8
LC-004-005-----0
  6
Continuous
 62
     3
100
AcDbLine
 10
120.8669983142429
 20
147.484215484086
 30
0.0
 11
129.623128314243
 21
147.484215484086
 31
0.0
  0
LINE
  5
1F4
330
7E
100
AcDbEntity
  8
LC-004-005-----0
  6
Continuous
 62
     3
100
AcDbLine
 10
87.650996314243
 20
147.784215484086
 30
0.0
 11
96.41480731424303
 21
147.784215484086
 31
0.0
  0
LINE
  5
1F5
330
7E
100
AcDbEntity
  8
LC-004-005-----0
  6
Continuous
 62
     3
100
AcDbLine
 10
120.848595314243
 20
147.784215484086
 30
0.0
 11
129.612407314243
 21
147.784215484086
 31
0.0
  0
LINE
  5
1F6
330
7E
100
AcDbEntity
  8
LC-004-005-----0
  6
Continuous
 62
     3
100
AcDbLine
 10
87.66601531424294
 20
148.084215484086
 30
0.0
 11
96.44061831424301
 21
148.084215484086
 31
0.0
  0
LINE
  5
1F7
330
7E
100
AcDbEntity
  8
LC-004-005-----0
  6
Continuous
 62
     3
100
AcDbLine
 10
120.822784314243
 20
148.084215484086
 30
0.0
 11
129.597387314243
 21
148.084215484086
 31
0.0
  0
LINE
  5
1F8
330
7E
100
AcDbEntity
  8
LC-004-005-----0
  6
Continuous
 62
     3
100
AcDbLine
 10
87.68534131424303
 20
148.384215484086
 30
0.0
 11
96.47388531424303
 21
148.384215484086
 31
0.0
  0
LINE
  5
1F9
330
7E
100
AcDbEntity
  8
LC-004-005-----0
  6
Continuous
 62
     3
100
AcDbLine
 10
120.789518314243
 20
148.384215484086
 30
0.0
 11
129.578061314243
 21
148.384215484086
 31
0.0
  0
LINE
  5
1FA
330
7E
100
AcDbEntity
  8
LC-004-005-----0
  6
Continuous
 62
     3
100
AcDbLine
 10
87.70898631424302
 20
148.684215484086
 30
0.0
 11
96.51466831424295
 21
148.684215484086
 31
0.0
  0
LINE
  5
1FB
330
7E
100
AcDbEntity
  8
LC-004-005-----0
  6
Continuous
 62
     3
100
AcDbLine
 10
120.7487353142431
 20
148.684215484086
 30
0.0
 11
129.554416314243
 21
148.684215484086
 31
0.0
  0
LINE
  5
1FC
330
7E
100
AcDbEntity
  8
LC-004-005-----0
  6
Continuous
 62
     3
100
AcDbLine
 10
87.73696531424298
 20
148.984215484086
 30
0.0
 11
96.56304331424303
 21
148.984215484086
 31
0.0
  0
LINE
  5
1FD
330
7E
100
AcDbEntity
  8
LC-004-005-----0
  6
Continuous
 62
     3
100
AcDbLine
 10
120.700359314243
 20
148.984215484086
 30
0.0
 11
129.5264373142429
 21
148.984215484086
 31
0.0
  0
LINE
  5
1FE
330
7E
100
AcDbEntity
  8
LC-004-005-----0
  6
Continuous
 62
     3
100
AcDbLine
 10
87.76929531424298
 20
149.284215484086
 30
0.0
 11
96.61910431424303
 21
149.284215484086
 31
0.0
  0
LINE
  5
1FF
330
7E
100
AcDbEntity
  8
LC-004-005-----0
  6
Continuous
 62
     3
100
AcDbLine
 10
120.644299314243
 20
149.284215484086
 30
0.0
 11
129.494108314243
 21
149.284215484086
 31
0.0
  0
LINE
  5
200
330
7E
100
AcDbEntity
  8
LC-004-005-----0
  6
Continuous
 62
     3
100
AcDbLine
 10
87.80599631424298
 20
149.584215484086
 30
0.0
 11
96.68295631424303
 21
149.584215484086
 31
0.0
  0
LINE
  5
201
330
7E
100
AcDbEntity
  8
LC-004-005-----0
  6
Continuous
 62
     3
100
AcDbLine
 10
120.580446314243
 20
149.584215484086
 30
0.0
 11
129.4574063142429
 21
149.584215484086
 31
0.0
  0
LINE
  5
202
330
7E
100
AcDbEntity
  8
LC-004-005-----0
  6
Continuous
 62
     3
100
AcDbLine
 10
87.84709131424302
 20
149.884215484086
 30
0.0
 11
96.75472831424304
 21
149.884215484086
 31
0.0
  0
LINE
  5
203
330
7E
100
AcDbEntity
  8
LC-004-005-----0
  6
Continuous
 62
     3
100
AcDbLine
 10
120.508675314243
 20
149.884215484086
 30
0.0
 11
129.416311314243
 21
149.884215484086
 31
0.0
  0
LINE
  5
204
330
7E
100
AcDbEntity
  8
LC-004-005-----0
  6
Continuous
 62
     3
100
AcDbLine
 10
87.89260831424303
 20
150.184215484086
 30
0.0
 11
96.83456231424293
 21
150.184215484086
 31
0.0
  0
LINE
  5
205
330
7E
100
AcDbEntity
  8
LC-004-005-----0
  6
Continuous
 62
     3
100
AcDbLine
 10
120.428841314243
 20
150.184215484086
 30
0.0
 11
129.370795314243
 21
150.184215484086
 31
0.0
  0
LINE
  5
206
330
7E
100
AcDbEntity
  8
LC-004-005-----0
  6
Continuous
 62
     3
100
AcDbLine
 10
87.94257431424296
 20
150.484215484086
 30
0.0
 11
96.92262431424297
 21
150.484215484086
 31
0.0
  0
LINE
  5
207
330
7E
100
AcDbEntity
  8
LC-004-005-----0
  6
Continuous
 62
     3
100
AcDbLine
 10
120.340779314243
 20
150.484215484086
 30
0.0
 11
129.3208293142429
 21
150.484215484086
 31
0.0
  0
LINE
  5
208
330
7E
100
AcDbEntity
  8
LC-004-005-----0
  6
Continuous
 62
     3
100
AcDbLine
 10
87.99702231424294
 20
150.784215484086
 30
0.0
 11
97.0191003142429
 21
150.784215484086
 31
0.0
  0
LINE
  5
209
330
7E
100
AcDbEntity
  8
LC-004-005-----0
  6
Continuous
 62
     3
100
AcDbLine
 10
120.244302314243
 20
150.784215484086
 30
0.0
 11
129.2663813142431
 21
150.784215484086
 31
0.0
  0
LINE
  5
20A
330
7E
100
AcDbEntity
  8
LC-004-005-----0
  6
Continuous
 62
     3
100
AcDbLine
 10
88.055987314243
 20
151.084215484086
 30
0.0
 11
97.12420431424289
 21
151.084215484086
 31
0.0
  0
LINE
  5
20B
330
7E
100
AcDbEntity
  8
LC-004-005-----0
  6
Continuous
 62
     3
100
AcDbLine
 10
120.1391993142429
 20
151.084215484086
 30
0.0
 11
129.207415314243
 21
151.084215484086
 31
0.0
  0
LINE
  5
20C
330
7E
100
AcDbEntity
  8
LC-004-005-----0
  6
Continuous
 62
     3
100
AcDbLine
 10
88.11951031424292
 20
151.384215484086
 30
0.0
 11
97.238172314243
 21
151.384215484086
 31
0.0
  0
LINE
  5
20D
330
7E
100
AcDbEntity
  8
LC-004-005-----0
  6
Continuous
 62
     3
100
AcDbLine
 10
120.0252303142429
 20
151.384215484086
 30
0.0
 11
129.143893314243
 21
151.384215484086
 31
0.0
  0
LINE
  5
20E
330
7E
100
AcDbEntity
  8
LC-004-005-----0
  6
Continuous
 62
     3
100
AcDbLine
 10
88.18763131424294
 20
151.684215484086
 30
0.0
 11
97.3612753142429
 21
151.684215484086
 31
0.0
  0
LINE
  5
20F
330
7E
100
AcDbEntity
  8
LC-004-005-----0
  6
Continuous
 62
     3
100
AcDbLine
 10
119.902127314243
 20
151.684215484086
 30
0.0
 11
129.075771314243
 21
151.684215484086
 31
0.0
  0
LINE
  5
210
330
7E
100
AcDbEntity
  8
LC-004-005-----0
  6
Continuous
 62
     3
100
AcDbLine
 10
88.26039831424305
 20
151.984215484086
 30
0.0
 11
97.49381531424297
 21
151.984215484086
 31
0.0
  0
LINE
  5
211
330
7E
100
AcDbEntity
  8
LC-004-005-----0
  6
Continuous
 62
     3
100
AcDbLine
 10
119.7695873142429
 20
151.984215484086
 30
0.0
 11
129.003005314243
 21
151.984215484086
 31
0.0
  0
LINE
  5
212
330
7E
100
AcDbEntity
  8
LC-004-005-----0
  6
Continuous
 62
     3
100
AcDbLine
 10
88.33786031424302
 20
152.284215484086
 30
0.0
 11
97.63613431424301
 21
152.284215484086
 31
0.0
  0
LINE
  5
213
330
7E
100
AcDbEntity
  8
LC-004-005-----0
  6
Continuous
 62
     3
100
AcDbLine
 10
119.627268314243
 20
152.284215484086
 30
0.0
 11
128.925543314243
 21
152.284215484086
 31
0.0
  0
LINE
  5
214
330
7E
100
AcDbEntity
  8
LC-004-005-----0
  6
Continuous
 62
     3
100
AcDbLine
 10
88.42007131424293
 20
152.584215484086
 30
0.0
 11
97.78861631424297
 21
152.584215484086
 31
0.0
  0
LINE
  5
215
330
7E
100
AcDbEntity
  8
LC-004-005-----0
  6
Continuous
 62
     3
100
AcDbLine
 10
119.474787314243
 20
152.584215484086
 30
0.0
 11
128.843332314243
 21
152.584215484086
 31
0.0
  0
LINE
  5
216
330
7E
100
AcDbEntity
  8
LC-004-005-----0
  6
Continuous
 62
     3
100
AcDbLine
 10
88.50708931424299
 20
152.884215484086
 30
0.0
 11
97.95169731424289
 21
152.884215484086
 31
0.0
  0
LINE
  5
217
330
7E
100
AcDbEntity
  8
LC-004-005-----0
  6
Continuous
 62
     3
100
AcDbLine
 10
119.311706314243
 20
152.884215484086
 30
0.0
 11
128.756313314243
 21
152.884215484086
 31
0.0
  0
LINE
  5
218
330
7E
100
AcDbEntity
  8
LC-004-005-----0
  6
Continuous
 62
     3
100
AcDbLine
 10
88.59897831424291
 20
153.184215484086
 30
0.0
 11
98.12586931424289
 21
153.184215484086
 31
0.0
  0
LINE
  5
219
330
7E
100
AcDbEntity
  8
LC-004-005-----0
  6
Continuous
 62
     3
100
AcDbLine
 10
119.137533314243
 20
153.184215484086
 30
0.0
 11
128.664424314243
 21
153.184215484086
 31
0.0
  0
LINE
  5
21A
330
7E
100
AcDbEntity
  8
LC-004-005-----0
  6
Continuous
 62
     3
100
AcDbLine
 10
88.69580431424299
 20
153.484215484086
 30
0.0
 11
98.31169631424291
 21
153.484215484086
 31
0.0
  0
LINE
  5
21B
330
7E
100
AcDbEntity
  8
LC-004-005-----0
  6
Continuous
 62
     3
100
AcDbLine
 10
118.951706314243
 20
153.484215484086
 30
0.0
 11
128.567598314243
 21
153.484215484086
 31
0.0
  0
LINE
  5
21C
330
7E
100
AcDbEntity
  8
LC-004-005-----0
  6
Continuous
 62
     3
100
AcDbLine
 10
88.79764031424293
 20
153.784215484086
 30
0.0
 11
98.50981931424303
 21
153.784215484086
 31
0.0
  0
LINE
  5
21D
330
7E
100
AcDbEntity
  8
LC-004-005-----0
  6
Continuous
 62
     3
100
AcDbLine
 10
118.753583314243
 20
153.784215484086
 30
0.0
 11
128.465763314243
 21
153.784215484086
 31
0.0
  0
LINE
  5
21E
330
7E
100
AcDbEntity
  8
LC-004-005-----0
  6
Continuous
 62
     3
100
AcDbLine
 10
88.90456331424298
 20
154.084215484086
 30
0.0
 11
98.72097531424299
 21
154.084215484086
 31
0.0
  0
LINE
  5
21F
330
7E
100
AcDbEntity
  8
LC-004-005-----0
  6
Continuous
 62
     3
100
AcDbLine
 10
118.5424283142429
 20
154.084215484086
 30
0.0
 11
128.358840314243
 21
154.084215484086
 31
0.0
  0
LINE
  5
220
330
7E
100
AcDbEntity
  8
LC-004-005-----0
  6
Continuous
 62
     3
100
AcDbLine
 10
89.01665631424294
 20
154.384215484086
 30
0.0
 11
98.94601631424302
 21
154.384215484086
 31
0.0
  0
LINE
  5
221
330
7E
100
AcDbEntity
  8
LC-004-005-----0
  6
Continuous
 62
     3
100
AcDbLine
 10
118.317386314243
 20
154.384215484086
 30
0.0
 11
128.246746314243
 21
154.384215484086
 31
0.0
  0
LINE
  5
222
330
7E
100
AcDbEntity
  8
LC-004-005-----0
  6
Continuous
 62
     3
100
AcDbLine
 10
89.13400931424303
 20
154.684215484086
 30
0.0
 11
99.1859353142429
 21
154.684215484086
 31
0.0
  0
LINE
  5
223
330
7E
100
AcDbEntity
  8
LC-004-005-----0
  6
Continuous
 62
     3
100
AcDbLine
 10
118.077467314243
 20
154.684215484086
 30
0.0
 11
128.129393314243
 21
154.684215484086
 31
0.0
  0
LINE
  5
224
330
7E
100
AcDbEntity
  8
LC-004-005-----0
  6
Continuous
 62
     3
100
AcDbLine
 10
89.2567173142429
 20
154.984215484086
 30
0.0
 11
99.44189731424296
 21
154.984215484086
 31
0.0
  0
LINE
  5
225
330
7E
100
AcDbEntity
  8
LC-004-005-----0
  6
Continuous
 62
     3
100
AcDbLine
 10
117.821505314243
 20
154.984215484086
 30
0.0
 11
128.006685314243
 21
154.984215484086
 31
0.0
  0
LINE
  5
226
330
7E
100
AcDbEntity
  8
LC-004-005-----0
  6
Continuous
 62
     3
100
AcDbLine
 10
89.38488331424298
 20
155.284215484086
 30
0.0
 11
99.71528431424304
 21
155.284215484086
 31
0.0
  0
LINE
  5
227
330
7E
100
AcDbEntity
  8
LC-004-005-----0
  6
Continuous
 62
     3
100
AcDbLine
 10
117.548119314243
 20
155.284215484086
 30
0.0
 11
127.878519314243
 21
155.284215484086
 31
0.0
  0
LINE
  5
228
330
7E
100
AcDbEntity
  8
LC-004-005-----0
  6
Continuous
 62
     3
100
AcDbLine
 10
89.51861731424299
 20
155.584215484086
 30
0.0
 11
100.0077523142429
 21
155.584215484086
 31
0.0
  0
LINE
  5
229
330
7E
100
AcDbEntity
  8
LC-004-005-----0
  6
Continuous
 62
     3
100
AcDbLine
 10
117.255650314243
 20
155.584215484086
 30
0.0
 11
127.7447863142429
 21
155.584215484086
 31
0.0
  0
LINE
  5
22A
330
7E
100
AcDbEntity
  8
LC-004-005-----0
  6
Continuous
 62
     3
100
AcDbLine
 10
89.65803531424297
 20
155.884215484086
 30
0.0
 11
100.321316314243
 21
155.884215484086
 31
0.0
  0
LINE
  5
22B
330
7E
100
AcDbEntity
  8
LC-004-005-----0
  6
Continuous
 62
     3
100
AcDbLine
 10
116.9420863142429
 20
155.884215484086
 30
0.0
 11
127.605367314243
 21
155.884215484086
 31
0.0
  0
LINE
  5
22C
330
7E
100
AcDbEntity
  8
LC-004-005-----0
  6
Continuous
 62
     3
100
AcDbLine
 10
89.80326531424294
 20
156.184215484086
 30
0.0
 11
100.6584653142429
 21
156.184215484086
 31
0.0
  0
LINE
  5
22D
330
7E
100
AcDbEntity
  8
LC-004-005-----0
  6
Continuous
 62
     3
100
AcDbLine
 10
116.604938314243
 20
156.184215484086
 30
0.0
 11
127.460137314243
 21
156.184215484086
 31
0.0
  0
LINE
  5
22E
330
7E
100
AcDbEntity
  8
LC-004-005-----0
  6
Continuous
 62
     3
100
AcDbLine
 10
89.9544423142429
 20
156.484215484086
 30
0.0
 11
101.0223323142429
 21
156.484215484086
 31
0.0
  0
LINE
  5
22F
330
7E
100
AcDbEntity
  8
LC-004-005-----0
  6
Continuous
 62
     3
100
AcDbLine
 10
116.241070314243
 20
156.484215484086
 30
0.0
 11
127.308960314243
 21
156.484215484086
 31
0.0
  0
LINE
  5
230
330
7E
100
AcDbEntity
  8
LC-004-005-----0
  6
Continuous
 62
     3
100
AcDbLine
 10
90.11171231424305
 20
156.784215484086
 30
0.0
 11
101.4169593142431
 21
156.784215484086
 31
0.0
  0
LINE
  5
231
330
7E
100
AcDbEntity
  8
LC-004-005-----0
  6
Continuous
 62
     3
100
AcDbLine
 10
115.8464433142431
 20
156.784215484086
 30
0.0
 11
127.1516903142431
 21
156.784215484086
 31
0.0
  0
LINE
  5
232
330
7E
100
AcDbEntity
  8
LC-004-005-----0
  6
Continuous
 62
     3
100
AcDbLine
 10
90.275231314243
 20
157.084215484086
 30
0.0
 11
101.847713314243
 21
157.084215484086
 31
0.0
  0
LINE
  5
233
330
7E
100
AcDbEntity
  8
LC-004-005-----0
  6
Continuous
 62
     3
100
AcDbLine
 10
115.415690314243
 20
157.084215484086
 30
0.0
 11
126.9881713142429
 21
157.084215484086
 31
0.0
  0
LINE
  5
234
330
7E
100
AcDbEntity
  8
LC-004-005-----0
  6
Continuous
 62
     3
100
AcDbLine
 10
90.44516831424289
 20
157.384215484086
 30
0.0
 11
102.321986314243
 21
157.384215484086
 31
0.0
  0
LINE
  5
235
330
7E
100
AcDbEntity
  8
LC-004-005-----0
  6
Continuous
 62
     3
100
AcDbLine
 10
114.941416314243
 20
157.384215484086
 30
0.0
 11
126.818235314243
 21
157.384215484086
 31
0.0
  0
LINE
  5
236
330
7E
100
AcDbEntity
  8
LC-004-005-----0
  6
Continuous
 62
     3
100
AcDbLine
 10
90.62170431424306
 20
157.684215484086
 30
0.0
 11
102.850482314243
 21
157.684215484086
 31
0.0
  0
LINE
  5
237
330
7E
100
AcDbEntity
  8
LC-004-005-----0
  6
Continuous
 62
     3
100
AcDbLine
 10
114.412921314243
 20
157.684215484086
 30
0.0
 11
126.6416983142431
 21
157.684215484086
 31
0.0
  0
LINE
  5
238
330
7E
100
AcDbEntity
  8
LC-004-005-----0
  6
Continuous
 62
     3
100
AcDbLine
 10
90.8050363142429
 20
157.984215484086
 30
0.0
 11
103.449761314243
 21
157.984215484086
 31
0.0
  0
LINE
  5
239
330
7E
100
AcDbEntity
  8
LC-004-005-----0
  6
Continuous
 62
     3
100
AcDbLine
 10
113.8136413142429
 20
157.984215484086
 30
0.0
 11
126.458367314243
 21
157.984215484086
 31
0.0
  0
LINE
  5
23A
330
7E
100
AcDbEntity
  8
LC-004-005-----0
  6
Continuous
 62
     3
100
AcDbLine
 10
90.99537531424289
 20
158.284215484086
 30
0.0
 11
104.148120314243
 21
158.284215484086
 31
0.0
  0
LINE
  5
23B
330
7E
100
AcDbEntity
  8
LC-004-005-----0
  6
Continuous
 62
     3
100
AcDbLine
 10
113.1152823142429
 20
158.284215484086
 30
0.0
 11
126.268027314243
 21
158.284215484086
 31
0.0
  0
LINE
  5
23C
330
7E
100
AcDbEntity
  8
LC-004-005-----0
  6
Continuous
 62
     3
100
AcDbLine
 10
91.19295131424292
 20
158.584215484086
 30
0.0
 11
105.0023073142429
 21
158.584215484086
 31
0.0
  0
LINE
  5
23D
330
7E
100
AcDbEntity
  8
LC-004-005-----0
  6
Continuous
 62
     3
100
AcDbLine
 10
112.261095314243
 20
158.584215484086
 30
0.0
 11
126.070451314243
 21
158.584215484086
 31
0.0
  0
LINE
  5
23E
330
7E
100
AcDbEntity
  8
LC-004-005-----0
  6
Continuous
 62
     3
100
AcDbLine
 10
91.39801331424292
 20
158.884215484086
 30
0.0
 11
106.169487314243
 21
158.884215484086
 31
0.0
  0
LINE
  5
23F
330
7E
100
AcDbEntity
  8
LC-004-005-----0
  6
Continuous
 62
     3
100
AcDbLine
 10
111.093916314243
 20
158.884215484086
 30
0.0
 11
125.865389314243
 21
158.884215484086
 31
0.0
  0
LINE
  5
240
330
7E
100
AcDbEntity
  8
LC-004-005-----0
  6
Continuous
 62
     3
100
AcDbLine
 10
91.610832314243
 20
159.184215484086
 30
0.0
 11
125.652571314243
 21
159.184215484086
 31
0.0
  0
LINE
  5
241
330
7E
100
AcDbEntity
  8
LC-004-005-----0
  6
Continuous
 62
     3
100
AcDbLine
 10
91.83170131424299
 20
159.484215484086
 30
0.0
 11
125.4317013142429
 21
159.484215484086
 31
0.0
  0
LINE
  5
242
330
7E
100
AcDbEntity
  8
LC-004-005-----0
  6
Continuous
 62
     3
100
AcDbLine
 10
92.06094431424299
 20
159.784215484086
 30
0.0
 11
125.202459314243
 21
159.784215484086
 31
0.0
  0
LINE
  5
243
330
7E
100
AcDbEntity
  8
LC-004-005-----0
  6
Continuous
 62
     3
100
AcDbLine
 10
92.2989123142429
 20
160.084215484086
 30
0.0
 11
124.964490314243
 21
160.084215484086
 31
0.0
  0
LINE
  5
244
330
7E
100
AcDbEntity
  8
LC-004-005-----0
  6
Continuous
 62
     3
100
AcDbLine
 10
92.54599331424299
 20
160.384215484086
 30
0.0
 11
124.717409314243
 21
160.384215484086
 31
0.0
  0
LINE
  5
245
330
7E
100
AcDbEntity
  8
LC-004-005-----0
  6
Continuous
 62
     3
100
AcDbLine
 10
92.80261431424299
 20
160.684215484086
 30
0.0
 11
124.460788314243
 21
160.684215484086
 31
0.0
  0
LINE
  5
246
330
7E
100
AcDbEntity
  8
LC-004-005-----0
  6
Continuous
 62
     3
100
AcDbLine
 10
93.06924631424295
 20
160.984215484086
 30
0.0
 11
124.194156314243
 21
160.984215484086
 31
0.0
  0
LINE
  5
247
330
7E
100
AcDbEntity
  8
LC-004-005-----0
  6
Continuous
 62
     3
100
AcDbLine
 10
93.34641431424302
 20
161.284215484086
 30
0.0
 11
123.916988314243
 21
161.284215484086
 31
0.0
  0
LINE
  5
248
330
7E
100
AcDbEntity
  8
LC-004-005-----0
  6
Continuous
 62
     3
100
AcDbLine
 10
93.63470131424299
 20
161.584215484086
 30
0.0
 11
123.628701314243
 21
161.584215484086
 31
0.0
  0
LINE
  5
249
330
7E
100
AcDbEntity
  8
LC-004-005-----0
  6
Continuous
 62
     3
100
AcDbLine
 10
93.9347633142429
 20
161.884215484086
 30
0.0
 11
123.328640314243
 21
161.884215484086
 31
0.0
  0
LINE
  5
24A
330
7E
100
AcDbEntity
  8
LC-004-005-----0
  6
Continuous
 62
     3
100
AcDbLine
 10
94.24733531424295
 20
162.184215484086
 30
0.0
 11
123.0160683142431
 21
162.184215484086
 31
0.0
  0
LINE
  5
24B
330
7E
100
AcDbEntity
  8
LC-004-005-----0
  6
Continuous
 62
     3
100
AcDbLine
 10
94.57325231424306
 20
162.484215484086
 30
0.0
 11
122.6901513142429
 21
162.484215484086
 31
0.0
  0
LINE
  5
24C
330
7E
100
AcDbEntity
  8
LC-004-005-----0
  6
Continuous
 62
     3
100
AcDbLine
 10
94.91346531424301
 20
162.784215484086
 30
0.0
 11
122.349937314243
 21
162.784215484086
 31
0.0
  0
LINE
  5
24D
330
7E
100
AcDbEntity
  8
LC-004-005-----0
  6
Continuous
 62
     3
100
AcDbLine
 10
95.26906731424299
 20
163.084215484086
 30
0.0
 11
121.9943363142429
 21
163.084215484086
 31
0.0
  0
LINE
  5
24E
330
7E
100
AcDbEntity
  8
LC-004-005-----0
  6
Continuous
 62
     3
100
AcDbLine
 10
95.64132031424299
 20
163.384215484086
 30
0.0
 11
121.622082314243
 21
163.384215484086
 31
0.0
  0
LINE
  5
24F
330
7E
100
AcDbEntity
  8
LC-004-005-----0
  6
Continuous
 62
     3
100
AcDbLine
 10
96.03170131424304
 20
163.684215484086
 30
0.0
 11
121.231701314243
 21
163.684215484086
 31
0.0
  0
LINE
  5
250
330
7E
100
AcDbEntity
  8
LC-004-005-----0
  6
Continuous
 62
     3
100
AcDbLine
 10
96.44195131424294
 20
163.984215484086
 30
0.0
 11
120.821451314243
 21
163.984215484086
 31
0.0
  0
LINE
  5
251
330
7E
100
AcDbEntity
  8
LC-004-005-----0
  6
Continuous
 62
     3
100
AcDbLine
 10
96.87415031424302
 20
164.284215484086
 30
0.0
 11
120.389252314243
 21
164.284215484086
 31
0.0
  0
LINE
  5
252
330
7E
100
AcDbEntity
  8
LC-004-005-----0
  6
Continuous
 62
     3
100
AcDbLine
 10
97.33081631424307
 20
164.584215484086
 30
0.0
 11
119.9325863142431
 21
164.584215484086
 31
0.0
  0
LINE
  5
253
330
7E
100
AcDbEntity
  8
LC-004-005-----0
  6
Continuous
 62
     3
100
AcDbLine
 10
97.81504731424297
 20
164.884215484086
 30
0.0
 11
119.4483553142429
 21
164.884215484086
 31
0.0
  0
LINE
  5
254
330
7E
100
AcDbEntity
  8
LC-004-005-----0
  6
Continuous
 62
     3
100
AcDbLine
 10
98.33073031424306
 20
165.184215484086
 30
0.0
 11
118.9326723142431
 21
165.184215484086
 31
0.0
  0
LINE
  5
255
330
7E
100
AcDbEntity
  8
LC-004-005-----0
  6
Continuous
 62
     3
100
AcDbLine
 10
98.88285531424299
 20
165.484215484086
 30
0.0
 11
118.3805473142429
 21
165.484215484086
 31
0.0
  0
LINE
  5
256
330
7E
100
AcDbEntity
  8
LC-004-005-----0
  6
Continuous
 62
     3
100
AcDbLine
 10
99.47801331424296
 20
165.784215484086
 30
0.0
 11
117.7853893142431
 21
165.784215484086
 31
0.0
  0
LINE
  5
257
330
7E
100
AcDbEntity
  8
LC-004-005-----0
  6
Continuous
 62
     3
100
AcDbLine
 10
100.1252333142429
 20
166.084215484086
 30
0.0
 11
117.138169314243
 21
166.084215484086
 31
0.0
  0
LINE
  5
258
330
7E
100
AcDbEntity
  8
LC-004-005-----0
  6
Continuous
 62
     3
100
AcDbLine
 10
100.837473314243
 20
166.384215484086
 30
0.0
 11
116.425930314243
 21
166.384215484086
 31
0.0
  0
LINE
  5
259
330
7E
100
AcDbEntity
  8
LC-004-005-----0
  6
Continuous
 62
     3
100
AcDbLine
 10
101.634559314243
 20
166.684215484086
 30
0.0
 11
115.6288433142429
 21
166.684215484086
 31
0.0
  0
LINE
  5
25A
330
7E
100
AcDbEntity
  8
LC-004-005-----0
  6
Continuous
 62
     3
100
AcDbLine
 10
102.5497613142429
 20
166.984215484086
 30
0.0
 11
114.713642314243
 21
166.984215484086
 31
0.0
  0
LINE
  5
25B
330
7E
100
AcDbEntity
  8
LC-004-005-----0
  6
Continuous
 62
     3
100
AcDbLine
 10
103.647727314243
 20
167.284215484086
 30
0.0
 11
113.6156763142431
 21
167.284215484086
 31
0.0
  0
LINE
  5
25C
330
7E
100
AcDbEntity
  8
LC-004-005-----0
  6
Continuous
 62
     3
100
AcDbLine
 10
105.094753314243
 20
167.584215484086
 30
0.0
 11
112.168649314243
 21
167.584215484086
 31
0.0
  0
LINE
  5
25D
330
7E
100
AcDbEntity
  8
1
  6
DOT_CENTER
 62
     3
100
AcDbLine
 10
138.881701314243
 20
174.384215484086
 30
0.0
 11
133.381701314243
 21
174.384215484086
 31
0.0
  0
LINE
  5
25E
330
7E
100
AcDbEntity
  8
1
  6
DOT_CENTER
 62
     3
100
AcDbLine
 10
136.131701314243
 20
177.134215484086
 30
0.0
 11
136.131701314243
 21
171.634215484086
 31
0.0
  0
LINE
  5
25F
330
7E
100
AcDbEntity
  8
1
  6
DOT_CENTER
 62
     3
100
AcDbLine
 10
83.881701314243
 20
174.384215484086
 30
0.0
 11
78.381701314243
 21
174.384215484086
 31
0.0
  0
LINE
  5
260
330
7E
100
AcDbEntity
  8
1
  6
DOT_CENTER
 62
     3
100
AcDbLine
 10
81.131701314243
 20
177.134215484086
 30
0.0
 11
81.131701314243
 21
171.634215484086
 31
0.0
  0
LINE
  5
261
330
7E
100
AcDbEntity
  8
1
  6
DOT_CENTER
 62
     3
100
AcDbLine
 10
83.881701314243
 20
119.384215484086
 30
0.0
 11
78.381701314243
 21
119.384215484086
 31
0.0
  0
LINE
  5
262
330
7E
100
AcDbEntity
  8
1
  6
DOT_CENTER
 62
     3
100
AcDbLine
 10
81.131701314243
 20
122.134215484086
 30
0.0
 11
81.131701314243
 21
116.634215484086
 31
0.0
  0
LINE
  5
263
330
7E
100
AcDbEntity
  8
1
  6
DOT_CENTER
 62
     3
100
AcDbLine
 10
138.881701314243
 20
119.384215484086
 30
0.0
 11
133.381701314243
 21
119.384215484086
 31
0.0
  0
LINE
  5
264
330
7E
100
AcDbEntity
  8
1
  6
DOT_CENTER
 62
     3
100
AcDbLine
 10
136.131701314243
 20
122.134215484086
 30
0.0
 11
136.131701314243
 21
116.634215484086
 31
0.0
  0
LINE
  5
265
330
7E
100
AcDbEntity
  8
1
  6
DOT_CENTER
 62
     3
100
AcDbLine
 10
136.631701314243
 20
146.884215484086
 30
0.0
 11
80.63170131424295
 21
146.884215484086
 31
0.0
  0
LINE
  5
266
330
7E
100
AcDbEntity
  8
1
  6
DOT_CENTER
 62
     3
100
AcDbLine
 10
108.631701314243
 20
174.884215484086
 30
0.0
 11
108.631701314243
 21
118.884215484086
 31
0.0
  0
ARC
  5
267
330
7E
100
AcDbEntity
  8
LC-003-002-----0
  6
Continuous
 62
     3
100
AcDbCircle
 10
108.631701314243
 20
146.884215484086
 30
0.0
 40
35.00000000002111
100
AcDbArc
 50
297.5437139999573
 51
302.4562860000265
  0
ARC
  5
268
330
7E
100
AcDbEntity
  8
LC-003-002-----0
  6
Continuous
 62
     3
100
AcDbCircle
 10
108.631701314243
 20
146.884215484086
 30
0.0
 40
35.0000000000456
100
AcDbArc
 50
57.54371399997346
 51
62.4562860000427
  0
ARC
  5
269
330
7E
100
AcDbEntity
  8
LC-003-002-----0
  6
Continuous
 62
     3
100
AcDbCircle
 10
108.631701314243
 20
146.884215484086
 30
0.0
 40
35.0000000000116
100
AcDbArc
 50
252.54371399994
 51
257.456285999977
  0
ARC
  5
26A
330
7E
100
AcDbEntity
  8
LC-003-002-----0
  6
Continuous
 62
     3
100
AcDbCircle
 10
108.631701314243
 20
146.884215484086
 30
0.0
 40
35.00000062960928
100
AcDbArc
 50
267.5437143206308
 51
272.4562856793692
  0
ARC
  5
26B
330
7E
100
AcDbEntity
  8
LC-003-002-----0
  6
Continuous
 62
     3
100
AcDbCircle
 10
108.631701314243
 20
146.884215484086
 30
0.0
 40
34.99999962360631
100
AcDbArc
 50
117.5437147729292
 51
122.4562859999666
  0
ARC
  5
26C
330
7E
100
AcDbEntity
  8
LC-003-002-----0
  6
Continuous
 62
     3
100
AcDbCircle
 10
108.631701314243
 20
146.884215484086
 30
0.0
 40
34.999999724285
100
AcDbArc
 50
102.5437147590142
 51
107.4562860000649
  0
ARC
  5
26D
330
7E
100
AcDbEntity
  8
LC-003-002-----0
  6
Continuous
 62
     3
100
AcDbCircle
 10
108.631701314243
 20
146.884215484086
 30
0.0
 40
34.99999963052804
100
AcDbArc
 50
87.54371425047275
 51
92.45628574952727
  0
ARC
  5
26E
330
7E
100
AcDbEntity
  8
LC-003-002-----0
  6
Continuous
 62
     3
100
AcDbCircle
 10
108.631701314243
 20
146.884215484086
 30
0.0
 40
35.00000033833787
100
AcDbArc
 50
327.5437134653841
 51
332.456285984097
  0
ARC
  5
26F
330
7E
100
AcDbEntity
  8
LC-003-002-----0
  6
Continuous
 62
     3
100
AcDbCircle
 10
108.631701314243
 20
146.884215484086
 30
0.0
 40
33.00000000000033
100
AcDbArc
 50
312.3947490000003
 51
317.6052509999997
  0
ARC
  5
270
330
7E
100
AcDbEntity
  8
LC-003-002-----0
  6
Continuous
 62
     3
100
AcDbCircle
 10
108.631701314243
 20
146.884215484086
 30
0.0
 40
34.99999945490512
100
AcDbArc
 50
72.54371453256871
 51
77.45628524099543
  0
ARC
  5
271
330
7E
100
AcDbEntity
  8
LC-003-002-----0
  6
Continuous
 62
     3
100
AcDbCircle
 10
108.631701314243
 20
146.884215484086
 30
0.0
 40
35.0000000000456
100
AcDbArc
 50
237.5437139999735
 51
242.4562860000425
  0
ARC
  5
272
330
7E
100
AcDbEntity
  8
LC-003-002-----0
  6
Continuous
 62
     3
100
AcDbCircle
 10
108.631701314243
 20
146.884215484086
 30
0.0
 40
33.00000000000016
100
AcDbArc
 50
42.39474900000022
 51
47.60525099999973
  0
ARC
  5
273
330
7E
100
AcDbEntity
  8
LC-003-002-----0
  6
Continuous
 62
     3
100
AcDbCircle
 10
108.631701314243
 20
146.884215484086
 30
0.0
 40
32.99999942120076
100
AcDbArc
 50
132.3947491114428
 51
137.6052508885574
  0
ARC
  5
274
330
7E
100
AcDbEntity
  8
LC-003-002-----0
  6
Continuous
 62
     3
100
AcDbCircle
 10
108.631701314243
 20
146.884215484086
 30
0.0
 40
35.000000070052
100
AcDbArc
 50
27.54371401586495
 51
32.45628515330837
  0
ARC
  5
275
330
7E
100
AcDbEntity
  8
LC-003-002-----0
  6
Continuous
 62
     3
100
AcDbCircle
 10
108.631701314243
 20
146.884215484086
 30
0.0
 40
33.00000000000021
100
AcDbArc
 50
222.3947490000002
 51
227.6052510000002
  0
ARC
  5
276
330
7E
100
AcDbEntity
  8
LC-005-002-RND-0
  6
Continuous
 62
     3
100
AcDbCircle
 10
81.131701314243
 20
174.384215484086
 30
0.0
 40
7.5
100
AcDbArc
 50
90.0
 51
180.0
  0
ARC
  5
277
330
7E
100
AcDbEntity
  8
LC-005-002-RND-0
  6
Continuous
 62
     3
100
AcDbCircle
 10
136.131701314243
 20
174.384215484086
 30
0.0
 40
7.5
100
AcDbArc
 50
0.0
 51
90.0
  0
ARC
  5
278
330
7E
100
AcDbEntity
  8
LC-005-002-RND-0
  6
Continuous
 62
     3
100
AcDbCircle
 10
81.131701314243
 20
119.384215484086
 30
0.0
 40
7.5
100
AcDbArc
 50
180.0
 51
270.0
  0
ARC
  5
279
330
7E
100
AcDbEntity
  8
LC-005-002-RND-0
  6
Continuous
 62
     3
100
AcDbCircle
 10
136.131701314243
 20
119.384215484086
 30
0.0
 40
7.5
100
AcDbArc
 50
270.0
 51
0.0
  0
ARC
  5
27A
330
7E
100
AcDbEntity
  8
LC-003-002-----0
  6
Continuous
 62
     3
100
AcDbCircle
 10
108.631701314243
 20
146.884215484086
 30
0.0
 40
35.00000042002212
100
AcDbArc
 50
282.5437144034734
 51
287.4562849763087
  0
ARC
  5
27B
330
7E
100
AcDbEntity
  8
LC-005-002-RND-0
  6
Continuous
 62
     3
100
AcDbCircle
 10
144.231701314243
 20
151.684215484086
 30
0.0
 40
0.1999999999999034
100
AcDbArc
 50
0.0
 51
90.0
  0
ARC
  5
27C
330
7E
100
AcDbEntity
  8
LC-005-002-RND-0
  6
Continuous
 62
     3
100
AcDbCircle
 10
144.231701314243
 20
142.084215484086
 30
0.0
 40
0.1999999999999886
100
AcDbArc
 50
270.0
 51
0.0
  0
ARC
  5
27D
330
7E
100
AcDbEntity
  8
LC-005-002-RND-0
  6
Continuous
 62
     3
100
AcDbCircle
 10
141.2317013144429
 20
138.551130483086
 30
0.0
 40
0.2000000009928719
100
AcDbArc
 50
280.304820840195
 51
0.0
  0
ARC
  5
27E
330
7E
100
AcDbEntity
  8
LC-005-002-RND-0
  6
Continuous
 62
     3
100
AcDbCircle
 10
141.2317013144429
 20
155.217299483086
 30
0.0
 40
0.2000000010001202
100
AcDbArc
 50
0.0
 51
79.69517915980357
  0
CIRCLE
  5
27F
330
7E
100
AcDbEntity
  8
LC-003-002-----0
  6
Continuous
 62
     3
100
AcDbCircle
 10
108.631701314243
 20
146.884215484086
 30
0.0
 40
25.0
  0
CIRCLE
  5
280
330
7E
100
AcDbEntity
  8
LC-003-002-----0
  6
Continuous
 62
     3
100
AcDbCircle
 10
108.631701314243
 20
146.884215484086
 30
0.0
 40
24.19999999999999
  0
CIRCLE
  5
281
330
7E
100
AcDbEntity
  8
LC-003-002-----0
  6
Continuous
 62
     3
100
AcDbCircle
 10
108.631701314243
 20
146.884215484086
 30
0.0
 40
21.0
  0
CIRCLE
  5
282
330
7E
100
AcDbEntity
  8
LC-003-002-----0
  6
Continuous
 62
     3
100
AcDbCircle
 10
108.631701314243
 20
146.884215484086
 30
0.0
 40
12.25
  0
CIRCLE
  5
283
330
7E
100
AcDbEntity
  8
LC-003-002-----0
  6
Continuous
 62
     3
100
AcDbCircle
 10
108.631701314243
 20
146.884215484086
 30
0.0
 40
3.0
  0
CIRCLE
  5
284
330
7E
100
AcDbEntity
  8
LC-003-002-----0
  6
Continuous
 62
     3
100
AcDbCircle
 10
108.631701314243
 20
146.884215484086
 30
0.0
 40
2.450000000000003
  0
CIRCLE
  5
285
330
7E
100
AcDbEntity
  8
LC-003-002-----0
  6
Continuous
 62
     3
100
AcDbCircle
 10
108.631701314243
 20
146.884215484086
 30
0.0
 40
27.5
  0
CIRCLE
  5
286
330
7E
100
AcDbEntity
  8
LC-003-002-----0
  6
Continuous
 62
     3
100
AcDbCircle
 10
136.131701314243
 20
119.384215484086
 30
0.0
 40
2.25
  0
CIRCLE
  5
287
330
7E
100
AcDbEntity
  8
LC-003-002-----0
  6
Continuous
 62
     3
100
AcDbCircle
 10
136.131701314243
 20
174.384215484086
 30
0.0
 40
2.25
  0
CIRCLE
  5
288
330
7E
100
AcDbEntity
  8
LC-003-002-----0
  6
Continuous
 62
     3
100
AcDbCircle
 10
81.131701314243
 20
174.384215484086
 30
0.0
 40
2.25
  0
CIRCLE
  5
289
330
7E
100
AcDbEntity
  8
LC-003-002-----0
  6
Continuous
 62
     3
100
AcDbCircle
 10
81.131701314243
 20
119.384215484086
 30
0.0
 40
2.25
  0
DIMENSION
  5
294
330
7E
100
AcDbEntity
  8
1
100
AcDbDimension
  2
*D12
 10
81.13170131424306
 20
101.884215484086
 30
0.0
 11
108.131701314243
 21
105.634215484086
 31
0.0
 70
    32
  1
<>
 71
     5
 42
-1.0
 53
0.00013888888889
  3
ME10_DIM_13
100
AcDbAlignedDimension
 13
136.131701314243
 23
116.634215484086
 33
0.0
 14
81.131701314243
 24
116.634215484086
 34
0.0
100
AcDbRotatedDimension
  0
DIMENSION
  5
29F
330
7E
100
AcDbEntity
  8
1
100
AcDbDimension
  2
*D13
 10
73.63170131424306
 20
93.88421548408598
 30
0.0
 11
108.131701314243
 21
97.63421548408598
 31
0.0
 70
    32
  1
<>
 71
     5
 42
-1.0
 53
0.00013888888889
  3
ME10_DIM_14
100
AcDbAlignedDimension
 13
143.631701314243
 23
119.384215484086
 33
0.0
 14
73.631701314243
 24
119.384215484086
 34
0.0
100
AcDbRotatedDimension
  0
DIMENSION
  5
2AB
330
7E
100
AcDbEntity
  8
1
100
AcDbDimension
  2
*D14
 10
161.654420110295
 20
174.384215484086
 30
0.0
 11
157.904420110295
 21
146.461171865158
 31
0.0
 70
    32
  1
<>
 71
     5
 42
-1.0
 53
90.0
  3
ME10_DIM_15
100
AcDbAlignedDimension
 13
138.881701314243
 23
119.384215484086
 33
0.0
 14
138.881701314243
 24
174.384215484086
 34
0.0
 50
90.0
100
AcDbRotatedDimension
  0
DIMENSION
  5
2B6
330
7E
100
AcDbEntity
  8
1
100
AcDbDimension
  2
*D15
 10
169.5581583360482
 20
181.884215484086
 30
0.0
 11
165.8081583360482
 21
146.461171865158
 31
0.0
 70
    32
  1
<>
 71
     5
 42
-1.0
 53
90.0
  3
ME10_DIM_16
100
AcDbAlignedDimension
 13
136.131701314243
 23
111.884215484086
 33
0.0
 14
136.131701314243
 24
181.884215484086
 34
0.0
 50
90.0
100
AcDbRotatedDimension
  0
INSERT
  5
2C2
330
7E
100
AcDbEntity
  8
1
100
AcDbBlockReference
  2
*D16
 10
0.0
 20
0.0
 30
0.0
  0
ENDBLK
  5
80
330
7E
100
AcDbEntity
  8
0
100
AcDbBlockEnd
  0
BLOCK
  5
82
330
81
100
AcDbEntity
  8
0
100
AcDbBlockBegin
  2
a4kl
 70
     0
 10
0.0
 20
0.0
 30
0.0
  3
a4kl
  1

  0
LINE
  5
2C3
330
81
100
AcDbEntity
  8
0
  6
Continuous
 62
     3
100
AcDbLine
 10
19.5066684218749
 20
139.299988
 30
0.0
 11
14.5066684218749
 21
139.299988
 31
0.0
  0
LINE
  5
2C4
330
81
100
AcDbEntity
  8
0
  6
Continuous
 62
     3
100
AcDbLine
 10
14.5066684218749
 20
188.599976
 30
0.0
 11
19.5066684218749
 21
188.599976
 31
0.0
  0
LINE
  5
2C5
330
81
100
AcDbEntity
  8
0
  6
Continuous
 62
     3
100
AcDbLine
 10
19.5066684218749
 20
237.899994
 30
0.0
 11
14.5066684218749
 21
237.899994
 31
0.0
  0
LINE
  5
2C6
330
81
100
AcDbEntity
  8
0
  6
Continuous
 62
     3
100
AcDbLine
 10
151.8066564218749
 20
282.0
 30
0.0
 11
151.8066564218749
 21
287.0
 31
0.0
  0
LINE
  5
2C7
330
81
100
AcDbEntity
  8
0
  6
Continuous
 62
     3
100
AcDbLine
 10
106.1066744218749
 20
287.0
 30
0.0
 11
106.1066744218749
 21
282.0
 31
0.0
  0
LINE
  5
2C8
330
81
100
AcDbEntity
  8
0
  6
Continuous
 62
     3
100
AcDbLine
 10
60.40667742187491
 20
282.0
 30
0.0
 11
60.40667742187491
 21
287.0
 31
0.0
  0
LINE
  5
2C9
330
81
100
AcDbEntity
  8
0
  6
Continuous
 62
     3
100
AcDbLine
 10
197.5066684218749
 20
282.0
 30
0.0
 11
19.5066684218749
 21
282.0
 31
0.0
  0
LINE
  5
2CA
330
81
100
AcDbEntity
  8
0
  6
Continuous
 62
     3
100
AcDbLine
 10
19.5066684218749
 20
282.0
 30
0.0
 11
19.5066684218749
 21
43.0
 31
0.0
  0
LINE
  5
2CB
330
81
100
AcDbEntity
  8
0
  6
Continuous
 62
     3
100
AcDbLine
 10
19.5066684218749
 20
89.99999999999997
 30
0.0
 11
14.5066684218749
 21
90.0
 31
0.0
  0
LINE
  5
2CC
330
81
100
AcDbEntity
  8
1
  6
Continuous
 62
     1
100
AcDbLine
 10
14.5066684218749
 20
0.0
 30
0.0
 11
14.5066684218749
 21
42.99999999999999
 31
0.0
  0
LINE
  5
2CD
330
81
100
AcDbEntity
  8
0
  6
Continuous
 62
     2
100
AcDbLine
 10
197.5066684218749
 20
287.0
 30
0.0
 11
14.5066684218749
 21
287.0
 31
0.0
  0
LINE
  5
2CE
330
81
100
AcDbEntity
  8
0
  6
Continuous
 62
     2
100
AcDbLine
 10
197.5066684218749
 20
287.0
 30
0.0
 11
197.5066684218749
 21
42.99999999999999
 31
0.0
  0
LINE
  5
2CF
330
81
100
AcDbEntity
  8
0
  6
Continuous
 62
     2
100
AcDbLine
 10
14.5066684218749
 20
287.0
 30
0.0
 11
14.5066684218749
 21
0.0
 31
0.0
  0
LINE
  5
2D0
330
81
100
AcDbEntity
  8
0
  6
Continuous
 62
     1
100
AcDbLine
 10
18.5066684218749
 20
0.0
 30
0.0
 11
18.5066684218749
 21
43.0
 31
0.0
  0
LINE
  5
2D1
330
81
100
AcDbEntity
  8
0
  6
Continuous
 62
     3
100
AcDbLine
 10
24.0066684218749
 20
0.0
 30
0.0
 11
24.0066684218749
 21
43.0
 31
0.0
  0
LINE
  5
2D2
330
81
100
AcDbEntity
  8
0
  6
Continuous
 62
     1
100
AcDbLine
 10
65.5066684218749
 20
5.86666666525001
 30
0.0
 11
65.5066684218749
 21
0.0
 31
0.0
  0
LINE
  5
2D3
330
81
100
AcDbEntity
  8
0
  6
Continuous
 62
     1
100
AcDbLine
 10
100.5066684218749
 20
13.0
 30
0.0
 11
83.5066684218749
 21
13.0
 31
0.0
  0
LINE
  5
2D4
330
81
100
AcDbEntity
  8
0
  6
Continuous
 62
     1
100
AcDbLine
 10
83.5066684218749
 20
13.0
 30
0.0
 11
65.5066684218749
 21
13.0
 31
0.0
  0
LINE
  5
2D5
330
81
100
AcDbEntity
  8
0
  6
Continuous
 62
     1
100
AcDbLine
 10
115.5066684218749
 20
19.83333329
 30
0.0
 11
142.5066684218749
 21
19.83333329
 31
0.0
  0
LINE
  5
2D6
330
81
100
AcDbEntity
  8
0
  6
Continuous
 62
     1
100
AcDbLine
 10
115.5066684218749
 20
26.0
 30
0.0
 11
197.5066684218749
 21
26.0
 31
0.0
  0
LINE
  5
2D7
330
81
100
AcDbEntity
  8
0
  6
Continuous
 62
     1
100
AcDbLine
 10
115.5066684218749
 20
26.0
 30
0.0
 11
115.5066684218749
 21
5.5
 31
0.0
  0
LINE
  5
2D8
330
81
100
AcDbEntity
  8
0
  6
Continuous
 62
     1
100
AcDbLine
 10
115.5066684218749
 20
13.0
 30
0.0
 11
100.5066684218749
 21
13.0
 31
0.0
  0
LINE
  5
2D9
330
81
100
AcDbEntity
  8
0
  6
Continuous
 62
     1
100
AcDbLine
 10
106.5066684218749
 20
26.0
 30
0.0
 11
65.5066684218749
 21
26.0
 31
0.0
  0
LINE
  5
2DA
330
81
100
AcDbEntity
  8
0
  6
Continuous
 62
     7
100
AcDbLine
 10
71.56666519246491
 20
38.8708321903435
 30
0.0
 11
71.56666519246491
 21
38.7590991514796
 31
0.0
  0
LINE
  5
2DB
330
81
100
AcDbEntity
  8
0
  6
Continuous
 62
     7
100
AcDbLine
 10
79.6667313684269
 20
40.2212071096856
 30
0.0
 11
76.6652774592859
 21
40.2212071096856
 31
0.0
  0
LINE
  5
2DC
330
81
100
AcDbEntity
  8
0
  6
Continuous
 62
     7
100
AcDbLine
 10
77.89988186674589
 20
38.4635841258695
 30
0.0
 11
79.8018625281029
 21
39.78299998112
 31
0.0
  0
LINE
  5
2DD
330
81
100
AcDbEntity
  8
0
  6
Continuous
 62
     7
100
AcDbLine
 10
79.7441702389269
 20
38.4635841258695
 30
0.0
 11
77.89988186674589
 21
38.4635841258695
 31
0.0
  0
LINE
  5
2DE
330
81
100
AcDbEntity
  8
0
  6
Continuous
 62
     7
100
AcDbLine
 10
79.8018625281029
 20
38.10435507512
 30
0.0
 11
79.8018625281029
 21
38.4060373238976
 31
0.0
  0
LINE
  5
2DF
330
81
100
AcDbEntity
  8
0
  6
Continuous
 62
     7
100
AcDbLine
 10
76.6652774592859
 20
38.0468082731482
 30
0.0
 11
79.7441702389269
 21
38.0468082731482
 31
0.0
  0
LINE
  5
2E0
330
81
100
AcDbEntity
  8
0
  6
Continuous
 62
     7
100
AcDbLine
 10
76.6075851701099
 20
38.5135841258695
 30
0.0
 11
76.6075851701099
 21
38.10435507512
 31
0.0
  0
LINE
  5
2E1
330
81
100
AcDbEntity
  8
0
  6
Continuous
 62
     7
100
AcDbLine
 10
78.54604344117391
 20
39.832708678848
 30
0.0
 11
76.6075851701099
 21
38.5135841258695
 31
0.0
  0
LINE
  5
2E2
330
81
100
AcDbEntity
  8
0
  6
Continuous
 62
     7
100
AcDbLine
 10
76.6652774592859
 20
39.832708678848
 30
0.0
 11
78.54604344117391
 21
39.832708678848
 31
0.0
  0
LINE
  5
2E3
330
81
100
AcDbEntity
  8
0
  6
Continuous
 62
     7
100
AcDbLine
 10
76.6075851701099
 20
40.1635148205104
 30
0.0
 11
76.6075851701099
 21
39.8904009680231
 31
0.0
  0
LINE
  5
2E4
330
81
100
AcDbEntity
  8
0
  6
Continuous
 62
     7
100
AcDbLine
 10
73.71371243477589
 20
39.3783150776447
 30
0.0
 11
73.71371243477589
 21
39.776365452831
 31
0.0
  0
LINE
  5
2E5
330
81
100
AcDbEntity
  8
0
  6
Continuous
 62
     7
100
AcDbLine
 10
76.08602677228089
 20
39.3219718516277
 30
0.0
 11
73.77141795006091
 21
39.3219718516277
 31
0.0
  0
LINE
  5
2E6
330
81
100
AcDbEntity
  8
0
  6
Continuous
 62
     7
100
AcDbLine
 10
76.08602677228089
 20
38.9789500913775
 30
0.0
 11
76.08602677228089
 21
39.3219718516277
 31
0.0
  0
LINE
  5
2E7
330
81
100
AcDbEntity
  8
0
  6
Continuous
 62
     7
100
AcDbLine
 10
73.77141795006091
 20
38.9789500913775
 30
0.0
 11
76.08602677228089
 21
38.9789500913775
 31
0.0
  0
LINE
  5
2E8
330
81
100
AcDbEntity
  8
0
  6
Continuous
 62
     7
100
AcDbLine
 10
76.08602677228089
 20
38.4635841258695
 30
0.0
 11
73.77141795006091
 21
38.4635841258695
 31
0.0
  0
LINE
  5
2E9
330
81
100
AcDbEntity
  8
0
  6
Continuous
 62
     7
100
AcDbLine
 10
76.08602677228089
 20
38.0474431263991
 30
0.0
 11
76.08602677228089
 21
38.4635841258695
 31
0.0
  0
LINE
  5
2EA
330
81
100
AcDbEntity
  8
0
  6
Continuous
 62
     7
100
AcDbLine
 10
73.00680333990391
 20
38.0474431263991
 30
0.0
 11
76.08602677228089
 21
38.0474431263991
 31
0.0
  0
LINE
  5
2EB
330
81
100
AcDbEntity
  8
0
  6
Continuous
 62
     7
100
AcDbLine
 10
72.86911954111591
 20
40.0835233108975
 30
0.0
 11
72.86911954111591
 21
38.1851269251872
 31
0.0
  0
LINE
  5
2EC
330
81
100
AcDbEntity
  8
0
  6
Continuous
 62
     7
100
AcDbLine
 10
76.08602677228089
 20
40.2212071096856
 30
0.0
 11
73.00680333990391
 21
40.2212071096856
 31
0.0
  0
LINE
  5
2ED
330
81
100
AcDbEntity
  8
0
  6
Continuous
 62
     7
100
AcDbLine
 10
76.08602677228089
 20
39.832708678848
 30
0.0
 11
76.08602677228089
 21
40.2212071096856
 31
0.0
  0
LINE
  5
2EE
330
81
100
AcDbEntity
  8
0
  6
Continuous
 62
     7
100
AcDbLine
 10
73.77141795006091
 20
39.832708678848
 30
0.0
 11
76.08602677228089
 21
39.832708678848
 31
0.0
  0
LINE
  5
2EF
330
81
100
AcDbEntity
  8
0
  6
Continuous
 62
     7
100
AcDbLine
 10
70.75356366527089
 20
39.2719718516277
 30
0.0
 11
70.75356366527089
 21
38.9289500913775
 31
0.0
  0
LINE
  5
2F0
330
81
100
AcDbEntity
  8
0
  6
Continuous
 62
     7
100
AcDbLine
 10
72.3597027117089
 20
39.2719718516277
 30
0.0
 11
70.75356366527089
 21
39.2719718516277
 31
0.0
  0
LINE
  5
2F1
330
81
100
AcDbEntity
  8
0
  6
Continuous
 62
     7
100
AcDbLine
 10
72.3597027117089
 20
38.5122747410395
 30
0.0
 11
72.3597027117089
 21
39.2719718516277
 31
0.0
  0
LINE
  5
2F2
330
81
100
AcDbEntity
  8
0
  6
Continuous
 62
     7
100
AcDbLine
 10
71.75130167960089
 20
40.2212071096856
 30
0.0
 11
69.7742628474349
 21
40.2212071096856
 31
0.0
  0
LINE
  5
2F3
330
81
100
AcDbEntity
  8
0
  6
Continuous
 62
     7
100
AcDbLine
 10
72.3597027117089
 20
39.5640149600237
 30
0.0
 11
72.3597027117089
 21
39.751733130648
 31
0.0
  0
LINE
  5
2F4
330
81
100
AcDbEntity
  8
0
  6
Continuous
 62
     7
100
AcDbLine
 10
71.56583194757289
 20
39.5640149600237
 30
0.0
 11
72.3597027117089
 21
39.5640149600237
 31
0.0
  0
LINE
  5
2F5
330
81
100
AcDbEntity
  8
0
  6
Continuous
 62
     7
100
AcDbLine
 10
71.56583194757289
 20
39.6440593740742
 30
0.0
 11
71.56583194757289
 21
39.5640149600237
 31
0.0
  0
LINE
  5
2F6
330
81
100
AcDbEntity
  8
0
  6
Continuous
 62
     7
100
AcDbLine
 10
70.75356366527089
 20
38.9289500913775
 30
0.0
 11
71.5072006046309
 21
38.9289500913775
 31
0.0
  0
LINE
  5
2F7
330
81
100
AcDbEntity
  8
0
  6
Continuous
 62
     7
100
AcDbLine
 10
68.3383438288929
 20
40.4447019062197
 30
0.0
 11
68.3383438288929
 21
37.8193059654678
 31
0.0
  0
LINE
  5
2F8
330
81
100
AcDbEntity
  8
0
  6
Continuous
 62
     7
100
AcDbLine
 10
84.18954496279491
 20
40.5812218073812
 30
0.0
 11
68.47486373005489
 21
40.5812218073812
 31
0.0
  0
LINE
  5
2F9
330
81
100
AcDbEntity
  8
0
  6
Continuous
 62
     7
100
AcDbLine
 10
84.3260648639559
 20
37.8193059654678
 30
0.0
 11
84.3260648639559
 21
40.4447019062197
 31
0.0
  0
LINE
  5
2FA
330
81
100
AcDbEntity
  8
0
  6
Continuous
 62
     7
100
AcDbLine
 10
67.47990319869692
 20
37.728971638309
 30
0.0
 11
67.47990319869692
 21
40.5350362333785
 31
0.0
  0
LINE
  5
2FB
330
81
100
AcDbEntity
  8
0
  6
Continuous
 62
     7
100
AcDbLine
 10
84.57527121715191
 20
37.2581882744415
 30
0.0
 11
68.0891374756979
 21
37.2581882744415
 31
0.0
  0
LINE
  5
2FC
330
81
100
AcDbEntity
  8
0
  6
Continuous
 62
     7
100
AcDbLine
 10
85.18450549415189
 20
40.5350362333785
 30
0.0
 11
85.18450549415189
 21
37.728971638309
 31
0.0
  0
LINE
  5
2FD
330
81
100
AcDbEntity
  8
0
  6
Continuous
 62
     7
100
AcDbLine
 10
68.0891374756979
 20
41.005819597246
 30
0.0
 11
84.57527121715191
 21
41.005819597246
 31
0.0
  0
LINE
  5
2FE
330
81
100
AcDbEntity
  8
0
  6
Continuous
 62
     7
100
AcDbLine
 10
84.18954496279491
 20
37.6827860643064
 30
0.0
 11
68.47486373005489
 21
37.6827860643064
 31
0.0
  0
LINE
  5
2FF
330
81
100
AcDbEntity
  8
0
  6
Continuous
 62
     7
100
AcDbLine
 10
70.1521989233589
 20
39.781465424565
 30
0.0
 11
71.4275265216439
 21
39.781465424565
 31
0.0
  0
LINE
  5
300
330
81
100
AcDbEntity
  8
0
  6
Continuous
 62
     7
100
AcDbLine
 10
70.1521989233589
 20
38.5221560148176
 30
0.0
 11
71.4305420745859
 21
38.5221560148176
 31
0.0
  0
LINE
  5
301
330
81
100
AcDbEntity
  8
0
  6
Continuous
 62
     7
100
AcDbLine
 10
70.0099917951589
 20
39.6434774252609
 30
0.0
 11
70.0099917951589
 21
38.6601440141217
 31
0.0
  0
LINE
  5
302
330
81
100
AcDbEntity
  8
0
  6
Continuous
 62
     7
100
AcDbLine
 10
69.1658618153269
 20
39.751733130648
 30
0.0
 11
69.1658618153269
 21
38.5122747410395
 31
0.0
  0
LINE
  5
303
330
81
100
AcDbEntity
  8
0
  6
Continuous
 62
     7
100
AcDbLine
 10
69.7742628474349
 20
38.0428007620019
 30
0.0
 11
71.75130167960089
 21
38.0428007620019
 31
0.0
  0
LINE
  5
304
330
81
100
AcDbEntity
  8
0
  6
Continuous
 62
     7
100
AcDbLine
 10
73.71371243477589
 20
38.5199273518864
 30
0.0
 11
73.71371243477589
 21
38.9226068653605
 31
0.0
  0
LINE
  5
305
330
81
100
AcDbEntity
  8
0
  6
Continuous
 62
     7
100
AcDbLine
 10
81.1262193139089
 20
39.3783150776447
 30
0.0
 11
81.1262193139089
 21
39.776365452831
 31
0.0
  0
LINE
  5
306
330
81
100
AcDbEntity
  8
0
  6
Continuous
 62
     7
100
AcDbLine
 10
83.49853365141291
 20
39.3219718516277
 30
0.0
 11
81.1839248291939
 21
39.3219718516277
 31
0.0
  0
LINE
  5
307
330
81
100
AcDbEntity
  8
0
  6
Continuous
 62
     7
100
AcDbLine
 10
83.49853365141291
 20
38.9789500913775
 30
0.0
 11
83.49853365141291
 21
39.3219718516277
 31
0.0
  0
LINE
  5
308
330
81
100
AcDbEntity
  8
0
  6
Continuous
 62
     7
100
AcDbLine
 10
81.1839248291939
 20
38.9789500913775
 30
0.0
 11
83.49853365141291
 21
38.9789500913775
 31
0.0
  0
LINE
  5
309
330
81
100
AcDbEntity
  8
0
  6
Continuous
 62
     7
100
AcDbLine
 10
83.49853365141291
 20
38.4635841258695
 30
0.0
 11
81.1839248291939
 21
38.4635841258695
 31
0.0
  0
LINE
  5
30A
330
81
100
AcDbEntity
  8
0
  6
Continuous
 62
     7
100
AcDbLine
 10
83.49853365141291
 20
38.0474431263991
 30
0.0
 11
83.49853365141291
 21
38.4635841258695
 31
0.0
  0
LINE
  5
30B
330
81
100
AcDbEntity
  8
0
  6
Continuous
 62
     7
100
AcDbLine
 10
80.4193102190369
 20
38.0474431263991
 30
0.0
 11
83.49853365141291
 21
38.0474431263991
 31
0.0
  0
LINE
  5
30C
330
81
100
AcDbEntity
  8
0
  6
Continuous
 62
     7
100
AcDbLine
 10
80.2816264202479
 20
40.0835233108975
 30
0.0
 11
80.2816264202479
 21
38.1851269251872
 31
0.0
  0
LINE
  5
30D
330
81
100
AcDbEntity
  8
0
  6
Continuous
 62
     7
100
AcDbLine
 10
83.49853365141291
 20
40.2212071096856
 30
0.0
 11
80.4193102190369
 21
40.2212071096856
 31
0.0
  0
LINE
  5
30E
330
81
100
AcDbEntity
  8
0
  6
Continuous
 62
     7
100
AcDbLine
 10
83.49853365141291
 20
39.832708678848
 30
0.0
 11
83.49853365141291
 21
40.2212071096856
 31
0.0
  0
LINE
  5
30F
330
81
100
AcDbEntity
  8
0
  6
Continuous
 62
     7
100
AcDbLine
 10
81.1839248291939
 20
39.832708678848
 30
0.0
 11
83.49853365141291
 21
39.832708678848
 31
0.0
  0
LINE
  5
310
330
81
100
AcDbEntity
  8
0
  6
Continuous
 62
     7
100
AcDbLine
 10
81.1262193139089
 20
38.5199273518864
 30
0.0
 11
81.1262193139089
 21
38.9226068653605
 31
0.0
  0
LINE
  5
311
330
81
100
AcDbEntity
  8
0
  6
Continuous
 62
     7
100
AcDbLine
 10
79.8018625281029
 20
39.78299998112
 30
0.0
 11
79.8018625281029
 21
40.0820155344267
 31
0.0
  0
LINE
  5
312
330
81
100
AcDbEntity
  8
0
  6
Continuous
 62
     1
100
AcDbLine
 10
106.5066684218749
 20
38.9763382614061
 30
0.0
 11
106.5066684218749
 21
31.0
 31
0.0
  0
LINE
  5
313
330
81
100
AcDbEntity
  8
0
  6
Continuous
 62
     1
100
AcDbLine
 10
18.5066684218749
 20
0.0
 30
0.0
 11
18.5066684218749
 21
43.0
 31
0.0
  0
LINE
  5
314
330
81
100
AcDbEntity
  8
0
  6
Continuous
 62
     1
100
AcDbLine
 10
142.5066684218749
 20
0.0
 30
0.0
 11
142.5066684218749
 21
5.5
 31
0.0
  0
LINE
  5
315
330
81
100
AcDbEntity
  8
0
  6
Continuous
 62
     1
100
AcDbLine
 10
65.5066684218749
 20
43.0
 30
0.0
 11
65.5066684218749
 21
31.0
 31
0.0
  0
LINE
  5
316
330
81
100
AcDbEntity
  8
0
  6
Continuous
 62
     1
100
AcDbLine
 10
197.5066684218749
 20
13.0
 30
0.0
 11
142.5066684218749
 21
13.0
 31
0.0
  0
LINE
  5
317
330
81
100
AcDbEntity
  8
0
  6
Continuous
 62
     1
100
AcDbLine
 10
106.5066684218749
 20
43.0
 30
0.0
 11
106.5066684218749
 21
38.9763382614061
 31
0.0
  0
LINE
  5
318
330
81
100
AcDbEntity
  8
0
  6
Continuous
 62
     1
100
AcDbLine
 10
106.5066684218749
 20
26.0
 30
0.0
 11
115.5066684218749
 21
26.0
 31
0.0
  0
LINE
  5
319
330
81
100
AcDbEntity
  8
0
  6
Continuous
 62
     1
100
AcDbLine
 10
106.5066684218749
 20
43.0
 30
0.0
 11
18.5066684218749
 21
43.0
 31
0.0
  0
LINE
  5
31A
330
81
100
AcDbEntity
  8
0
  6
Continuous
 62
     3
100
AcDbLine
 10
65.5066684218749
 20
6.5
 30
0.0
 11
115.5066684218749
 21
6.5
 31
0.0
  0
LINE
  5
31B
330
81
100
AcDbEntity
  8
0
  6
Continuous
 62
     1
100
AcDbLine
 10
65.5066684218749
 20
30.0
 30
0.0
 11
65.5066684218749
 21
30.1005888789615
 31
0.0
  0
LINE
  5
31C
330
81
100
AcDbEntity
  8
0
  6
Continuous
 62
     1
100
AcDbLine
 10
106.5066684218749
 20
43.0
 30
0.0
 11
197.5066684218749
 21
42.99999999999999
 31
0.0
  0
LINE
  5
31D
330
81
100
AcDbEntity
  8
0
  6
Continuous
 62
     2
100
AcDbLine
 10
197.5066684218749
 20
42.99999999999999
 30
0.0
 11
197.5066684218749
 21
0.0
 31
0.0
  0
LINE
  5
31E
330
81
100
AcDbEntity
  8
0
  6
Continuous
 62
     1
100
AcDbLine
 10
142.5066684218749
 20
12.96666658
 30
0.0
 11
115.5066684218749
 21
12.96666658
 31
0.0
  0
LINE
  5
31F
330
81
100
AcDbEntity
  8
0
  6
Continuous
 62
     3
100
AcDbLine
 10
100.5066684218749
 20
13.0
 30
0.0
 11
100.5066684218749
 21
26.0000062329264
 31
0.0
  0
LINE
  5
320
330
81
100
AcDbEntity
  8
0
  6
Continuous
 62
     3
100
AcDbLine
 10
83.5066684218749
 20
13.0
 30
0.0
 11
83.5066684218749
 21
26.0
 31
0.0
  0
LINE
  5
321
330
81
100
AcDbEntity
  8
0
  6
Continuous
 62
     3
100
AcDbLine
 10
65.5066684218749
 20
21.6
 30
0.0
 11
115.5066684218749
 21
21.6
 31
0.0
  0
LINE
  5
322
330
81
100
AcDbEntity
  8
0
  6
Continuous
 62
     3
100
AcDbLine
 10
115.5066684218749
 20
17.3
 30
0.0
 11
65.5066684218749
 21
17.3
 31
0.0
  0
LINE
  5
323
330
81
100
AcDbEntity
  8
0
  6
Continuous
 62
     3
100
AcDbLine
 10
51.5066684218749
 20
0.0
 30
0.0
 11
51.5066684218749
 21
43.0
 31
0.0
  0
LINE
  5
324
330
81
100
AcDbEntity
  8
0
  6
Continuous
 62
     3
100
AcDbLine
 10
43.5066684218749
 20
0.0
 30
0.0
 11
43.5066684218749
 21
43.0
 31
0.0
  0
LINE
  5
325
330
81
100
AcDbEntity
  8
0
  6
Continuous
 62
     3
100
AcDbLine
 10
31.5066684218749
 20
0.0
 30
0.0
 11
31.5066684218749
 21
43.0
 31
0.0
  0
LINE
  5
326
330
81
100
AcDbEntity
  8
0
  6
Continuous
 62
     3
100
AcDbLine
 10
18.5066684218749
 20
38.699997
 30
0.0
 11
65.5066684218749
 21
38.699997
 31
0.0
  0
LINE
  5
327
330
81
100
AcDbEntity
  8
0
  6
Continuous
 62
     3
100
AcDbLine
 10
65.5066684218749
 20
34.399994
 30
0.0
 11
18.5066684218749
 21
34.399994
 31
0.0
  0
LINE
  5
328
330
81
100
AcDbEntity
  8
0
  6
Continuous
 62
     3
100
AcDbLine
 10
18.5066684218749
 20
30.099991
 30
0.0
 11
65.5066684218749
 21
30.099991
 31
0.0
  0
LINE
  5
329
330
81
100
AcDbEntity
  8
0
  6
Continuous
 62
     3
100
AcDbLine
 10
65.5066684218749
 20
25.799988
 30
0.0
 11
18.5066684218749
 21
25.799988
 31
0.0
  0
LINE
  5
32A
330
81
100
AcDbEntity
  8
0
  6
Continuous
 62
     3
100
AcDbLine
 10
18.5066684218749
 20
21.5
 30
0.0
 11
65.5066684218749
 21
21.5
 31
0.0
  0
LINE
  5
32B
330
81
100
AcDbEntity
  8
0
  6
Continuous
 62
     3
100
AcDbLine
 10
65.5066684218749
 20
17.199997
 30
0.0
 11
18.5066684218749
 21
17.199997
 31
0.0
  0
LINE
  5
32C
330
81
100
AcDbEntity
  8
0
  6
Continuous
 62
     3
100
AcDbLine
 10
18.5066684218749
 20
12.899994
 30
0.0
 11
65.5066684218749
 21
12.899994
 31
0.0
  0
LINE
  5
32D
330
81
100
AcDbEntity
  8
0
  6
Continuous
 62
     3
100
AcDbLine
 10
65.5066684218749
 20
8.59999099999999
 30
0.0
 11
18.5066684218749
 21
8.59999099999999
 31
0.0
  0
LINE
  5
32E
330
81
100
AcDbEntity
  8
0
  6
Continuous
 62
     4
100
AcDbLine
 10
18.5066684218749
 20
4.30000300000002
 30
0.0
 11
65.5066684218749
 21
4.30000300000002
 31
0.0
  0
LINE
  5
32F
330
81
100
AcDbEntity
  8
0
  6
Continuous
 62
     2
100
AcDbLine
 10
197.5066684218749
 20
0.0
 30
0.0
 11
18.5066684218749
 21
0.0
 31
0.0
  0
LINE
  5
330
330
81
100
AcDbEntity
  8
0
  6
Continuous
 62
     1
100
AcDbLine
 10
65.5066684218749
 20
31.0
 30
0.0
 11
106.5066684218749
 21
31.0
 31
0.0
  0
LINE
  5
331
330
81
100
AcDbEntity
  8
0
  6
Continuous
 62
     1
100
AcDbLine
 10
106.5066684218749
 20
31.0
 30
0.0
 11
106.5066684218749
 21
26.0
 31
0.0
  0
LINE
  5
332
330
81
100
AcDbEntity
  8
0
  6
Continuous
 62
     1
100
AcDbLine
 10
65.5066684218749
 20
31.0
 30
0.0
 11
65.5066684218749
 21
5.86666666525001
 31
0.0
  0
LINE
  5
333
330
81
100
AcDbEntity
  8
1
  6
Continuous
 62
     1
100
AcDbLine
 10
115.5066684218749
 20
5.5
 30
0.0
 11
142.5066684218749
 21
5.5
 31
0.0
  0
LINE
  5
334
330
81
100
AcDbEntity
  8
0
  6
Continuous
 62
     1
100
AcDbLine
 10
115.5066684218749
 20
5.5
 30
0.0
 11
115.5066684218749
 21
0.0
 31
0.0
  0
LINE
  5
335
330
81
100
AcDbEntity
  8
0
  6
Continuous
 62
     1
100
AcDbLine
 10
142.5066684218749
 20
5.5
 30
0.0
 11
142.5066684218749
 21
26.0
 31
0.0
  0
LINE
  5
336
330
81
100
AcDbEntity
  8
1
  6
Continuous
 62
     4
100
AcDbLine
 10
120.5399694939633
 20
3.75
 30
0.0
 11
127.5399694939633
 21
4.75
 31
0.0
  0
LINE
  5
337
330
81
100
AcDbEntity
  8
1
  6
Continuous
 62
     4
100
AcDbLine
 10
127.5399694939633
 20
4.75
 30
0.0
 11
127.5399694939633
 21
0.75
 31
0.0
  0
LINE
  5
338
330
81
100
AcDbEntity
  8
1
  6
Continuous
 62
     4
100
AcDbLine
 10
127.5399694939633
 20
0.75
 30
0.0
 11
120.5399694939633
 21
1.75
 31
0.0
  0
LINE
  5
339
330
81
100
AcDbEntity
  8
1
  6
Continuous
 62
     4
100
AcDbLine
 10
120.5399694939633
 20
1.75
 30
0.0
 11
120.5399694939633
 21
3.75
 31
0.0
  0
LINE
  5
33A
330
81
100
AcDbEntity
  8
1
  6
DOT_CENTER
 62
     7
100
AcDbLine
 10
119.8271273882571
 20
2.75
 30
0.0
 11
128.2247785571842
 21
2.75
 31
0.0
  0
LINE
  5
33B
330
81
100
AcDbEntity
  8
1
  6
DOT_CENTER
 62
     7
100
AcDbLine
 10
131.932832320087
 20
2.75
 30
0.0
 11
137.0859364464741
 21
2.75
 31
0.0
  0
LINE
  5
33C
330
81
100
AcDbEntity
  8
1
  6
DOT_CENTER
 62
     7
100
AcDbLine
 10
134.441221630286
 20
0.32749751310985
 30
0.0
 11
134.441221630286
 21
5.20795062751873
 31
0.0
  0
LINE
  5
33D
330
81
100
AcDbEntity
  8
0
  6
Continuous
 62
     1
100
AcDbLine
 10
18.5066684218749
 20
0.0
 30
0.0
 11
18.5066684218749
 21
43.0
 31
0.0
  0
ARC
  5
33E
330
81
100
AcDbEntity
  8
0
  6
Continuous
 62
     7
100
AcDbCircle
 10
68.47486373005489
 20
40.4447019062197
 30
0.0
 40
0.136519901161499
100
AcDbArc
 50
90.0
 51
180.0
  0
ARC
  5
33F
330
81
100
AcDbEntity
  8
0
  6
Continuous
 62
     7
100
AcDbCircle
 10
68.47486373005489
 20
37.8193059654678
 30
0.0
 40
0.1365199011619893
100
AcDbArc
 50
180.0
 51
270.0
  0
ARC
  5
340
330
81
100
AcDbEntity
  8
0
  6
Continuous
 62
     7
100
AcDbCircle
 10
84.18954496279491
 20
40.4447019062197
 30
0.0
 40
0.1365199011609946
100
AcDbArc
 50
0.0
 51
90.0
  0
ARC
  5
341
330
81
100
AcDbEntity
  8
0
  6
Continuous
 62
     7
100
AcDbCircle
 10
84.18954496279491
 20
37.8193059654678
 30
0.0
 40
0.1365199011613996
100
AcDbArc
 50
270.0
 51
0.0
  0
ARC
  5
342
330
81
100
AcDbEntity
  8
0
  6
Continuous
 62
     7
100
AcDbCircle
 10
71.5072006046309
 20
38.869469901076
 30
0.0
 40
0.0594801903016254
100
AcDbArc
 50
1.31237392905096
 51
90.0
  0
ARC
  5
343
330
81
100
AcDbEntity
  8
0
  6
Continuous
 62
     7
100
AcDbCircle
 10
73.7706114375869
 20
39.3788678232447
 30
0.0
 40
0.0569016875723858
100
AcDbArc
 50
180.5565825808357
 51
270.8121254434627
  0
ARC
  5
344
330
81
100
AcDbEntity
  8
0
  6
Continuous
 62
     7
100
AcDbCircle
 10
73.7706114375869
 20
39.7758127072311
 30
0.0
 40
0.0569016875725334
100
AcDbArc
 50
89.18787455653593
 51
179.4434174192573
  0
ARC
  5
345
330
81
100
AcDbEntity
  8
0
  6
Continuous
 62
     7
100
AcDbCircle
 10
73.7706114375869
 20
38.9220541197606
 30
0.0
 40
0.0569016875725263
100
AcDbArc
 50
89.18787455653583
 51
179.4434174192644
  0
ARC
  5
346
330
81
100
AcDbEntity
  8
0
  6
Continuous
 62
     7
100
AcDbCircle
 10
73.7706114375869
 20
38.5204800974864
 30
0.0
 40
0.0569016875723858
100
AcDbArc
 50
180.5565825808357
 51
270.8121254434642
  0
ARC
  5
347
330
81
100
AcDbEntity
  8
0
  6
Continuous
 62
     7
100
AcDbCircle
 10
81.18311831671991
 20
39.3788678232447
 30
0.0
 40
0.0569016875723858
100
AcDbArc
 50
180.5565825808357
 51
270.8121254434341
  0
ARC
  5
348
330
81
100
AcDbEntity
  8
0
  6
Continuous
 62
     7
100
AcDbCircle
 10
81.18311831671991
 20
39.7758127072311
 30
0.0
 40
0.056901687572533
100
AcDbArc
 50
89.18787455656455
 51
179.4434174192573
  0
ARC
  5
349
330
81
100
AcDbEntity
  8
0
  6
Continuous
 62
     7
100
AcDbCircle
 10
81.18311831671991
 20
38.9220541197606
 30
0.0
 40
0.0569016875725259
100
AcDbArc
 50
89.18787455656445
 51
179.4434174192644
  0
ARC
  5
34A
330
81
100
AcDbEntity
  8
0
  6
Continuous
 62
     7
100
AcDbCircle
 10
81.18311831671991
 20
38.5204800974864
 30
0.0
 40
0.0569016875723858
100
AcDbArc
 50
180.5565825808357
 51
270.8121254434355
  0
ARC
  5
34B
330
81
100
AcDbEntity
  8
0
  6
Continuous
 62
     7
100
AcDbCircle
 10
76.6652774592859
 20
40.1635148205104
 30
0.0
 40
0.0576922891752005
100
AcDbArc
 50
90.0
 51
180.0
  0
ARC
  5
34C
330
81
100
AcDbEntity
  8
0
  6
Continuous
 62
     7
100
AcDbCircle
 10
76.6652774592859
 20
39.8904009680231
 30
0.0
 40
0.0576922891760034
100
AcDbArc
 50
180.0
 51
270.0
  0
ARC
  5
34D
330
81
100
AcDbEntity
  8
0
  6
Continuous
 62
     7
100
AcDbCircle
 10
76.6652047156839
 20
38.1044278187217
 30
0.0
 40
0.0576195914927011
100
AcDbArc
 50
180.0723348146616
 51
270.0723348149589
  0
ARC
  5
34E
330
81
100
AcDbEntity
  8
0
  6
Continuous
 62
     7
100
AcDbCircle
 10
79.7442429825289
 20
38.1044278187217
 30
0.0
 40
0.0576195914922041
100
AcDbArc
 50
269.9276651850411
 51
359.9276651853385
  0
ARC
  5
34F
330
81
100
AcDbEntity
  8
0
  6
Continuous
 62
     7
100
AcDbCircle
 10
79.7442429825289
 20
38.4059645802959
 30
0.0
 40
0.0576195914927011
100
AcDbArc
 50
0.07233481465449
 51
90.07233481495881
  0
CIRCLE
  5
350
330
81
100
AcDbEntity
  8
1
  6
Continuous
 62
     4
100
AcDbCircle
 10
134.441221630286
 20
2.75
 30
0.0
 40
1.0
  0
CIRCLE
  5
351
330
81
100
AcDbEntity
  8
1
  6
Continuous
 62
     4
100
AcDbCircle
 10
134.441221630286
 20
2.75
 30
0.0
 40
2.0
  0
SPLINE
  5
352
330
81
100
AcDbEntity
  8
0
  6
Continuous
 62
     7
100
AcDbSpline
210
0.0
220
0.0
230
1.0
 70
     8
 71
     3
 72
    13
 73
     9
 74
     7
 42
0.0000000001
 43
0.0000000001
 44
0.00000001
 40
0.0
 40
0.0
 40
0.0
 40
0.0
 40
0.1601947109558571
 40
0.3210951627356181
 40
0.4607710778824172
 40
0.6002079329854569
 40
0.7244156662364544
 40
0.8468166043873959
 40
0.8468166043873959
 40
0.8468166043873959
 40
0.8468166043873959
 10
68.0891374756979
 20
41.005819597246
 30
0.0
 10
68.03563323603954
 20
41.00257863108322
 30
0.0
 10
67.9283890427848
 20
40.99608242062008
 30
0.0
 10
67.78149114502145
 20
40.94528700216985
 30
0.0
 10
67.65453118198033
 20
40.86952704002226
 30
0.0
 10
67.5596620658666
 20
40.77254630936896
 30
0.0
 10
67.49422682762659
 20
40.65833950796376
 30
0.0
 10
67.48465436390597
 20
40.57593608014565
 30
0.0
 10
67.47990319869692
 20
40.5350362333785
 30
0.0
 11
68.0891374756979
 21
41.005819597246
 31
0.0
 11
67.9298384572199
 21
40.98890309257813
 31
0.0
 11
67.77733194674212
 21
40.9376125511029
 31
0.0
 11
67.65818891135913
 21
40.8647133165951
 31
0.0
 11
67.56092634484284
 21
40.76480020576529
 31
0.0
 11
67.50209607616378
 21
40.65540843054201
 31
0.0
 11
67.47990319869692
 21
40.5350362333785
 31
0.0
  0
SPLINE
  5
353
330
81
100
AcDbEntity
  8
0
  6
Continuous
 62
     7
100
AcDbSpline
210
0.0
220
0.0
230
1.0
 70
     8
 71
     3
 72
    13
 73
     9
 74
     7
 42
0.0000000001
 43
0.0000000001
 44
0.00000001
 40
0.0
 40
0.0
 40
0.0
 40
0.0
 40
0.1601947109558571
 40
0.3210951627356226
 40
0.4607710778824365
 40
0.6002079329855068
 40
0.724415666236498
 40
0.8468166043873557
 40
0.8468166043873557
 40
0.8468166043873557
 40
0.8468166043873557
 10
68.0891374756979
 20
37.2581882744415
 30
0.0
 10
68.03563323603956
 20
37.26142924060427
 30
0.0
 10
67.9283890427848
 20
37.26792545106743
 30
0.0
 10
67.78149114502142
 20
37.31872086951768
 30
0.0
 10
67.65453118198033
 20
37.39448083166527
 30
0.0
 10
67.55966206586662
 20
37.49146156231863
 30
0.0
 10
67.4942268276266
 20
37.60566836372379
 30
0.0
 10
67.484654363906
 20
37.68807179154188
 30
0.0
 10
67.47990319869692
 20
37.728971638309
 30
0.0
 11
68.0891374756979
 21
37.2581882744415
 31
0.0
 11
67.9298384572199
 21
37.27510477910937
 31
0.0
 11
67.77733194674212
 21
37.32639532058462
 31
0.0
 11
67.65818891135913
 21
37.39929455509245
 31
0.0
 11
67.56092634484284
 21
37.4992076659223
 31
0.0
 11
67.50209607616378
 21
37.60859944114557
 31
0.0
 11
67.47990319869692
 21
37.728971638309
 31
0.0
  0
SPLINE
  5
354
330
81
100
AcDbEntity
  8
0
  6
Continuous
 62
     7
100
AcDbSpline
210
0.0
220
0.0
230
1.0
 70
     8
 71
     3
 72
    13
 73
     9
 74
     7
 42
0.0000000001
 43
0.0000000001
 44
0.00000001
 40
0.0
 40
0.0
 40
0.0
 40
0.0
 40
0.1601947109558571
 40
0.3210951627356226
 40
0.4607710778824001
 40
0.6002079329853118
 40
0.7244156662360809
 40
0.8468166043868922
 40
0.8468166043868922
 40
0.8468166043868922
 40
0.8468166043868922
 10
84.57527121715191
 20
37.2581882744415
 30
0.0
 10
84.62877545681026
 20
37.26142924060427
 30
0.0
 10
84.73601965006502
 20
37.26792545106743
 30
0.0
 10
84.88291754782836
 20
37.31872086951768
 30
0.0
 10
85.00987751086939
 20
37.39448083166524
 30
0.0
 10
85.10474662698299
 20
37.49146156231856
 30
0.0
 10
85.17018186522243
 20
37.6056683637239
 30
0.0
 10
85.17975432894289
 20
37.68807179154189
 30
0.0
 10
85.18450549415189
 20
37.728971638309
 30
0.0
 11
84.57527121715191
 21
37.2581882744415
 31
0.0
 11
84.7345702356299
 21
37.27510477910937
 31
0.0
 11
84.88707674610768
 21
37.32639532058462
 31
0.0
 11
85.00621978149063
 21
37.39929455509245
 31
0.0
 11
85.1034823480067
 21
37.4992076659223
 31
0.0
 11
85.16231261668528
 21
37.60859944114557
 31
0.0
 11
85.18450549415189
 21
37.728971638309
 31
0.0
  0
SPLINE
  5
355
330
81
100
AcDbEntity
  8
0
  6
Continuous
 62
     7
100
AcDbSpline
210
0.0
220
0.0
230
1.0
 70
     8
 71
     3
 72
    13
 73
     9
 74
     7
 42
0.0000000001
 43
0.0000000001
 44
0.00000001
 40
0.0
 40
0.0
 40
0.0
 40
0.0
 40
0.1601947109558571
 40
0.3210951627356181
 40
0.4607710778823808
 40
0.600207932985262
 40
0.7244156662360374
 40
0.8468166043869325
 40
0.8468166043869325
 40
0.8468166043869325
 40
0.8468166043869325
 10
84.57527121715191
 20
41.005819597246
 30
0.0
 10
84.62877545681025
 20
41.00257863108322
 30
0.0
 10
84.73601965006502
 20
40.99608242062008
 30
0.0
 10
84.88291754782836
 20
40.94528700216983
 30
0.0
 10
85.00987751086939
 20
40.86952704002232
 30
0.0
 10
85.104746626983
 20
40.77254630936901
 30
0.0
 10
85.17018186522243
 20
40.65833950796366
 30
0.0
 10
85.17975432894288
 20
40.57593608014562
 30
0.0
 10
85.18450549415189
 20
40.5350362333785
 30
0.0
 11
84.57527121715191
 21
41.005819597246
 31
0.0
 11
84.7345702356299
 21
40.98890309257813
 31
0.0
 11
84.88707674610768
 21
40.9376125511029
 31
0.0
 11
85.00621978149063
 21
40.8647133165951
 31
0.0
 11
85.1034823480067
 21
40.76480020576529
 31
0.0
 11
85.16231261668528
 21
40.65540843054201
 31
0.0
 11
85.18450549415189
 21
40.5350362333785
 31
0.0
  0
SPLINE
  5
356
330
81
100
AcDbEntity
  8
0
  6
Continuous
 62
     7
100
AcDbSpline
210
0.0
220
0.0
230
1.0
 70
     8
 71
     3
 72
    13
 73
     9
 74
     7
 42
0.0000000001
 43
0.0000000001
 44
0.00000001
 40
0.0
 40
0.0
 40
0.0
 40
0.0
 40
0.1486423989487176
 40
0.2982382234603186
 40
0.4390496453782385
 40
0.5790300758310005
 40
0.7141201510145314
 40
0.8476890380266158
 40
0.8476890380266158
 40
0.8476890380266158
 40
0.8476890380266158
 10
69.7742628474349
 20
40.2212071096856
 30
0.0
 10
69.7246300616515
 20
40.21835846231372
 30
0.0
 10
69.62504613430558
 20
40.21264289570914
 30
0.0
 10
69.48424150591778
 20
40.16814065712431
 30
0.0
 10
69.3561828253489
 20
40.10121601702136
 30
0.0
 10
69.2529088576138
 20
40.00648346448909
 30
0.0
 10
69.18150628951867
 20
39.88616677345274
 30
0.0
 10
69.17105691807726
 20
39.79637487308771
 30
0.0
 10
69.1658618153269
 20
39.751733130648
 30
0.0
 11
69.7742628474349
 21
40.2212071096856
 31
0.0
 11
69.6263426988872
 21
40.20657179558386
 31
0.0
 11
69.48320908411844
 21
40.16307835890044
 31
0.0
 11
69.35941101223935
 21
40.09598220445351
 31
0.0
 11
69.25693680461141
 21
40.00062205721806
 31
0.0
 11
69.1904676163402
 21
39.8830160394143
 31
0.0
 11
69.1658618153269
 21
39.751733130648
 31
0.0
  0
SPLINE
  5
357
330
81
100
AcDbEntity
  8
0
  6
Continuous
 62
     7
100
AcDbSpline
210
0.0
220
0.0
230
1.0
 70
     8
 71
     3
 72
    13
 73
     9
 74
     7
 42
0.0000000001
 43
0.0000000001
 44
0.00000001
 40
0.0
 40
0.0
 40
0.0
 40
0.0
 40
0.1486423989487317
 40
0.2982382234603191
 40
0.4390496453782765
 40
0.5790300758310385
 40
0.7141201510145694
 40
0.8476890380266512
 40
0.8476890380266512
 40
0.8476890380266512
 40
0.8476890380266512
 10
71.75130167960089
 20
40.2212071096856
 30
0.0
 10
71.8009344653843
 20
40.21835846231372
 30
0.0
 10
71.90051839273022
 20
40.21264289570917
 30
0.0
 10
72.041323021118
 20
40.16814065712428
 30
0.0
 10
72.16938170168693
 20
40.10121601702137
 30
0.0
 10
72.27265566942201
 20
40.00648346448909
 30
0.0
 10
72.34405823751717
 20
39.88616677345273
 30
0.0
 10
72.35450760895857
 20
39.79637487308771
 30
0.0
 10
72.3597027117089
 20
39.751733130648
 30
0.0
 11
71.75130167960089
 21
40.2212071096856
 31
0.0
 11
71.8992218281486
 21
40.20657179558386
 31
0.0
 11
72.04235544291734
 21
40.16307835890044
 31
0.0
 11
72.16615351479648
 21
40.09598220445351
 31
0.0
 11
72.26862772242441
 21
40.00062205721806
 31
0.0
 11
72.33509691069563
 21
39.8830160394143
 31
0.0
 11
72.3597027117089
 21
39.751733130648
 31
0.0
  0
SPLINE
  5
358
330
81
100
AcDbEntity
  8
0
  6
Continuous
 62
     7
100
AcDbSpline
210
0.0
220
0.0
230
1.0
 70
     8
 71
     3
 72
    13
 73
     9
 74
     7
 42
0.0000000001
 43
0.0000000001
 44
0.00000001
 40
0.0
 40
0.0
 40
0.0
 40
0.0
 40
0.148642398948731
 40
0.2982382234603225
 40
0.4390496453783036
 40
0.5790300758310705
 40
0.7141201510145581
 40
0.8476890380266189
 40
0.8476890380266189
 40
0.8476890380266189
 40
0.8476890380266189
 10
71.75130167960089
 20
38.0428007620019
 30
0.0
 10
71.8009344653843
 20
38.04564940937378
 30
0.0
 10
71.90051839273022
 20
38.05136497597835
 30
0.0
 10
72.04132302111803
 20
38.0958672145632
 30
0.0
 10
72.16938170168692
 20
38.1627918546662
 30
0.0
 10
72.272655669422
 20
38.25752440719846
 30
0.0
 10
72.34405823751719
 20
38.37784109823479
 30
0.0
 10
72.35450760895857
 20
38.46763299859979
 30
0.0
 10
72.3597027117089
 20
38.5122747410395
 30
0.0
 11
71.75130167960089
 21
38.0428007620019
 31
0.0
 11
71.8992218281486
 21
38.05743607610364
 31
0.0
 11
72.04235544291734
 21
38.10092951278708
 31
0.0
 11
72.16615351479648
 21
38.16802566723405
 31
0.0
 11
72.26862772242441
 21
38.26338581446951
 31
0.0
 11
72.33509691069563
 21
38.38099183227322
 31
0.0
 11
72.3597027117089
 21
38.5122747410395
 31
0.0
  0
SPLINE
  5
359
330
81
100
AcDbEntity
  8
0
  6
Continuous
 62
     7
100
AcDbSpline
210
0.0
220
0.0
230
1.0
 70
     8
 71
     3
 72
    13
 73
     9
 74
     7
 42
0.0000000001
 43
0.0000000001
 44
0.00000001
 40
0.0
 40
0.0
 40
0.0
 40
0.0
 40
0.0328394650074352
 40
0.0655975995952085
 40
0.1022664447831562
 40
0.1389211607506419
 40
0.1782532813533702
 40
0.217726769161267
 40
0.217726769161267
 40
0.217726769161267
 40
0.217726769161267
 10
70.1521989233589
 20
39.781465424565
 30
0.0
 10
70.14121603172254
 20
39.78060526975248
 30
0.0
 10
70.11927744874635
 20
39.7788870903921
 30
0.0
 10
70.08756437969518
 20
39.76512882247921
 30
0.0
 10
70.0580448777086
 20
39.74535628319218
 30
0.0
 10
70.03193540549626
 20
39.7179598973277
 30
0.0
 10
70.01346450762219
 20
39.68308429884037
 30
0.0
 10
70.01115074950894
 20
39.65669549583578
 30
0.0
 10
70.0099917951589
 20
39.6434774252609
 30
0.0
 11
70.1521989233589
 21
39.781465424565
 31
0.0
 11
70.11965039145655
 21
39.77710382703929
 31
0.0
 11
70.0892690948642
 21
39.76485343116654
 31
0.0
 11
70.05889380622448
 21
39.74431210580836
 31
0.0
 11
70.03382524428599
 21
39.71757009008416
 31
0.0
 11
70.01605121376576
 21
39.68248306185187
 31
0.0
 11
70.0099917951589
 21
39.6434774252609
 31
0.0
  0
SPLINE
  5
35A
330
81
100
AcDbEntity
  8
0
  6
Continuous
 62
     7
100
AcDbSpline
210
0.0
220
0.0
230
1.0
 70
     8
 71
     3
 72
    13
 73
     9
 74
     7
 42
0.0000000001
 43
0.0000000001
 44
0.00000001
 40
0.0
 40
0.0
 40
0.0
 40
0.0
 40
0.1486423989487169
 40
0.298238223460322
 40
0.4390496453782656
 40
0.5790300758310325
 40
0.7141201510145201
 40
0.8476890380265836
 40
0.8476890380265836
 40
0.8476890380265836
 40
0.8476890380265836
 10
69.7742628474349
 20
38.0428007620019
 30
0.0
 10
69.7246300616515
 20
38.04564940937378
 30
0.0
 10
69.62504613430556
 20
38.05136497597834
 30
0.0
 10
69.48424150591777
 20
38.0958672145632
 30
0.0
 10
69.3561828253489
 20
38.16279185466621
 30
0.0
 10
69.25290885761383
 20
38.25752440719846
 30
0.0
 10
69.18150628951862
 20
38.37784109823479
 30
0.0
 10
69.17105691807724
 20
38.4676329985998
 30
0.0
 10
69.1658618153269
 20
38.5122747410395
 30
0.0
 11
69.7742628474349
 21
38.0428007620019
 31
0.0
 11
69.6263426988872
 21
38.05743607610364
 31
0.0
 11
69.48320908411844
 21
38.10092951278708
 31
0.0
 11
69.35941101223935
 21
38.16802566723405
 31
0.0
 11
69.25693680461141
 21
38.26338581446951
 31
0.0
 11
69.1904676163402
 21
38.38099183227322
 31
0.0
 11
69.1658618153269
 21
38.5122747410395
 31
0.0
  0
SPLINE
  5
35B
330
81
100
AcDbEntity
  8
0
  6
Continuous
 62
     7
100
AcDbSpline
210
0.0
220
0.0
230
1.0
 70
     8
 71
     3
 72
    13
 73
     9
 74
     7
 42
0.0000000001
 43
0.0000000001
 44
0.00000001
 40
0.0
 40
0.0
 40
0.0
 40
0.0
 40
0.0328394650074361
 40
0.0655975995952015
 40
0.1022664447831333
 40
0.1389211607506086
 40
0.1782532813533559
 40
0.2177267691612878
 40
0.2177267691612878
 40
0.2177267691612878
 40
0.2177267691612878
 10
70.1521989233589
 20
38.5221560148176
 30
0.0
 10
70.14121603172255
 20
38.52301616963013
 30
0.0
 10
70.11927744874635
 20
38.52473434899051
 30
0.0
 10
70.08756437969515
 20
38.53849261690337
 30
0.0
 10
70.05804487770862
 20
38.55826515619037
 30
0.0
 10
70.03193540549626
 20
38.58566154205485
 30
0.0
 10
70.01346450762219
 20
38.62053714054219
 30
0.0
 10
70.01115074950893
 20
38.64692594354681
 30
0.0
 10
70.0099917951589
 20
38.6601440141217
 30
0.0
 11
70.1521989233589
 21
38.5221560148176
 31
0.0
 11
70.11965039145655
 21
38.52651761234331
 31
0.0
 11
70.0892690948642
 21
38.53876800821604
 31
0.0
 11
70.05889380622448
 21
38.55930933357419
 31
0.0
 11
70.03382524428599
 21
38.58605134929838
 31
0.0
 11
70.01605121376576
 21
38.62113837753069
 31
0.0
 11
70.0099917951589
 21
38.6601440141217
 31
0.0
  0
SPLINE
  5
35C
330
81
100
AcDbEntity
  8
0
  6
Continuous
 62
     7
100
AcDbSpline
210
0.0
220
0.0
230
1.0
 70
     8
 71
     3
 72
    14
 73
    10
 74
     8
 42
0.0000000001
 43
0.0000000001
 44
0.00000001
 40
0.0
 40
0.0
 40
0.0
 40
0.0
 40
0.0375510748548248
 40
0.075404233490093
 40
0.1094159352404561
 40
0.1434580761254709
 40
0.170966969709373
 40
0.2205583987493849
 40
0.3151356117044947
 40
0.3151356117044947
 40
0.3151356117044947
 40
0.3151356117044947
 10
71.4305420745859
 20
38.5221560148176
 30
0.0
 10
71.44309291428925
 20
38.52289797125056
 30
0.0
 10
71.46829556031592
 20
38.52438785286718
 30
0.0
 10
71.50286416469375
 20
38.53836321983192
 30
0.0
 10
71.53036013146837
 20
38.56098878700328
 30
0.0
 10
71.54993865171532
 20
38.58672285872549
 30
0.0
 10
71.56228282115396
 20
38.62213394377407
 30
0.0
 10
71.56544295466288
 20
38.67966584148242
 30
0.0
 10
71.56618101298079
 20
38.72763229699997
 30
0.0
 10
71.56666519246491
 20
38.7590991514796
 30
0.0
 11
71.4305420745859
 21
38.5221560148176
 31
0.0
 11
71.46785244767516
 21
38.52640092738363
 31
0.0
 11
71.50295502351557
 21
38.54056675909359
 31
0.0
 11
71.52942161569713
 21
38.56192829822939
 31
0.0
 11
71.54951092858136
 21
38.58941078108438
 31
0.0
 11
71.55892075252942
 21
38.61526023832195
 31
0.0
 11
71.56438821061022
 21
38.6645493520933
 31
0.0
 11
71.56666519246491
 21
38.7590991514796
 31
0.0
  0
SPLINE
  5
35D
330
81
100
AcDbEntity
  8
0
  6
Continuous
 62
     7
100
AcDbSpline
210
0.0
220
0.0
230
1.0
 70
     8
 71
     3
 72
    13
 73
     9
 74
     7
 42
0.0000000001
 43
0.0000000001
 44
0.00000001
 40
0.0
 40
0.0
 40
0.0
 40
0.0
 40
0.0303249383642044
 40
0.060441785117422
 40
0.0959479298118383
 40
0.1315593707300932
 40
0.1736623627999717
 40
0.2160932553481884
 40
0.2160932553481884
 40
0.2160932553481884
 40
0.2160932553481884
 10
71.56583194757289
 20
39.6440593740742
 30
0.0
 10
71.56515876844172
 20
39.65419856280421
 30
0.0
 10
71.56381702957638
 20
39.67440736452128
 30
0.0
 10
71.55211566862403
 20
39.70459807825534
 30
0.0
 10
71.53408971639844
 20
39.73335261119022
 30
0.0
 10
71.50698482402723
 20
39.76018605254315
 30
0.0
 10
71.47002432670459
 20
39.77835949631016
 30
0.0
 10
71.44172904174681
 20
39.78042744134647
 30
0.0
 10
71.4275265216439
 20
39.781465424565
 30
0.0
 11
71.56583194757289
 21
39.6440593740742
 31
0.0
 11
71.56229464840196
 21
39.67417729899223
 31
0.0
 11
71.55199743714748
 21
39.70247909926602
 31
0.0
 11
71.53302114843116
 21
39.73248887729945
 31
0.0
 11
71.50742544849075
 21
39.75724841826521
 31
0.0
 11
71.46955713404556
 21
39.77565093717747
 31
0.0
 11
71.4275265216439
 21
39.781465424565
 31
0.0
  0
SPLINE
  5
35E
330
81
100
AcDbEntity
  8
0
  6
Continuous
 62
     7
100
AcDbSpline
210
0.0
220
0.0
230
1.0
 70
     8
 71
     3
 72
    13
 73
     9
 74
     7
 42
0.0000000001
 43
0.0000000001
 44
0.00000001
 40
0.0
 40
0.0
 40
0.0
 40
0.0
 40
0.0381152522468692
 40
0.0763355512012206
 40
0.1127548768764178
 40
0.1486421571416508
 40
0.1827729054947339
 40
0.2174479487766111
 40
0.2174479487766111
 40
0.2174479487766111
 40
0.2174479487766111
 10
73.00680333990391
 20
40.2212071096856
 30
0.0
 10
72.99405142146328
 20
40.22023893651315
 30
0.0
 10
72.96851243993609
 20
40.21829992185575
 30
0.0
 10
72.93363710627838
 20
40.2025388843503
 30
0.0
 10
72.90408720754898
 20
40.18018025378962
 30
0.0
 10
72.88178348624263
 20
40.15182183865477
 30
0.0
 10
72.87048486098118
 20
40.11809153316263
 30
0.0
 10
72.86957704153578
 20
40.09510665968073
 30
0.0
 10
72.86911954111591
 20
40.0835233108975
 30
0.0
 11
73.00680333990391
 21
40.2212071096856
 31
0.0
 11
72.96902831529361
 21
40.21612577427708
 31
0.0
 11
72.93390102492563
 21
40.20106374507901
 31
0.0
 11
72.90500535286975
 21
40.17889603389641
 31
0.0
 11
72.88328470427611
 21
40.15032838944492
 31
0.0
 11
72.87214737405552
 21
40.11806590567974
 31
0.0
 11
72.86911954111591
 21
40.0835233108975
 31
0.0
  0
SPLINE
  5
35F
330
81
100
AcDbEntity
  8
0
  6
Continuous
 62
     7
100
AcDbSpline
210
0.0
220
0.0
230
1.0
 70
     8
 71
     3
 72
    13
 73
     9
 74
     7
 42
0.0000000001
 43
0.0000000001
 44
0.00000001
 40
0.0
 40
0.0
 40
0.0
 40
0.0
 40
0.0381152522468664
 40
0.0763355512012009
 40
0.1127548768763765
 40
0.1486421571416378
 40
0.1827729054947545
 40
0.2174479487766529
 40
0.2174479487766529
 40
0.2174479487766529
 40
0.2174479487766529
 10
73.00680333990391
 20
38.0474431263991
 30
0.0
 10
72.99405142146328
 20
38.04841129957155
 30
0.0
 10
72.96851243993608
 20
38.05035031422894
 30
0.0
 10
72.93363710627838
 20
38.06611135173433
 30
0.0
 10
72.90408720754897
 20
38.088469982295
 30
0.0
 10
72.88178348624265
 20
38.11682839742988
 30
0.0
 10
72.87048486098118
 20
38.15055870292203
 30
0.0
 10
72.86957704153578
 20
38.17354357640397
 30
0.0
 10
72.86911954111591
 20
38.1851269251872
 30
0.0
 11
73.00680333990391
 21
38.0474431263991
 31
0.0
 11
72.96902831529361
 21
38.0525244618076
 31
0.0
 11
72.93390102492563
 21
38.06758649100563
 31
0.0
 11
72.90500535286975
 21
38.08975420218819
 31
0.0
 11
72.88328470427611
 21
38.11832184663972
 31
0.0
 11
72.87214737405552
 21
38.15058433040494
 31
0.0
 11
72.86911954111591
 21
38.1851269251872
 31
0.0
  0
SPLINE
  5
360
330
81
100
AcDbEntity
  8
0
  6
Continuous
 62
     7
100
AcDbSpline
210
0.0
220
0.0
230
1.0
 70
     8
 71
     3
 72
    13
 73
     9
 74
     7
 42
0.0000000001
 43
0.0000000001
 44
0.00000001
 40
0.0
 40
0.0
 40
0.0
 40
0.0
 40
0.0381152522468551
 40
0.0763355512012195
 40
0.1127548768764506
 40
0.1486421571418127
 40
0.1827729054950488
 40
0.2174479487769495
 40
0.2174479487769495
 40
0.2174479487769495
 40
0.2174479487769495
 10
80.4193102190369
 20
40.2212071096856
 30
0.0
 10
80.40655830059629
 20
40.22023893651315
 30
0.0
 10
80.38101931906907
 20
40.21829992185572
 30
0.0
 10
80.34614398541137
 20
40.2025388843503
 30
0.0
 10
80.3165940866819
 20
40.18018025378958
 30
0.0
 10
80.29429036537545
 20
40.15182183865473
 30
0.0
 10
80.28299174011339
 20
40.11809153316273
 30
0.0
 10
80.28208392066786
 20
40.09510665968075
 30
0.0
 10
80.2816264202479
 20
40.0835233108975
 30
0.0
 11
80.4193102190369
 21
40.2212071096856
 31
0.0
 11
80.38153519442662
 21
40.21612577427708
 31
0.0
 11
80.34640790405862
 21
40.20106374507901
 31
0.0
 11
80.3175122320027
 21
40.17889603389641
 31
0.0
 11
80.29579158340884
 21
40.15032838944492
 31
0.0
 11
80.28465425318778
 21
40.11806590567974
 31
0.0
 11
80.2816264202479
 21
40.0835233108975
 31
0.0
  0
SPLINE
  5
361
330
81
100
AcDbEntity
  8
0
  6
Continuous
 62
     7
100
AcDbSpline
210
0.0
220
0.0
230
1.0
 70
     8
 71
     3
 72
    13
 73
     9
 74
     7
 42
0.0000000001
 43
0.0000000001
 44
0.00000001
 40
0.0
 40
0.0
 40
0.0
 40
0.0
 40
0.0381152522468523
 40
0.0763355512011999
 40
0.1127548768764093
 40
0.1486421571417997
 40
0.1827729054950693
 40
0.2174479487769913
 40
0.2174479487769913
 40
0.2174479487769913
 40
0.2174479487769913
 10
80.4193102190369
 20
38.0474431263991
 30
0.0
 10
80.40655830059626
 20
38.04841129957154
 30
0.0
 10
80.38101931906907
 20
38.05035031422895
 30
0.0
 10
80.34614398541137
 20
38.06611135173434
 30
0.0
 10
80.31659408668189
 20
38.08846998229504
 30
0.0
 10
80.29429036537546
 20
38.1168283974299
 30
0.0
 10
80.2829917401134
 20
38.15055870292196
 30
0.0
 10
80.28208392066784
 20
38.17354357640396
 30
0.0
 10
80.2816264202479
 20
38.1851269251872
 30
0.0
 11
80.4193102190369
 21
38.0474431263991
 31
0.0
 11
80.38153519442662
 21
38.0525244618076
 31
0.0
 11
80.34640790405862
 21
38.06758649100563
 31
0.0
 11
80.3175122320027
 21
38.08975420218819
 31
0.0
 11
80.29579158340884
 21
38.11832184663972
 31
0.0
 11
80.28465425318778
 21
38.15058433040494
 31
0.0
 11
80.2816264202479
 21
38.1851269251872
 31
0.0
  0
SPLINE
  5
362
330
81
100
AcDbEntity
  8
0
  6
Continuous
 62
     7
100
AcDbSpline
210
0.0
220
0.0
230
1.0
 70
     8
 71
     3
 72
    13
 73
     9
 74
     7
 42
0.0000000001
 43
0.0000000001
 44
0.00000001
 40
0.0
 40
0.0
 40
0.0
 40
0.0
 40
0.0353323702701624
 40
0.0704203827951201
 40
0.1027084056751373
 40
0.1352293371689407
 40
0.1740111215768533
 40
0.2125287438774726
 40
0.2125287438774726
 40
0.2125287438774726
 40
0.2125287438774726
 10
79.8018625281029
 20
40.0820155344267
 30
0.0
 10
79.80097633395614
 20
40.09383743982976
 30
0.0
 10
79.79921007455808
 20
40.11739949064847
 30
0.0
 10
79.78475394188328
 20
40.14916597405491
 30
0.0
 10
79.76406621550059
 20
40.17553738297964
 30
0.0
 10
79.73780865784373
 20
40.19804631842177
 30
0.0
 10
79.70551522853428
 20
40.21701449832517
 30
0.0
 10
79.67962983498018
 20
40.21981276014809
 30
0.0
 10
79.6667313684269
 20
40.2212071096856
 30
0.0
 11
79.8018625281029
 21
40.0820155344267
 31
0.0
 11
79.79715344956283
 21
40.11703268691247
 31
0.0
 11
79.7831475833106
 21
40.14920417014648
 31
0.0
 11
79.76336832639187
 21
40.1747246994757
 31
0.0
 11
79.73879366734859
 21
40.19602486656732
 31
0.0
 11
79.70464340753496
 21
40.21440383706415
 31
0.0
 11
79.6667313684269
 21
40.2212071096856
 31
0.0
  0
TEXT
  5
364
330
81
100
AcDbEntity
  8
0
 62
     3
100
AcDbText
 10
45.5066684218749
 20
283.0
 30
0.0
 40
1.798828
  1
4
 41
0.99
  7
CONVERTER_14
100
AcDbText
  0
TEXT
  5
365
330
81
100
AcDbEntity
  8
0
 62
     3
100
AcDbText
 10
170.5066684218749
 20
283.0
 30
0.0
 40
1.798828
  1
1
 41
0.99
  7
CONVERTER_14
100
AcDbText
  0
TEXT
  5
366
330
81
100
AcDbEntity
  8
0
 62
     3
100
AcDbText
 10
16.5066684218749
 20
111.5
 30
0.0
 40
1.798828
  1
C
 41
0.99
  7
CONVERTER_14
100
AcDbText
  0
TEXT
  5
367
330
81
100
AcDbEntity
  8
0
 62
     3
100
AcDbText
 10
16.5066684218749
 20
161.5
 30
0.0
 40
1.798828
  1
D
 41
0.99
  7
CONVERTER_14
100
AcDbText
  0
TEXT
  5
368
330
81
100
AcDbEntity
  8
0
 62
     3
100
AcDbText
 10
16.5066684218749
 20
211.5
 30
0.0
 40
1.798828
  1
E
 41
0.99
  7
CONVERTER_14
100
AcDbText
  0
TEXT
  5
369
330
81
100
AcDbEntity
  8
0
 62
     3
100
AcDbText
 10
16.5066684218749
 20
261.5
 30
0.0
 40
1.798828
  1
F
 41
0.99
  7
CONVERTER_14
100
AcDbText
  0
TEXT
  5
36A
330
81
100
AcDbEntity
  8
0
 62
     3
100
AcDbText
 10
16.5066684218749
 20
63.5
 30
0.0
 40
1.798828
  1
B
 41
0.99
  7
CONVERTER_14
100
AcDbText
  0
TEXT
  5
36B
330
81
100
AcDbEntity
  8
0
 62
     3
100
AcDbText
 10
83.5066684218749
 20
283.0
 30
0.0
 40
1.798828
  1
3
 41
0.99
  7
CONVERTER_14
100
AcDbText
  0
TEXT
  5
36C
330
81
100
AcDbEntity
  8
0
 62
     3
100
AcDbText
 10
127.5066684218749
 20
283.0
 30
0.0
 40
1.798828
  1
2
 41
0.99
  7
CONVERTER_14
100
AcDbText
  0
MTEXT
  5
36D
330
81
100
AcDbEntity
  8
0
 62
     7
100
AcDbMText
 10
13.21210475602299
 20
214.6132400482627
 30
0.0
 40
1.3
 41
0.0
 71
     7
 72
     1
  3
This drawing shows the actual state of product development at\Pthe date of the drawing or the revision date. No claims or\Pdamages in any form can be made against GEZE as a result of the\Pinterpretation of this drawing. This drawing remains the prop
  3
erty\Pof GEZE and is made available to third parties only for the duration\Pof contractural obligations. All rights connected with this drawing remain\Pin possession of GEZE. This drawing may not be copied or handed over\Pto third parties without th
  1
e express consent of GEZE.
  7
CONVERTER_11
 11
6.123233995736766E-17
 21
1.0
 31
0.0
 73
     1
 44
0.7202881152461
  0
MTEXT
  5
36E
330
81
100
AcDbEntity
  8
0
 62
     7
100
AcDbMText
 10
13.78
 20
0.0
 30
0.0
 40
1.3
 41
0.0
 71
     7
 72
     1
  3
Diese Zeichnung entspricht dem Entwicklungsstand des Zeichnungs-\Pdatums bzw. der letzten \U+00c4nderungseintragung.Aus der Ben\U+00fctzung der\PZeichnung k\U+00f6nnen keine Anspr\U+00fcche, gleich welcher Art, einschlie\U+00df-\Plich Schadenersatza
  3
nspr\U+00fcche, abgeleitet und gegen GEZE geltend ge-\Pmacht werden. Die Zeichnung bleibt unser Eigentum und ist Dritten\Pnur f\U+00fcr die Vertragsdauer zur Benutzung \U+00fcberlassen.S\U+00e4mtliche sich\Paus der Zeichnung ergebenden Anspr\U+00fcc
  1
he stehen ausschlie\U+00dflich GEZE\Pzu.Ohne vorherige Zustimmung von GEZE darf diese Zeichnung weder\Pvervielf\U+00e4ltigt noch Dritten zug\U+00e4nglich gemacht werden.
  7
CONVERTER_11
 11
6.123233764940082E-17
 21
1.0
 31
0.0
 73
     1
 44
0.7202881152461
  0
MTEXT
  5
36F
330
81
100
AcDbEntity
  8
1
 62
     7
100
AcDbMText
 10
11.16031950505541
 20
141.7735294117645
 30
0.0
 40
2.0
 41
0.0
 71
     5
 72
     1
  1
EMPB = Erstmusterpr\U+00fcfbericht /First sample test report
  7
CONVERTER_11
 11
6.123233995736766E-17
 21
1.0
 31
0.0
 73
     1
 44
1.02040816326531
  0
MTEXT
  5
370
330
81
100
AcDbEntity
  8
0
 62
     4
100
AcDbMText
 10
129.129383835554
 20
8.20000000000001
 30
0.0
 40
3.5
 41
0.0
 71
     5
 72
     1
  1
D
  7
CONVERTER_11
 73
     1
 44
1.02040816326531
  0
MTEXT
  5
371
330
81
100
AcDbEntity
  8
0
 62
     3
100
AcDbMText
 10
66.2358488707329
 20
15.15
 30
0.0
 40
1.8
 41
0.0
 71
     4
 72
     1
  1
gepr. / checked
  7
CONVERTER_13
 73
     1
 44
0.90036014405762
  0
MTEXT
  5
372
330
81
100
AcDbEntity
  8
0
 62
     3
100
AcDbMText
 10
66.2358488707329
 20
19.45
 30
0.0
 40
1.8
 41
0.0
 71
     4
 72
     1
  1
erstellt / drawn
  7
CONVERTER_13
 73
     1
 44
0.90036014405762
  0
TEXT
  5
373
330
81
100
AcDbEntity
  8
0
 62
     4
100
AcDbText
 10
87.0662822490759
 20
39.4483504727545
 30
0.0
 40
2.2
  1
GEZE GmbH
 41
0.9
  7
CONVERTER_11
100
AcDbText
  0
MTEXT
  5
374
330
81
100
AcDbEntity
  8
0
 62
     3
100
AcDbMText
 10
87.0662822490759
 20
31.7168732439802
 30
0.0
 40
1.8
 41
0.0
 71
     7
 72
     1
  1
P.O. Box 13 63\P71226 Leonberg\PGermany
  7
CONVERTER_13
 73
     1
 44
0.78031212484994
  0
MTEXT
  5
375
330
81
100
AcDbEntity
  8
0
 62
     3
100
AcDbMText
 10
143.5066684218749
 20
20.9
 30
0.0
 40
1.8
 41
0.0
 71
     7
 72
     1
  1
Material-Nr.\PID-no.
  7
CONVERTER_13
 73
     1
 44
0.84033613445378
  0
TEXT
  5
376
330
81
100
AcDbEntity
  8
0
 62
     3
100
AcDbText
 10
143.5066684218749
 20
10.4
 30
0.0
 40
1.8
  1
Zeichnungs-Nr. / document-no.
 41
0.72
  7
CONVERTER_13
100
AcDbText
  0
TEXT
  5
377
330
81
100
AcDbEntity
  8
0
 62
     3
100
AcDbText
 10
116.7066684218748
 20
10.73333324949998
 30
0.0
 40
1.8
  1
Sprache / language
 41
0.72
  7
CONVERTER_13
100
AcDbText
  0
MTEXT
  5
378
330
81
100
AcDbEntity
  8
0
 62
     3
100
AcDbMText
 10
116.221568841094
 20
15.3617882489337
 30
0.0
 40
1.8
 41
0.0
 71
     7
 72
     1
  1
Ma\U+00dfstab\Pscale
  7
CONVERTER_13
 73
     1
 44
0.84033613445378
  0
TEXT
  5
379
330
81
100
AcDbEntity
  8
0
 62
     3
100
AcDbText
 10
107.306625421875
 20
40.600006
 30
0.0
 40
1.8
  1
Benennung / designation
 41
0.72
  7
CONVERTER_13
100
AcDbText
  0
MTEXT
  5
37A
330
81
100
AcDbEntity
  8
0
 62
     3
100
AcDbMText
 10
66.2358488707329
 20
3.25
 30
0.0
 40
1.8
 41
0.0
 71
     4
 72
     1
  1
Ersetzt durch:\Psubst. with:
  7
CONVERTER_13
 73
     1
 44
0.84033613445378
  0
MTEXT
  5
37B
330
81
100
AcDbEntity
  8
0
 62
     3
100
AcDbMText
 10
66.2358488707329
 20
9.75
 30
0.0
 40
1.8
 41
0.0
 71
     4
 72
     1
  1
Ersatz f\U+00fcr:\Psubst. for:
  7
CONVERTER_13
 73
     1
 44
0.84033613445378
  0
MTEXT
  5
37C
330
81
100
AcDbEntity
  8
0
 62
     3
100
AcDbMText
 10
116.3200072399219
 20
21.1543120908915
 30
0.0
 40
1.8
 41
0.0
 71
     7
 72
     1
  1
Blatt / von\Psheet / of
  7
CONVERTER_13
 73
     1
 44
0.84033613445378
  0
MTEXT
  5
37E
330
81
100
AcDbEntity
  8
0
 62
     3
100
AcDbMText
 10
92.0066684218749
 20
22.6975560165162
 30
0.0
 40
1.8
 41
0.0
 71
     8
 72
     1
  1
Datum / date
  7
CONVERTER_15
 73
     1
 44
0.90036014405762
  0
MTEXT
  5
37F
330
81
100
AcDbEntity
  8
0
 62
     3
100
AcDbMText
 10
108.0066684218749
 20
22.6975560165162
 30
0.0
 40
1.8
 41
0.0
 71
     8
 72
     1
  1
Name / name
  7
CONVERTER_15
 73
     1
 44
0.90036014405762
  0
MTEXT
  5
381
330
81
100
AcDbEntity
  8
0
 62
     7
100
AcDbMText
 10
27.70666842187489
 20
2.36042929205311
 30
0.0
 40
1.3
 41
0.0
 71
     8
 72
     1
  1
Dok.version
  7
CONVERTER_16
 73
     1
 44
0.7202881152461
  0
MTEXT
  5
382
330
81
100
AcDbEntity
  8
0
 62
     7
100
AcDbMText
 10
27.70666842187489
 20
0.56042929205312
 30
0.0
 40
1.3
 41
0.0
 71
     8
 72
     1
  1
doc.version
  7
CONVERTER_16
 73
     1
 44
0.7202881152461
  0
MTEXT
  5
383
330
81
100
AcDbEntity
  8
0
 62
     7
100
AcDbMText
 10
38.0066684218749
 20
0.56042929205312
 30
0.0
 40
1.3
 41
0.0
 71
     8
 72
     1
  1
date
  7
CONVERTER_13
 73
     1
 44
0.7202881152461
  0
MTEXT
  5
384
330
81
100
AcDbEntity
  8
0
 62
     7
100
AcDbMText
 10
38.0066684218749
 20
2.36042929205311
 30
0.0
 40
1.3
 41
0.0
 71
     8
 72
     1
  1
Datum
  7
CONVERTER_13
 73
     1
 44
0.7202881152461
  0
MTEXT
  5
385
330
81
100
AcDbEntity
  8
0
 62
     7
100
AcDbMText
 10
47.0066684218749
 20
0.56042929205312
 30
0.0
 40
1.3
 41
0.0
 71
     8
 72
     1
  1
name
  7
CONVERTER_13
 73
     1
 44
0.7202881152461
  0
MTEXT
  5
386
330
81
100
AcDbEntity
  8
0
 62
     7
100
AcDbMText
 10
47.0066684218749
 20
2.36042929205311
 30
0.0
 40
1.3
 41
0.0
 71
     8
 72
     1
  1
Name
  7
CONVERTER_13
 73
     1
 44
0.7202881152461
  0
MTEXT
  5
387
330
81
100
AcDbEntity
  8
0
 62
     7
100
AcDbMText
 10
58.5066684218749
 20
0.56042929205312
 30
0.0
 40
1.3
 41
0.0
 71
     8
 72
     1
  1
Doc. change no.
  7
CONVERTER_13
 73
     1
 44
0.7202881152461
  0
MTEXT
  5
388
330
81
100
AcDbEntity
  8
0
 62
     7
100
AcDbMText
 10
58.5066684218749
 20
2.36042929205311
 30
0.0
 40
1.3
 41
0.0
 71
     8
 72
     1
  1
Mitteilungs-Nr.
  7
CONVERTER_13
 73
     1
 44
0.7202881152461
  0
MTEXT
  5
389
330
81
100
AcDbEntity
  8
0
 62
     4
100
AcDbMText
 10
136.7022258382949
 20
22.5
 30
0.0
 40
5.0
 41
0.0
 71
     5
 72
     1
  1
/
  7
CONVERTER_11
 73
     1
 44
1.02040816326531
  0
MTEXT
  5
38A
330
81
100
AcDbEntity
  8
0
 62
     7
100
AcDbMText
 10
27.70666842187489
 20
6.449997
 30
0.0
 40
2.0
 41
0.0
 71
     5
 72
     1
  1
00
  7
CONVERTER_11
 73
     1
 44
1.02040816326531
  0
MTEXT
  5
38B
330
81
100
AcDbEntity
  8
0
 62
     7
100
AcDbMText
 10
27.70666842187489
 20
10.749985
 30
0.0
 40
2.0
 41
0.0
 71
     5
 72
     1
  1
 
  7
CONVERTER_11
 73
     1
 44
1.02040816326531
  0
MTEXT
  5
38C
330
81
100
AcDbEntity
  8
0
 62
     7
100
AcDbMText
 10
27.70666842187489
 20
15.049973
 30
0.0
 40
2.0
 41
0.0
 71
     5
 72
     1
  1
 
  7
CONVERTER_11
 73
     1
 44
1.02040816326531
  0
MTEXT
  5
38D
330
81
100
AcDbEntity
  8
0
 62
     7
100
AcDbMText
 10
27.70666842187489
 20
19.349961
 30
0.0
 40
2.0
 41
0.0
 71
     5
 72
     1
  1
 
  7
CONVERTER_11
 73
     1
 44
1.02040816326531
  0
MTEXT
  5
38E
330
81
100
AcDbEntity
  8
0
 62
     7
100
AcDbMText
 10
27.70666842187489
 20
23.649949
 30
0.0
 40
2.0
 41
0.0
 71
     5
 72
     1
  1
 
  7
CONVERTER_11
 73
     1
 44
1.02040816326531
  0
MTEXT
  5
38F
330
81
100
AcDbEntity
  8
0
 62
     7
100
AcDbMText
 10
27.70666842187489
 20
27.949937
 30
0.0
 40
2.0
 41
0.0
 71
     5
 72
     1
  1
 
  7
CONVERTER_11
 73
     1
 44
1.02040816326531
  0
MTEXT
  5
390
330
81
100
AcDbEntity
  8
0
 62
     7
100
AcDbMText
 10
27.70666842187489
 20
32.249925
 30
0.0
 40
2.0
 41
0.0
 71
     5
 72
     1
  1
 
  7
CONVERTER_11
 73
     1
 44
1.02040816326531
  0
MTEXT
  5
391
330
81
100
AcDbEntity
  8
0
 62
     7
100
AcDbMText
 10
37.5066684218749
 20
36.549913
 30
0.0
 40
2.0
 41
0.0
 71
     5
 72
     1
  1
 
  7
CONVERTER_16
 73
     1
 44
1.02040816326531
  0
MTEXT
  5
392
330
81
100
AcDbEntity
  8
0
 62
     7
100
AcDbMText
 10
27.70666842187489
 20
40.849901
 30
0.0
 40
2.0
 41
0.0
 71
     5
 72
     1
  1
 
  7
CONVERTER_11
 73
     1
 44
1.02040816326531
  0
MTEXT
  5
393
330
81
100
AcDbEntity
  8
0
 62
     7
100
AcDbMText
 10
58.5066684218749
 20
40.849901
 30
0.0
 40
2.0
 41
0.0
 71
     5
 72
     1
  1
 
  7
CONVERTER_11
 73
     1
 44
1.02040816326531
  0
MTEXT
  5
394
330
81
100
AcDbEntity
  8
0
 62
     7
100
AcDbMText
 10
47.30666842187491
 20
36.549913
 30
0.0
 40
2.0
 41
0.0
 71
     5
 72
     1
  1
 
  7
CONVERTER_13
 73
     1
 44
1.02040816326531
  0
MTEXT
  5
395
330
81
100
AcDbEntity
  8
0
 62
     7
100
AcDbMText
 10
47.30666842187491
 20
32.249925
 30
0.0
 40
2.0
 41
0.0
 71
     5
 72
     1
  1
 
  7
CONVERTER_13
 73
     1
 44
1.02040816326531
  0
MTEXT
  5
396
330
81
100
AcDbEntity
  8
0
 62
     7
100
AcDbMText
 10
47.30666842187491
 20
27.949937
 30
0.0
 40
2.0
 41
0.0
 71
     5
 72
     1
  1
 
  7
CONVERTER_13
 73
     1
 44
1.02040816326531
  0
MTEXT
  5
397
330
81
100
AcDbEntity
  8
0
 62
     7
100
AcDbMText
 10
37.5066684218749
 20
23.649949
 30
0.0
 40
2.0
 41
0.0
 71
     5
 72
     1
  1
 
  7
CONVERTER_16
 73
     1
 44
1.02040816326531
  0
MTEXT
  5
398
330
81
100
AcDbEntity
  8
0
 62
     7
100
AcDbMText
 10
47.30666842187491
 20
19.349961
 30
0.0
 40
2.0
 41
0.0
 71
     5
 72
     1
  1
 
  7
CONVERTER_13
 73
     1
 44
1.02040816326531
  0
MTEXT
  5
399
330
81
100
AcDbEntity
  8
0
 62
     7
100
AcDbMText
 10
58.5066684218749
 20
15.049973
 30
0.0
 40
2.0
 41
0.0
 71
     5
 72
     1
  1
 
  7
CONVERTER_11
 73
     1
 44
1.02040816326531
  0
MTEXT
  5
39A
330
81
100
AcDbEntity
  8
0
 62
     7
100
AcDbMText
 10
58.5066684218749
 20
10.749985
 30
0.0
 40
2.0
 41
0.0
 71
     5
 72
     1
  1
 
  7
CONVERTER_11
 73
     1
 44
1.02040816326531
  0
MTEXT
  5
39B
330
81
100
AcDbEntity
  8
0
 62
     7
100
AcDbMText
 10
37.5066684218749
 20
6.449997
 30
0.0
 40
2.0
 41
0.0
 71
     5
 72
     1
  1
03.12.13
  7
CONVERTER_16
 73
     1
 44
1.02040816326531
  0
MTEXT
  5
39C
330
81
100
AcDbEntity
  8
0
 62
     7
100
AcDbMText
 10
47.30666842187491
 20
6.449997
 30
0.0
 40
2.0
 41
0.0
 71
     5
 72
     1
  1
tbt7
  7
CONVERTER_13
 73
     1
 44
1.02040816326531
  0
MTEXT
  5
39D
330
81
100
AcDbEntity
  8
0
 62
     7
100
AcDbMText
 10
58.5066684218749
 20
19.349961
 30
0.0
 40
2.0
 41
0.0
 71
     5
 72
     1
  1
 
  7
CONVERTER_11
 73
     1
 44
1.02040816326531
  0
MTEXT
  5
39E
330
81
100
AcDbEntity
  8
0
 62
     7
100
AcDbMText
 10
37.5066684218749
 20
15.049973
 30
0.0
 40
2.0
 41
0.0
 71
     5
 72
     1
  1
 
  7
CONVERTER_16
 73
     1
 44
1.02040816326531
  0
MTEXT
  5
39F
330
81
100
AcDbEntity
  8
0
 62
     7
100
AcDbMText
 10
58.5066684218749
 20
6.449997
 30
0.0
 40
2.0
 41
0.0
 71
     5
 72
     1
  1
*
  7
CONVERTER_11
 73
     1
 44
1.02040816326531
  0
MTEXT
  5
3A0
330
81
100
AcDbEntity
  8
0
 62
     7
100
AcDbMText
 10
37.5066684218749
 20
10.749985
 30
0.0
 40
2.0
 41
0.0
 71
     5
 72
     1
  1
 
  7
CONVERTER_16
 73
     1
 44
1.02040816326531
  0
MTEXT
  5
3A1
330
81
100
AcDbEntity
  8
0
 62
     7
100
AcDbMText
 10
37.5066684218749
 20
19.349961
 30
0.0
 40
2.0
 41
0.0
 71
     5
 72
     1
  1
 
  7
CONVERTER_16
 73
     1
 44
1.02040816326531
  0
MTEXT
  5
3A2
330
81
100
AcDbEntity
  8
0
 62
     7
100
AcDbMText
 10
37.5066684218749
 20
27.949937
 30
0.0
 40
2.0
 41
0.0
 71
     5
 72
     1
  1
 
  7
CONVERTER_16
 73
     1
 44
1.02040816326531
  0
MTEXT
  5
3A3
330
81
100
AcDbEntity
  8
0
 62
     7
100
AcDbMText
 10
37.5066684218749
 20
32.249925
 30
0.0
 40
2.0
 41
0.0
 71
     5
 72
     1
  1
 
  7
CONVERTER_16
 73
     1
 44
1.02040816326531
  0
MTEXT
  5
3A4
330
81
100
AcDbEntity
  8
0
 62
     7
100
AcDbMText
 10
37.5066684218749
 20
40.849901
 30
0.0
 40
2.0
 41
0.0
 71
     5
 72
     1
  1
 
  7
CONVERTER_16
 73
     1
 44
1.02040816326531
  0
MTEXT
  5
3A5
330
81
100
AcDbEntity
  8
0
 62
     7
100
AcDbMText
 10
47.30666842187491
 20
10.749985
 30
0.0
 40
2.0
 41
0.0
 71
     5
 72
     1
  1
 
  7
CONVERTER_13
 73
     1
 44
1.02040816326531
  0
MTEXT
  5
3A6
330
81
100
AcDbEntity
  8
0
 62
     7
100
AcDbMText
 10
47.30666842187491
 20
15.049973
 30
0.0
 40
2.0
 41
0.0
 71
     5
 72
     1
  1
 
  7
CONVERTER_13
 73
     1
 44
1.02040816326531
  0
MTEXT
  5
3A7
330
81
100
AcDbEntity
  8
0
 62
     7
100
AcDbMText
 10
47.30666842187491
 20
23.649949
 30
0.0
 40
2.0
 41
0.0
 71
     5
 72
     1
  1
 
  7
CONVERTER_13
 73
     1
 44
1.02040816326531
  0
MTEXT
  5
3A8
330
81
100
AcDbEntity
  8
0
 62
     7
100
AcDbMText
 10
47.30666842187491
 20
40.849901
 30
0.0
 40
2.0
 41
0.0
 71
     5
 72
     1
  1
 
  7
CONVERTER_13
 73
     1
 44
1.02040816326531
  0
MTEXT
  5
3A9
330
81
100
AcDbEntity
  8
0
 62
     7
100
AcDbMText
 10
58.5066684218749
 20
23.649949
 30
0.0
 40
2.0
 41
0.0
 71
     5
 72
     1
  1
 
  7
CONVERTER_11
 73
     1
 44
1.02040816326531
  0
MTEXT
  5
3AA
330
81
100
AcDbEntity
  8
0
 62
     7
100
AcDbMText
 10
58.5066684218749
 20
27.949937
 30
0.0
 40
2.0
 41
0.0
 71
     5
 72
     1
  1
 
  7
CONVERTER_11
 73
     1
 44
1.02040816326531
  0
MTEXT
  5
3AB
330
81
100
AcDbEntity
  8
0
 62
     7
100
AcDbMText
 10
58.5066684218749
 20
32.249925
 30
0.0
 40
2.0
 41
0.0
 71
     5
 72
     1
  1
 
  7
CONVERTER_11
 73
     1
 44
1.02040816326531
  0
MTEXT
  5
3AC
330
81
100
AcDbEntity
  8
0
 62
     7
100
AcDbMText
 10
58.5066684218749
 20
36.549913
 30
0.0
 40
2.0
 41
0.0
 71
     5
 72
     1
  1
 
  7
CONVERTER_11
 73
     1
 44
1.02040816326531
  0
MTEXT
  5
3AD
330
81
100
AcDbEntity
  8
0
 62
     7
100
AcDbMText
 10
27.70666842187489
 20
36.549913
 30
0.0
 40
2.0
 41
0.0
 71
     5
 72
     1
  1
 
  7
CONVERTER_11
 73
     1
 44
1.02040816326531
  0
MTEXT
  5
3AE
330
81
100
AcDbEntity
  8
0
 62
     3
100
AcDbMText
 10
90.5418984900569
 20
19.8136152178384
 30
0.0
 40
2.5
 41
0.0
 71
     5
 72
     1
  1
03.12.13
  7
CONVERTER_16
 73
     1
 44
1.02040816326531
  0
MTEXT
  5
3AF
330
81
100
AcDbEntity
  8
0
 62
     3
100
AcDbMText
 10
107.6339467400569
 20
19.8136152178384
 30
0.0
 40
2.5
 41
0.0
 71
     5
 72
     1
  1
tbt7
  7
CONVERTER_13
 73
     1
 44
1.02040816326531
  0
MTEXT
  5
3B0
330
81
100
AcDbEntity
  8
0
 62
     1
100
AcDbMText
 10
129.6853719060919
 20
16.2112503074031
 30
0.0
 40
5.0
 41
0.0
 71
     5
 72
     1
  1
1:1
  7
CONVERTER_11
 73
     1
 44
1.02040816326531
  0
MTEXT
  5
3B1
330
81
100
AcDbEntity
  8
0
 62
     3
100
AcDbMText
 10
90.5418984900569
 20
15.4881691307031
 30
0.0
 40
2.5
 41
0.0
 71
     5
 72
     1
  1
 
  7
CONVERTER_16
 73
     1
 44
1.02040816326531
  0
MTEXT
  5
3B2
330
81
100
AcDbEntity
  8
0
 62
     3
100
AcDbMText
 10
96.24967660828989
 20
2.4101356684765
 30
0.0
 40
2.5
 41
0.0
 71
     5
 72
     1
  1
 
  7
CONVERTER_11
 73
     1
 44
1.02040816326531
  0
MTEXT
  5
3B3
330
81
100
AcDbEntity
  8
0
 62
     3
100
AcDbMText
 10
96.24967660828989
 20
9.9101356684765
 30
0.0
 40
2.5
 41
0.0
 71
     5
 72
     1
  1
 
  7
CONVERTER_11
 73
     1
 44
1.02040816326531
  0
MTEXT
  5
3B4
330
81
100
AcDbEntity
  8
0
 62
     3
100
AcDbMText
 10
107.6339467400569
 20
15.4881691307031
 30
0.0
 40
2.5
 41
0.0
 71
     5
 72
     1
  1
 
  7
CONVERTER_13
 73
     1
 44
1.02040816326531
  0
MTEXT
  5
3B5
330
81
100
AcDbEntity
  8
0
 62
     4
100
AcDbMText
 10
151.5066684218749
 20
29.5509709389485
 30
0.0
 40
3.5
 41
0.0
 71
     5
 72
     1
  1
DOOR MAGNET WALL MOUNTING 65MM
  7
CONVERTER_13
 73
     1
 44
1.02040816326531
  0
MTEXT
  5
3B6
330
81
100
AcDbEntity
  8
0
 62
     1
100
AcDbMText
 10
151.5066684218749
 20
36.4392375438422
 30
0.0
 40
4.5
 41
0.0
 71
     5
 72
     1
  1
HAFTMAGNET WANDMONTAGE 65MM
  7
CONVERTER_12
 73
     1
 44
1.02040816326531
  0
MTEXT
  5
3B7
330
81
100
AcDbEntity
  8
0
 62
     1
100
AcDbMText
 10
172.5066684218749
 20
18.5101511820582
 30
0.0
 40
5.0
 41
0.0
 71
     5
 72
     1
  1
 
  7
CONVERTER_11
 73
     1
 44
1.02040816326531
  0
MTEXT
  5
3B8
330
81
100
AcDbEntity
  8
0
 62
     1
100
AcDbMText
 10
172.5066684218749
 20
5.38551908572789
 30
0.0
 40
5.0
 41
0.0
 71
     5
 72
     1
  1
21202-0-3
  7
CONVERTER_13
 73
     1
 44
1.02040816326531
  0
MTEXT
  5
3B9
330
81
100
AcDbEntity
  8
0
 62
     4
100
AcDbMText
 10
139.9224718661989
 20
22.5
 30
0.0
 40
3.5
 41
0.0
 71
     5
 72
     1
  1
1
  7
CONVERTER_11
 73
     1
 44
1.02040816326531
  0
MTEXT
  5
3BA
330
81
100
AcDbEntity
  8
0
 62
     4
100
AcDbMText
 10
133.129383835554
 20
22.5
 30
0.0
 40
3.5
 41
0.0
 71
     5
 72
     1
  1
1
  7
CONVERTER_11
 73
     1
 44
1.02040816326531
  0
MTEXT
  5
3BB
330
81
100
AcDbEntity
  8
0
 62
     7
100
AcDbMText
 10
21.10666842187489
 20
2.10462632711871
 30
0.0
 40
1.3
 41
0.0
 71
     8
 72
     1
  1
EMPB
  7
CONVERTER_13
 73
     1
 44
0.7202881152461
  0
TEXT
  5
3BD
330
81
100
AcDbEntity
  8
0
 62
     4
100
AcDbText
 10
66.5342641417329
 20
27.1408650519031
 30
0.0
 40
2.5
  1
vertraulich / confidential
 41
0.765
  7
CONVERTER_17
100
AcDbText
  0
MTEXT
  5
3BE
330
81
100
AcDbEntity
  8
0
 62
     4
100
AcDbMText
 10
20.70666842187489
 20
6.449997
 30
0.0
 40
2.0
 41
0.0
 71
     5
 72
     1
  1
 
  7
CONVERTER_11
 73
     1
 44
1.02040816326531
  0
MTEXT
  5
3BF
330
81
100
AcDbEntity
  8
0
 62
     4
100
AcDbMText
 10
20.70666842187489
 20
10.749985
 30
0.0
 40
2.0
 41
0.0
 71
     5
 72
     1
  1
 
  7
CONVERTER_11
 73
     1
 44
1.02040816326531
  0
MTEXT
  5
3C0
330
81
100
AcDbEntity
  8
0
 62
     4
100
AcDbMText
 10
20.70666842187489
 20
15.049973
 30
0.0
 40
2.0
 41
0.0
 71
     5
 72
     1
  1
 
  7
CONVERTER_11
 73
     1
 44
1.02040816326531
  0
MTEXT
  5
3C1
330
81
100
AcDbEntity
  8
0
 62
     4
100
AcDbMText
 10
20.70666842187489
 20
19.349961
 30
0.0
 40
2.0
 41
0.0
 71
     5
 72
     1
  1
 
  7
CONVERTER_11
 73
     1
 44
1.02040816326531
  0
MTEXT
  5
3C2
330
81
100
AcDbEntity
  8
0
 62
     4
100
AcDbMText
 10
20.70666842187489
 20
23.649949
 30
0.0
 40
2.0
 41
0.0
 71
     5
 72
     1
  1
 
  7
CONVERTER_11
 73
     1
 44
1.02040816326531
  0
MTEXT
  5
3C3
330
81
100
AcDbEntity
  8
0
 62
     4
100
AcDbMText
 10
20.70666842187489
 20
27.949937
 30
0.0
 40
2.0
 41
0.0
 71
     5
 72
     1
  1
 
  7
CONVERTER_11
 73
     1
 44
1.02040816326531
  0
MTEXT
  5
3C4
330
81
100
AcDbEntity
  8
0
 62
     4
100
AcDbMText
 10
20.70666842187489
 20
32.249925
 30
0.0
 40
2.0
 41
0.0
 71
     5
 72
     1
  1
 
  7
CONVERTER_11
 73
     1
 44
1.02040816326531
  0
MTEXT
  5
3C5
330
81
100
AcDbEntity
  8
0
 62
     4
100
AcDbMText
 10
20.70666842187489
 20
36.549913
 30
0.0
 40
2.0
 41
0.0
 71
     5
 72
     1
  1
 
  7
CONVERTER_11
 73
     1
 44
1.02040816326531
  0
MTEXT
  5
3C6
330
81
100
AcDbEntity
  8
0
 62
     4
100
AcDbMText
 10
20.70666842187489
 20
40.849901
 30
0.0
 40
2.0
 41
0.0
 71
     5
 72
     1
  1
 
  7
CONVERTER_11
 73
     1
 44
1.02040816326531
  0
ENDBLK
  5
83
330
81
100
AcDbEntity
  8
0
100
AcDbBlockEnd
  0
BLOCK
  5
86
330
84
100
AcDbEntity
  8
0
100
AcDbBlockBegin
  2
Rahmen
 70
     0
 10
0.0
 20
0.0
 30
0.0
  3
Rahmen
  1

  0
INSERT
  5
85
330
84
100
AcDbEntity
  8
1
100
AcDbBlockReference
  2
a4kl
 10
0.0
 20
0.0
 30
0.0
  0
ENDBLK
  5
87
330
84
100
AcDbEntity
  8
0
100
AcDbBlockEnd
  0
BLOCK
  5
12D
330
124
100
AcDbEntity
  8
0
100
AcDbBlockBegin
  2
*D9
 70
     1
 10
0.0
 20
0.0
 30
0.0
  3
*D9
  1

  0
LINE
  5
125
330
124
100
AcDbEntity
  8
1
  6
Continuous
 62
     3
100
AcDbLine
 10
153.508540225283
 20
189.509508
 30
0.0
 11
153.508540225283
 21
196.509508
 31
0.0
  0
LINE
  5
126
330
124
100
AcDbEntity
  8
1
  6
Continuous
 62
     3
100
AcDbLine
 10
153.508540225283
 20
196.509508
 30
0.0
 11
153.508540225283
 21
203.009508
 31
0.0
  0
LINE
  5
127
330
124
100
AcDbEntity
  8
1
  6
Continuous
 62
     3
100
AcDbLine
 10
153.508540225283
 20
203.009508
 30
0.0
 11
153.508540225283
 21
214.157528107031
 31
0.0
  0
LINE
  5
128
330
124
100
AcDbEntity
  8
1
  6
Continuous
 62
     3
100
AcDbLine
 10
143.5218763142429
 20
196.509508
 30
0.0
 11
155.508540225283
 21
196.509508
 31
0.0
  0
LINE
  5
129
330
124
100
AcDbEntity
  8
1
  6
Continuous
 62
     3
100
AcDbLine
 10
143.5218763142429
 20
203.009508
 30
0.0
 11
155.508540225283
 21
203.009508
 31
0.0
  0
SOLID
  5
12A
330
124
100
AcDbEntity
  8
1
 62
     3
100
AcDbTrace
 10
153.9693239668389
 20
193.009508
 30
0.0
 11
153.0477564837271
 21
193.009508
 31
0.0
 12
153.508540225283
 22
196.509508
 32
0.0
 13
153.508540225283
 23
196.509508
 33
0.0
  0
SOLID
  5
12B
330
124
100
AcDbEntity
  8
1
 62
     3
100
AcDbTrace
 10
153.0477564837271
 20
206.509508
 30
0.0
 11
153.9693239668389
 21
206.509508
 31
0.0
 12
153.508540225283
 22
203.009508
 32
0.0
 13
153.508540225283
 23
203.009508
 33
0.0
  0
MTEXT
  5
12C
330
124
100
AcDbEntity
  8
1
 62
     4
100
AcDbMText
 10
151.508540225283
 20
207.770028107031
 30
0.0
 40
3.5
 41
0.0
 71
     7
 72
     1
  1
6.5
  7
CONVERTER_11
 11
0.0
 21
1.0
 31
0.0
 73
     1
 44
0.60024009603842
  0
ENDBLK
  5
12E
330
124
100
AcDbEntity
  8
0
100
AcDbBlockEnd
  0
BLOCK
  5
138
330
131
100
AcDbEntity
  8
0
100
AcDbBlockBegin
  2
*D10
 70
     1
 10
0.0
 20
0.0
 30
0.0
  3
*D10
  1

  0
LINE
  5
132
330
131
100
AcDbEntity
  8
1
  6
Continuous
 62
     3
100
AcDbLine
 10
83.52187631424295
 20
271.509508
 30
0.0
 11
133.5218763142429
 21
271.509508
 31
0.0
  0
LINE
  5
133
330
131
100
AcDbEntity
  8
1
  6
Continuous
 62
     3
100
AcDbLine
 10
83.52187631424295
 20
260.509508
 30
0.0
 11
83.52187631424295
 21
273.509508
 31
0.0
  0
LINE
  5
134
330
131
100
AcDbEntity
  8
1
  6
Continuous
 62
     3
100
AcDbLine
 10
133.5218763142429
 20
260.509508
 30
0.0
 11
133.5218763142429
 21
273.509508
 31
0.0
  0
SOLID
  5
135
330
131
100
AcDbEntity
  8
1
 62
     3
100
AcDbTrace
 10
87.02187631424295
 20
271.9702917415559
 30
0.0
 11
87.02187631424295
 21
271.0487242584441
 31
0.0
 12
83.52187631424295
 22
271.509508
 32
0.0
 13
83.52187631424295
 23
271.509508
 33
0.0
  0
SOLID
  5
136
330
131
100
AcDbEntity
  8
1
 62
     3
100
AcDbTrace
 10
130.0218763142429
 20
271.0487242584441
 30
0.0
 11
130.0218763142429
 21
271.9702917415559
 31
0.0
 12
133.5218763142429
 22
271.509508
 32
0.0
 13
133.5218763142429
 23
271.509508
 33
0.0
  0
MTEXT
  5
137
330
131
100
AcDbEntity
  8
1
 62
     4
100
AcDbMText
 10
104.4217131863724
 20
273.5095010429237
 30
0.0
 40
3.5
 41
0.0
 71
     7
 72
     1
  1
\C4;{\Fgdt;n}\C4;50
  7
CONVERTER_11
 11
0.9999999999970619
 21
2.424068405545306E-6
 31
0.0
 73
     1
 44
0.60024009603842
  0
ENDBLK
  5
139
330
131
100
AcDbEntity
  8
0
100
AcDbBlockEnd
  0
BLOCK
  5
143
330
13C
100
AcDbEntity
  8
0
100
AcDbBlockBegin
  2
*D11
 70
     1
 10
0.0
 20
0.0
 30
0.0
  3
*D11
  1

  0
LINE
  5
13D
330
13C
100
AcDbEntity
  8
1
  6
Continuous
 62
     3
100
AcDbLine
 10
161.613359481881
 20
261.509508
 30
0.0
 11
161.613359481881
 21
196.509508
 31
0.0
  0
LINE
  5
13E
330
13C
100
AcDbEntity
  8
1
  6
Continuous
 62
     3
100
AcDbLine
 10
132.5218763142429
 20
261.509508
 30
0.0
 11
163.613359481881
 21
261.509508
 31
0.0
  0
LINE
  5
13F
330
13C
100
AcDbEntity
  8
1
  6
Continuous
 62
     3
100
AcDbLine
 10
143.5218763142429
 20
196.509508
 30
0.0
 11
163.613359481881
 21
196.509508
 31
0.0
  0
SOLID
  5
140
330
13C
100
AcDbEntity
  8
1
 62
     3
100
AcDbTrace
 10
162.0741432234369
 20
258.009508
 30
0.0
 11
161.1525757403251
 21
258.009508
 31
0.0
 12
161.613359481881
 22
261.509508
 32
0.0
 13
161.613359481881
 23
261.509508
 33
0.0
  0
SOLID
  5
141
330
13C
100
AcDbEntity
  8
1
 62
     3
100
AcDbTrace
 10
161.1525757403251
 20
200.009508
 30
0.0
 11
162.0741432234369
 21
200.009508
 31
0.0
 12
161.613359481881
 22
196.509508
 32
0.0
 13
161.613359481881
 23
196.509508
 33
0.0
  0
MTEXT
  5
142
330
13C
100
AcDbEntity
  8
1
 62
     4
100
AcDbMText
 10
159.613359481881
 20
225.592804650847
 30
0.0
 40
3.5
 41
0.0
 71
     7
 72
     1
  1
65
  7
CONVERTER_11
 11
0.0
 21
1.0
 31
0.0
 73
     1
 44
0.60024009603842
  0
ENDBLK
  5
144
330
13C
100
AcDbEntity
  8
0
100
AcDbBlockEnd
  0
BLOCK
  5
291
330
28A
100
AcDbEntity
  8
0
100
AcDbBlockBegin
  2
*D12
 70
     1
 10
0.0
 20
0.0
 30
0.0
  3
*D12
  1

  0
LINE
  5
28B
330
28A
100
AcDbEntity
  8
1
  6
Continuous
 62
     3
100
AcDbLine
 10
81.13170131424306
 20
101.884215484086
 30
0.0
 11
136.131701314243
 21
101.884215484086
 31
0.0
  0
LINE
  5
28C
330
28A
100
AcDbEntity
  8
1
  6
Continuous
 62
     3
100
AcDbLine
 10
81.13170131424306
 20
116.634215484086
 30
0.0
 11
81.13170131424306
 21
99.884215484086
 31
0.0
  0
LINE
  5
28D
330
28A
100
AcDbEntity
  8
1
  6
Continuous
 62
     3
100
AcDbLine
 10
136.131701314243
 20
116.634215484086
 30
0.0
 11
136.131701314243
 21
99.884215484086
 31
0.0
  0
SOLID
  5
28E
330
28A
100
AcDbEntity
  8
1
 62
     3
100
AcDbTrace
 10
84.63170131424306
 20
102.3449992256419
 30
0.0
 11
84.63170131424306
 21
101.4234317425301
 31
0.0
 12
81.13170131424306
 22
101.884215484086
 32
0.0
 13
81.13170131424306
 23
101.884215484086
 33
0.0
  0
SOLID
  5
28F
330
28A
100
AcDbEntity
  8
1
 62
     3
100
AcDbTrace
 10
132.631701314243
 20
101.4234317425301
 30
0.0
 11
132.631701314243
 21
102.3449992256419
 31
0.0
 12
136.131701314243
 22
101.884215484086
 32
0.0
 13
136.131701314243
 23
101.884215484086
 33
0.0
  0
MTEXT
  5
290
330
28A
100
AcDbEntity
  8
1
 62
     4
100
AcDbMText
 10
105.506701314243
 20
103.884215484086
 30
0.0
 40
3.5
 41
0.0
 71
     7
 72
     1
  1
55
  7
CONVERTER_11
 11
0.9999999999970619
 21
2.424068405545306E-6
 31
0.0
 73
     1
 44
0.60024009603842
  0
ENDBLK
  5
292
330
28A
100
AcDbEntity
  8
0
100
AcDbBlockEnd
  0
BLOCK
  5
29C
330
295
100
AcDbEntity
  8
0
100
AcDbBlockBegin
  2
*D13
 70
     1
 10
0.0
 20
0.0
 30
0.0
  3
*D13
  1

  0
LINE
  5
296
330
295
100
AcDbEntity
  8
1
  6
Continuous
 62
     3
100
AcDbLine
 10
73.63170131424306
 20
93.88421548408598
 30
0.0
 11
143.631701314243
 21
93.88421548408598
 31
0.0
  0
LINE
  5
297
330
295
100
AcDbEntity
  8
1
  6
Continuous
 62
     3
100
AcDbLine
 10
73.63170131424306
 20
119.384215484086
 30
0.0
 11
73.63170131424306
 21
91.88421548408598
 31
0.0
  0
LINE
  5
298
330
295
100
AcDbEntity
  8
1
  6
Continuous
 62
     3
100
AcDbLine
 10
143.631701314243
 20
119.384215484086
 30
0.0
 11
143.631701314243
 21
91.88421548408598
 31
0.0
  0
SOLID
  5
299
330
295
100
AcDbEntity
  8
1
 62
     3
100
AcDbTrace
 10
77.13170131424306
 20
94.34499922564187
 30
0.0
 11
77.13170131424306
 21
93.4234317425301
 31
0.0
 12
73.63170131424306
 22
93.88421548408598
 32
0.0
 13
73.63170131424306
 23
93.88421548408598
 33
0.0
  0
SOLID
  5
29A
330
295
100
AcDbEntity
  8
1
 62
     3
100
AcDbTrace
 10
140.131701314243
 20
93.4234317425301
 30
0.0
 11
140.131701314243
 21
94.34499922564187
 31
0.0
 12
143.631701314243
 22
93.88421548408598
 32
0.0
 13
143.631701314243
 23
93.88421548408598
 33
0.0
  0
MTEXT
  5
29B
330
295
100
AcDbEntity
  8
1
 62
     4
100
AcDbMText
 10
105.506701314243
 20
95.88421548408598
 30
0.0
 40
3.5
 41
0.0
 71
     7
 72
     1
  1
70
  7
CONVERTER_11
 11
0.9999999999970619
 21
2.424068405545306E-6
 31
0.0
 73
     1
 44
0.60024009603842
  0
ENDBLK
  5
29D
330
295
100
AcDbEntity
  8
0
100
AcDbBlockEnd
  0
BLOCK
  5
2A8
330
2A0
100
AcDbEntity
  8
0
100
AcDbBlockBegin
  2
*D14
 70
     1
 10
0.0
 20
0.0
 30
0.0
  3
*D14
  1

  0
LINE
  5
2A1
330
2A0
100
AcDbEntity
  8
1
  6
Continuous
 62
     3
100
AcDbLine
 10
161.654420110295
 20
174.384215484086
 30
0.0
 11
161.654420110295
 21
119.384215484086
 31
0.0
  0
LINE
  5
2A2
330
2A0
100
AcDbEntity
  8
1
  6
Continuous
 62
     3
100
AcDbLine
 10
155.153739644782
 20
174.384215484086
 30
0.0
 11
163.654420110295
 21
174.384215484086
 31
0.0
  0
LINE
  5
2A3
330
2A0
100
AcDbEntity
  8
1
  6
Continuous
 62
     3
100
AcDbLine
 10
138.8817013142429
 20
174.384215484086
 30
0.0
 11
152.356044647816
 21
174.384215484086
 31
0.0
  0
LINE
  5
2A4
330
2A0
100
AcDbEntity
  8
1
  6
Continuous
 62
     3
100
AcDbLine
 10
138.8817013142429
 20
119.384215484086
 30
0.0
 11
163.654420110295
 21
119.384215484086
 31
0.0
  0
SOLID
  5
2A5
330
2A0
100
AcDbEntity
  8
1
 62
     3
100
AcDbTrace
 10
162.1152038518509
 20
170.884215484086
 30
0.0
 11
161.1936363687391
 21
170.884215484086
 31
0.0
 12
161.654420110295
 22
174.384215484086
 32
0.0
 13
161.654420110295
 23
174.384215484086
 33
0.0
  0
SOLID
  5
2A6
330
2A0
100
AcDbEntity
  8
1
 62
     3
100
AcDbTrace
 10
161.1936363687391
 20
122.884215484086
 30
0.0
 11
162.1152038518509
 21
122.884215484086
 31
0.0
 12
161.654420110295
 22
119.384215484086
 32
0.0
 13
161.654420110295
 23
119.384215484086
 33
0.0
  0
MTEXT
  5
2A7
330
2A0
100
AcDbEntity
  8
1
 62
     4
100
AcDbMText
 10
159.654420110295
 20
143.836171865158
 30
0.0
 40
3.5
 41
0.0
 71
     7
 72
     1
  1
55
  7
CONVERTER_11
 11
0.0
 21
1.0
 31
0.0
 73
     1
 44
0.60024009603842
  0
ENDBLK
  5
2A9
330
2A0
100
AcDbEntity
  8
0
100
AcDbBlockEnd
  0
BLOCK
  5
2B3
330
2AC
100
AcDbEntity
  8
0
100
AcDbBlockBegin
  2
*D15
 70
     1
 10
0.0
 20
0.0
 30
0.0
  3
*D15
  1

  0
LINE
  5
2AD
330
2AC
100
AcDbEntity
  8
1
  6
Continuous
 62
     3
100
AcDbLine
 10
169.5581583360482
 20
181.884215484086
 30
0.0
 11
169.5581583360482
 21
111.884215484086
 31
0.0
  0
LINE
  5
2AE
330
2AC
100
AcDbEntity
  8
1
  6
Continuous
 62
     3
100
AcDbLine
 10
136.1317013142429
 20
181.884215484086
 30
0.0
 11
171.5581583360482
 21
181.884215484086
 31
0.0
  0
LINE
  5
2AF
330
2AC
100
AcDbEntity
  8
1
  6
Continuous
 62
     3
100
AcDbLine
 10
136.1317013142429
 20
111.884215484086
 30
0.0
 11
171.5581583360482
 21
111.884215484086
 31
0.0
  0
SOLID
  5
2B0
330
2AC
100
AcDbEntity
  8
1
 62
     3
100
AcDbTrace
 10
170.0189420776041
 20
178.384215484086
 30
0.0
 11
169.0973745944923
 21
178.384215484086
 31
0.0
 12
169.5581583360482
 22
181.884215484086
 32
0.0
 13
169.5581583360482
 23
181.884215484086
 33
0.0
  0
SOLID
  5
2B1
330
2AC
100
AcDbEntity
  8
1
 62
     3
100
AcDbTrace
 10
169.0973745944923
 20
115.384215484086
 30
0.0
 11
170.0189420776041
 21
115.384215484086
 31
0.0
 12
169.5581583360482
 22
111.884215484086
 32
0.0
 13
169.5581583360482
 23
111.884215484086
 33
0.0
  0
MTEXT
  5
2B2
330
2AC
100
AcDbEntity
  8
1
 62
     4
100
AcDbMText
 10
167.5581583360482
 20
143.836171865158
 30
0.0
 40
3.5
 41
0.0
 71
     7
 72
     1
  1
70
  7
CONVERTER_11
 11
0.0
 21
1.0
 31
0.0
 73
     1
 44
0.60024009603842
  0
ENDBLK
  5
2B4
330
2AC
100
AcDbEntity
  8
0
100
AcDbBlockEnd
  0
BLOCK
  5
2C0
330
2B7
100
AcDbEntity
  8
0
100
AcDbBlockBegin
  2
*D16
 70
     1
 10
0.0
 20
0.0
 30
0.0
  3
*D16
  1

  0
LINE
  5
2B8
330
2B7
100
AcDbEntity
  8
1
  6
Continuous
 62
     3
100
AcDbLine
 10
153.631701314243
 20
183.634215484086
 30
0.0
 11
153.631701314243
 21
176.634215484086
 31
0.0
  0
LINE
  5
2B9
330
2B7
100
AcDbEntity
  8
1
  6
Continuous
 62
     3
100
AcDbLine
 10
153.631701314243
 20
176.634215484086
 30
0.0
 11
153.631701314243
 21
172.134215484086
 31
0.0
  0
LINE
  5
2BA
330
2B7
100
AcDbEntity
  8
1
  6
Continuous
 62
     3
100
AcDbLine
 10
153.631701314243
 20
172.134215484086
 30
0.0
 11
153.631701314243
 21
158.057566402719
 31
0.0
  0
LINE
  5
2BB
330
2B7
100
AcDbEntity
  8
1
  6
Continuous
 62
     3
100
AcDbLine
 10
136.131701314243
 20
176.634215484086
 30
0.0
 11
155.631701314243
 21
176.634215484086
 31
0.0
  0
LINE
  5
2BC
330
2B7
100
AcDbEntity
  8
1
  6
Continuous
 62
     3
100
AcDbLine
 10
136.131701314243
 20
172.134215484086
 30
0.0
 11
155.631701314243
 21
172.134215484086
 31
0.0
  0
SOLID
  5
2BD
330
2B7
100
AcDbEntity
  8
1
 62
     3
100
AcDbTrace
 10
153.1709175726871
 20
180.134215484086
 30
0.0
 11
154.0924850557989
 21
180.134215484086
 31
0.0
 12
153.631701314243
 22
176.634215484086
 32
0.0
 13
153.631701314243
 23
176.634215484086
 33
0.0
  0
SOLID
  5
2BE
330
2B7
100
AcDbEntity
  8
1
 62
     3
100
AcDbTrace
 10
154.0924850557989
 20
168.634215484086
 30
0.0
 11
153.1709175726871
 21
168.634215484086
 31
0.0
 12
153.631701314243
 22
172.134215484086
 32
0.0
 13
153.631701314243
 23
172.134215484086
 33
0.0
  0
MTEXT
  5
2BF
330
2B7
100
AcDbEntity
  8
1
 62
     4
100
AcDbMText
 10
151.631701314243
 20
159.387566402719
 30
0.0
 40
3.5
 41
0.0
 71
     7
 72
     1
  1
\C4;{\Fgdt;n}\C4;4.5
  7
CONVERTER_11
 11
0.0
 21
1.0
 31
0.0
 73
     1
 44
0.60024009603842
  0
ENDBLK
  5
2C1
330
2B7
100
AcDbEntity
  8
0
100
AcDbBlockEnd
  0
ENDSEC
  0
SECTION
  2
ENTITIES
  0
INSERT
  5
88
330
1F
100
AcDbEntity
  8
0
100
AcDbBlockReference
  2
Einfügen1
 10
277.0
 20
66.0
 30
0.0
  0
INSERT
  5
89
330
1F
100
AcDbEntity
  8
1
100
AcDbBlockReference
  2
Schaltplan
 10
32.32919842187501
 20
48.89457355719998
 30
0.0
  0
INSERT
  5
8A
330
1F
100
AcDbEntity
  8
1
100
AcDbBlockReference
  2
Untersicht
 10
73.52187631424295
 20
191.509508
 30
0.0
  0
INSERT
  5
8B
330
1F
100
AcDbEntity
  8
1
100
AcDbBlockReference
  2
Vorderansicht
 10
68.631701314243
 20
95.334215484086
 30
0.0
  0
INSERT
  5
8C
330
1F
100
AcDbEntity
  8
0
100
AcDbBlockReference
  2
Rahmen
 10
0.0
 20
0.0
 30
0.0
  0
ENDSEC
  0
SECTION
  2
OBJECTS
  0
DICTIONARY
  5
C
330
0
100
AcDbDictionary
281
     1
  3
ACAD_GROUP
350
D
  3
ACAD_LAYOUT
350
1A
  3
ACAD_MATERIAL
350
3B
  3
ACAD_MLEADERSTYLE
350
3C9
  3
ACAD_MLINESTYLE
350
17
  3
ACAD_PLOTSETTINGS
350
19
  3
ACAD_PLOTSTYLENAME
350
E
  3
ACAD_SCALELIST
350
4F
  3
ACAD_VISUALSTYLE
350
2A
  3
AcDbVariableDictionary
350
3C7
  0
DICTIONARY
  5
D
102
{ACAD_REACTORS
330
C
102
}
330
C
100
AcDbDictionary
281
     1
  0
DICTIONARY
  5
1A
102
{ACAD_REACTORS
330
C
102
}
330
C
100
AcDbDictionary
281
     1
  3
Layout1
350
1E
  3
Layout2
350
26
  3
Model
350
22
  0
DICTIONARY
  5
3B
102
{ACAD_REACTORS
330
C
102
}
330
C
100
AcDbDictionary
281
     1
  3
ByBlock
350
3D
  3
ByLayer
350
3C
  3
Global
350
3E
  0
DICTIONARY
  5
3C9
102
{ACAD_REACTORS
330
C
102
}
330
C
100
AcDbDictionary
281
     1
  0
DICTIONARY
  5
17
102
{ACAD_REACTORS
330
C
102
}
330
C
100
AcDbDictionary
281
     1
  3
Standard
350
18
  0
DICTIONARY
  5
19
102
{ACAD_REACTORS
330
C
102
}
330
C
100
AcDbDictionary
281
     1
  0
ACDBDICTIONARYWDFLT
  5
E
102
{ACAD_REACTORS
330
C
102
}
330
C
100
AcDbDictionary
281
     1
  3
Normal
350
F
100
AcDbDictionaryWithDefault
340
F
  0
DICTIONARY
  5
4F
102
{ACAD_REACTORS
330
C
102
}
330
C
100
AcDbDictionary
281
     1
  3
A0
350
50
  3
A1
350
51
  3
A2
350
52
  3
A3
350
53
  3
A4
350
54
  3
A5
350
55
  3
A6
350
56
  3
A7
350
57
  3
A8
350
58
  3
A9
350
59
  3
B0
350
5A
  3
B1
350
5B
  3
B2
350
5C
  3
B3
350
5D
  3
B4
350
5E
  3
B5
350
5F
  3
B6
350
60
  3
B7
350
61
  3
B8
350
62
  3
B9
350
63
  3
C0
350
64
  3
C1
350
65
  3
C2
350
66
  3
C3
350
67
  3
C4
350
68
  3
C5
350
69
  3
C6
350
6A
  3
C7
350
6B
  3
C8
350
6C
  3
C9
350
6D
  3
D0
350
6E
  3
D1
350
6F
  3
D2
350
70
  0
DICTIONARY
  5
2A
102
{ACAD_REACTORS
330
C
102
}
330
C
100
AcDbDictionary
281
     1
  3
2dWireframe
350
2F
  3
3D Hidden
350
31
  3
3dWireframe
350
30
  3
Basic
350
32
  3
Brighten
350
36
  3
ColorChange
350
3A
  3
Conceptual
350
34
  3
Dim
350
35
  3
Facepattern
350
39
  3
Flat
350
2B
  3
FlatWithEdges
350
2C
  3
Gouraud
350
2D
  3
GouraudWithEdges
350
2E
  3
Linepattern
350
38
  3
Realistic
350
33
  3
Thicken
350
37
  0
DICTIONARY
  5
3C7
102
{ACAD_REACTORS
330
C
102
}
330
C
100
AcDbDictionary
281
     1
  3
CANNOSCALE
350
3CA
  3
DIMASSOC
350
3CB
  3
HIDETEXT
350
3CC
  0
LAYOUT
  5
1E
102
{ACAD_REACTORS
330
1A
102
}
330
1A
100
AcDbPlotSettings
  1

  2
none_device
  4

  6

 40
0.0
 41
0.0
 42
0.0
 43
0.0
 44
0.0
 45
0.0
 46
0.0
 47
0.0
 48
0.0
 49
0.0
140
0.0
141
0.0
142
1.0
143
1.0
 70
   688
 72
     0
 73
     0
 74
     5
  7

 75
    16
147
1.0
148
0.0
149
0.0
100
AcDbLayout
  1
Layout1
 70
     1
 71
     1
 10
0.0
 20
0.0
 11
12.0
 21
9.0
 12
0.0
 22
0.0
 32
0.0
 14
1.00000000000000E+20
 24
1.00000000000000E+20
 34
1.00000000000000E+20
 15
-1.00000000000000E+20
 25
-1.00000000000000E+20
 35
-1.00000000000000E+20
146
0.0
 13
0.0
 23
0.0
 33
0.0
 16
1.0
 26
0.0
 36
0.0
 17
0.0
 27
1.0
 37
0.0
 76
     0
330
1B
  0
LAYOUT
  5
26
102
{ACAD_REACTORS
330
1A
102
}
330
1A
100
AcDbPlotSettings
  1

  2
none_device
  4

  6

 40
0.0
 41
0.0
 42
0.0
 43
0.0
 44
0.0
 45
0.0
 46
0.0
 47
0.0
 48
0.0
 49
0.0
140
0.0
141
0.0
142
1.0
143
1.0
 70
   688
 72
     0
 73
     0
 74
     5
  7

 75
    16
147
1.0
148
0.0
149
0.0
100
AcDbLayout
  1
Layout2
 70
     1
 71
     2
 10
0.0
 20
0.0
 11
0.0
 21
0.0
 12
0.0
 22
0.0
 32
0.0
 14
0.0
 24
0.0
 34
0.0
 15
0.0
 25
0.0
 35
0.0
146
0.0
 13
0.0
 23
0.0
 33
0.0
 16
1.0
 26
0.0
 36
0.0
 17
0.0
 27
1.0
 37
0.0
 76
     0
330
23
  0
LAYOUT
  5
22
102
{ACAD_REACTORS
330
1A
102
}
330
1A
100
AcDbPlotSettings
  1

  2
none_device
  4

  6

 40
0.0
 41
0.0
 42
0.0
 43
0.0
 44
0.0
 45
0.0
 46
0.0
 47
0.0
 48
0.0
 49
0.0
140
0.0
141
0.0
142
1.0
143
1.0
 70
  1712
 72
     0
 73
     0
 74
     0
  7

 75
     0
147
1.0
148
0.0
149
0.0
100
AcDbLayout
  1
Model
 70
     1
 71
     0
 10
0.0
 20
0.0
 11
12.0
 21
9.0
 12
0.0
 22
0.0
 32
0.0
 14
0.0
 24
0.0
 34
0.0
 15
197.5066684218749
 25
287.0
 35
0.0
146
0.0
 13
0.0
 23
0.0
 33
0.0
 16
1.0
 26
0.0
 36
0.0
 17
0.0
 27
1.0
 37
0.0
 76
     0
330
1F
331
29
  0
MATERIAL
  5
3D
102
{ACAD_REACTORS
330
3B
102
}
102
{ACAD_XDICTIONARY
360
3EF
102
}
330
3B
100
AcDbMaterial
  1
ByBlock
  0
MATERIAL
  5
3C
102
{ACAD_REACTORS
330
3B
102
}
102
{ACAD_XDICTIONARY
360
3ED
102
}
330
3B
100
AcDbMaterial
  1
ByLayer
  0
MATERIAL
  5
3E
102
{ACAD_REACTORS
330
3B
102
}
102
{ACAD_XDICTIONARY
360
3F1
102
}
330
3B
100
AcDbMaterial
  1
Global
  0
MLINESTYLE
  5
18
102
{ACAD_REACTORS
330
17
102
}
330
17
100
AcDbMlineStyle
  2
Standard
 70
     0
  3

 62
   256
 51
90.0
 52
90.0
 71
     2
 49
0.5
 62
   256
  6
BYLAYER
 49
-0.5
 62
   256
  6
BYLAYER
  0
ACDBPLACEHOLDER
  5
F
102
{ACAD_REACTORS
330
E
102
}
330
E
  0
SCALE
  5
50
102
{ACAD_REACTORS
330
4F
102
}
330
4F
100
AcDbScale
 70
     0
300
1:1
140
1.0
141
1.0
290
     1
  0
SCALE
  5
51
102
{ACAD_REACTORS
330
4F
102
}
330
4F
100
AcDbScale
 70
     0
300
1:2
140
1.0
141
2.0
290
     0
  0
SCALE
  5
52
102
{ACAD_REACTORS
330
4F
102
}
330
4F
100
AcDbScale
 70
     0
300
1:4
140
1.0
141
4.0
290
     0
  0
SCALE
  5
53
102
{ACAD_REACTORS
330
4F
102
}
330
4F
100
AcDbScale
 70
     0
300
1:5
140
1.0
141
5.0
290
     0
  0
SCALE
  5
54
102
{ACAD_REACTORS
330
4F
102
}
330
4F
100
AcDbScale
 70
     0
300
1:8
140
1.0
141
8.0
290
     0
  0
SCALE
  5
55
102
{ACAD_REACTORS
330
4F
102
}
330
4F
100
AcDbScale
 70
     0
300
1:10
140
1.0
141
10.0
290
     0
  0
SCALE
  5
56
102
{ACAD_REACTORS
330
4F
102
}
330
4F
100
AcDbScale
 70
     0
300
1:16
140
1.0
141
16.0
290
     0
  0
SCALE
  5
57
102
{ACAD_REACTORS
330
4F
102
}
330
4F
100
AcDbScale
 70
     0
300
1:20
140
1.0
141
20.0
290
     0
  0
SCALE
  5
58
102
{ACAD_REACTORS
330
4F
102
}
330
4F
100
AcDbScale
 70
     0
300
1:30
140
1.0
141
30.0
290
     0
  0
SCALE
  5
59
102
{ACAD_REACTORS
330
4F
102
}
330
4F
100
AcDbScale
 70
     0
300
1:40
140
1.0
141
40.0
290
     0
  0
SCALE
  5
5A
102
{ACAD_REACTORS
330
4F
102
}
330
4F
100
AcDbScale
 70
     0
300
1:50
140
1.0
141
50.0
290
     0
  0
SCALE
  5
5B
102
{ACAD_REACTORS
330
4F
102
}
330
4F
100
AcDbScale
 70
     0
300
1:100
140
1.0
141
100.0
290
     0
  0
SCALE
  5
5C
102
{ACAD_REACTORS
330
4F
102
}
330
4F
100
AcDbScale
 70
     0
300
2:1
140
2.0
141
1.0
290
     0
  0
SCALE
  5
5D
102
{ACAD_REACTORS
330
4F
102
}
330
4F
100
AcDbScale
 70
     0
300
4:1
140
4.0
141
1.0
290
     0
  0
SCALE
  5
5E
102
{ACAD_REACTORS
330
4F
102
}
330
4F
100
AcDbScale
 70
     0
300
8:1
140
8.0
141
1.0
290
     0
  0
SCALE
  5
5F
102
{ACAD_REACTORS
330
4F
102
}
330
4F
100
AcDbScale
 70
     0
300
10:1
140
10.0
141
1.0
290
     0
  0
SCALE
  5
60
102
{ACAD_REACTORS
330
4F
102
}
330
4F
100
AcDbScale
 70
     0
300
100:1
140
100.0
141
1.0
290
     0
  0
SCALE
  5
61
102
{ACAD_REACTORS
330
4F
102
}
330
4F
100
AcDbScale
 70
     0
300
1/128" = 1'-0"
140
0.0078125
141
12.0
290
     0
  0
SCALE
  5
62
102
{ACAD_REACTORS
330
4F
102
}
330
4F
100
AcDbScale
 70
     0
300
1/64" = 1'-0"
140
0.015625
141
12.0
290
     0
  0
SCALE
  5
63
102
{ACAD_REACTORS
330
4F
102
}
330
4F
100
AcDbScale
 70
     0
300
1/32" = 1'-0"
140
0.03125
141
12.0
290
     0
  0
SCALE
  5
64
102
{ACAD_REACTORS
330
4F
102
}
330
4F
100
AcDbScale
 70
     0
300
1/16" = 1'-0"
140
0.0625
141
12.0
290
     0
  0
SCALE
  5
65
102
{ACAD_REACTORS
330
4F
102
}
330
4F
100
AcDbScale
 70
     0
300
3/32" = 1'-0"
140
0.09375
141
12.0
290
     0
  0
SCALE
  5
66
102
{ACAD_REACTORS
330
4F
102
}
330
4F
100
AcDbScale
 70
     0
300
1/8" = 1'-0"
140
0.125
141
12.0
290
     0
  0
SCALE
  5
67
102
{ACAD_REACTORS
330
4F
102
}
330
4F
100
AcDbScale
 70
     0
300
3/16" = 1'-0"
140
0.1875
141
12.0
290
     0
  0
SCALE
  5
68
102
{ACAD_REACTORS
330
4F
102
}
330
4F
100
AcDbScale
 70
     0
300
1/4" = 1'-0"
140
0.25
141
12.0
290
     0
  0
SCALE
  5
69
102
{ACAD_REACTORS
330
4F
102
}
330
4F
100
AcDbScale
 70
     0
300
3/8" = 1'-0"
140
0.375
141
12.0
290
     0
  0
SCALE
  5
6A
102
{ACAD_REACTORS
330
4F
102
}
330
4F
100
AcDbScale
 70
     0
300
1/2" = 1'-0"
140
0.5
141
12.0
290
     0
  0
SCALE
  5
6B
102
{ACAD_REACTORS
330
4F
102
}
330
4F
100
AcDbScale
 70
     0
300
3/4" = 1'-0"
140
0.75
141
12.0
290
     0
  0
SCALE
  5
6C
102
{ACAD_REACTORS
330
4F
102
}
330
4F
100
AcDbScale
 70
     0
300
1" = 1'-0"
140
1.0
141
12.0
290
     0
  0
SCALE
  5
6D
102
{ACAD_REACTORS
330
4F
102
}
330
4F
100
AcDbScale
 70
     0
300
1-1/2" = 1'-0"
140
1.5
141
12.0
290
     0
  0
SCALE
  5
6E
102
{ACAD_REACTORS
330
4F
102
}
330
4F
100
AcDbScale
 70
     0
300
3" = 1'-0"
140
3.0
141
12.0
290
     0
  0
SCALE
  5
6F
102
{ACAD_REACTORS
330
4F
102
}
330
4F
100
AcDbScale
 70
     0
300
6" = 1'-0"
140
6.0
141
12.0
290
     0
  0
SCALE
  5
70
102
{ACAD_REACTORS
330
4F
102
}
330
4F
100
AcDbScale
 70
     0
300
1'-0" = 1'-0"
140
12.0
141
12.0
290
     0
  0
VISUALSTYLE
  5
2F
102
{ACAD_REACTORS
330
2A
102
}
102
{ACAD_XDICTIONARY
360
3D5
102
}
330
2A
100
AcDbVisualStyle
  2
2dWireframe
 70
     4
 71
     0
 72
     2
 73
     0
 90
        0
 40
-0.6
 41
-30.0
 62
     5
 63
     7
 74
     1
 91
        4
 64
     7
 65
   257
 75
     1
175
     1
 42
1.0
 92
        0
 66
   257
 43
1.0
 76
     1
 77
     6
 78
     2
 67
     7
 79
     5
170
     0
171
     0
290
     0
174
     0
 93
        1
 44
0.0
173
     0
291
     0
 45
0.0
1001
ACAD
1000
AcDbSavedByObjectVersion
1070
     0
  0
VISUALSTYLE
  5
31
102
{ACAD_REACTORS
330
2A
102
}
102
{ACAD_XDICTIONARY
360
3D9
102
}
330
2A
100
AcDbVisualStyle
  2
3D Hidden
 70
     6
 71
     1
 72
     2
 73
     2
 90
        0
 40
-0.6
 41
-30.0
 62
     5
 63
     7
 74
     2
 91
        2
 64
     7
 65
   257
 75
     2
175
     1
 42
40.0
 92
        0
 66
   257
 43
1.0
 76
     1
 77
     6
 78
     2
 67
     7
 79
     3
170
     0
171
     0
290
     0
174
     0
 93
        1
 44
0.0
173
     0
291
     0
 45
0.0
1001
ACAD
1000
AcDbSavedByObjectVersion
1070
     0
  0
VISUALSTYLE
  5
30
102
{ACAD_REACTORS
330
2A
102
}
102
{ACAD_XDICTIONARY
360
3D7
102
}
330
2A
100
AcDbVisualStyle
  2
3dWireframe
 70
     5
 71
     0
 72
     2
 73
     0
 90
        0
 40
-0.6
 41
-30.0
 62
     5
 63
     7
 74
     1
 91
        4
 64
     7
 65
   257
 75
     1
175
     1
 42
1.0
 92
        0
 66
   257
 43
1.0
 76
     1
 77
     6
 78
     2
 67
     7
 79
     5
170
     0
171
     0
290
     0
174
     0
 93
        1
 44
0.0
173
     0
291
     0
 45
0.0
1001
ACAD
1000
AcDbSavedByObjectVersion
1070
     0
  0
VISUALSTYLE
  5
32
102
{ACAD_REACTORS
330
2A
102
}
102
{ACAD_XDICTIONARY
360
3DB
102
}
330
2A
100
AcDbVisualStyle
  2
Basic
 70
     7
 71
     1
 72
     0
 73
     1
 90
        0
 40
-0.6
 41
-30.0
 62
     5
 63
     7
 74
     0
 91
        4
 64
     7
 65
   257
 75
     1
175
     1
 42
1.0
 92
        8
 66
     7
 43
1.0
 76
     1
 77
     6
 78
     2
 67
     7
 79
     5
170
     0
171
     0
290
     0
174
     0
 93
        1
 44
0.0
173
     0
291
     1
 45
0.0
1001
ACAD
1000
AcDbSavedByObjectVersion
1070
     0
  0
VISUALSTYLE
  5
36
102
{ACAD_REACTORS
330
2A
102
}
102
{ACAD_XDICTIONARY
360
3E3
102
}
330
2A
100
AcDbVisualStyle
  2
Brighten
 70
    12
 71
     2
 72
     2
 73
     0
 90
        0
 40
-0.6
 41
-30.0
 62
     5
 63
     7
 74
     1
 91
        4
 64
     7
 65
   257
 75
     1
175
     1
 42
1.0
 92
        8
 66
     7
 43
1.0
 76
     1
 77
     6
 78
     2
 67
     7
 79
     5
170
     0
171
     0
290
     0
174
     0
 93
        1
 44
50.0
173
     0
291
     1
 45
0.0
1001
ACAD
1000
AcDbSavedByObjectVersion
1070
     0
  0
VISUALSTYLE
  5
3A
102
{ACAD_REACTORS
330
2A
102
}
102
{ACAD_XDICTIONARY
360
3EB
102
}
330
2A
100
AcDbVisualStyle
  2
ColorChange
 70
    16
 71
     2
 72
     2
 73
     3
 90
        0
 40
-0.6
 41
-30.0
 62
     5
 63
     8
 74
     1
 91
        4
 64
     7
 65
   257
 75
     1
175
     1
 42
1.0
 92
        8
 66
     8
 43
1.0
 76
     1
 77
     6
 78
     2
 67
     7
 79
     5
170
     0
171
     0
290
     0
174
     0
 93
        1
 44
0.0
173
     0
291
     1
 45
0.0
1001
ACAD
1000
AcDbSavedByObjectVersion
1070
     0
  0
VISUALSTYLE
  5
34
102
{ACAD_REACTORS
330
2A
102
}
102
{ACAD_XDICTIONARY
360
3DF
102
}
330
2A
100
AcDbVisualStyle
  2
Conceptual
 70
     9
 71
     3
 72
     2
 73
     0
 90
        0
 40
-0.6
 41
-30.0
 62
     5
 63
     7
 74
     2
 91
        2
 64
     7
 65
   257
 75
     1
175
     1
 42
40.0
 92
        8
 66
     7
 43
1.0
 76
     1
 77
     6
 78
     2
 67
     7
 79
     3
170
     0
171
     0
290
     0
174
     0
 93
        1
 44
0.0
173
     0
291
     0
 45
0.0
1001
ACAD
1000
AcDbSavedByObjectVersion
1070
     0
  0
VISUALSTYLE
  5
35
102
{ACAD_REACTORS
330
2A
102
}
102
{ACAD_XDICTIONARY
360
3E1
102
}
330
2A
100
AcDbVisualStyle
  2
Dim
 70
    11
 71
     2
 72
     2
 73
     0
 90
        0
 40
-0.6
 41
-30.0
 62
     5
 63
     7
 74
     1
 91
        4
 64
     7
 65
   257
 75
     1
175
     1
 42
1.0
 92
        8
 66
     7
 43
1.0
 76
     1
 77
     6
 78
     2
 67
     7
 79
     5
170
     0
171
     0
290
     0
174
     0
 93
        1
 44
-50.0
173
     0
291
     1
 45
0.0
1001
ACAD
1000
AcDbSavedByObjectVersion
1070
     0
  0
VISUALSTYLE
  5
39
102
{ACAD_REACTORS
330
2A
102
}
102
{ACAD_XDICTIONARY
360
3E9
102
}
330
2A
100
AcDbVisualStyle
  2
Facepattern
 70
    15
 71
     2
 72
     2
 73
     0
 90
        0
 40
-0.6
 41
-30.0
 62
     5
 63
     7
 74
     1
 91
        4
 64
     7
 65
   257
 75
     1
175
     1
 42
1.0
 92
        8
 66
     7
 43
1.0
 76
     1
 77
     6
 78
     2
 67
     7
 79
     5
170
     0
171
     0
290
     0
174
     0
 93
        1
 44
0.0
173
     0
291
     1
 45
0.0
1001
ACAD
1000
AcDbSavedByObjectVersion
1070
     0
  0
VISUALSTYLE
  5
2B
102
{ACAD_REACTORS
330
2A
102
}
102
{ACAD_XDICTIONARY
360
3CD
102
}
330
2A
100
AcDbVisualStyle
  2
Flat
 70
     0
 71
     2
 72
     1
 73
     1
 90
        2
 40
-0.6
 41
30.0
 62
     5
 63
     7
 74
     0
 91
        4
 64
     7
 65
   257
 75
     1
175
     1
 42
1.0
 92
        8
 66
     7
 43
1.0
 76
     1
 77
     6
 78
     2
 67
     7
 79
     5
170
     0
171
     0
290
     0
174
     0
 93
       13
 44
0.0
173
     0
291
     1
 45
0.0
1001
ACAD
1000
AcDbSavedByObjectVersion
1070
     0
  0
VISUALSTYLE
  5
2C
102
{ACAD_REACTORS
330
2A
102
}
102
{ACAD_XDICTIONARY
360
3CF
102
}
330
2A
100
AcDbVisualStyle
  2
FlatWithEdges
 70
     1
 71
     2
 72
     1
 73
     1
 90
        2
 40
-0.6
 41
30.0
 62
     5
 63
     7
 74
     1
 91
        4
 64
     7
 65
   257
 75
     1
175
     1
 42
1.0
 92
        0
 66
   257
 43
1.0
 76
     1
 77
     6
 78
     2
 67
     7
 79
     5
170
     0
171
     0
290
     0
174
     0
 93
       13
 44
0.0
173
     0
291
     1
 45
0.0
1001
ACAD
1000
AcDbSavedByObjectVersion
1070
     0
  0
VISUALSTYLE
  5
2D
102
{ACAD_REACTORS
330
2A
102
}
102
{ACAD_XDICTIONARY
360
3D1
102
}
330
2A
100
AcDbVisualStyle
  2
Gouraud
 70
     2
 71
     2
 72
     2
 73
     1
 90
        2
 40
-0.6
 41
30.0
 62
     5
 63
     7
 74
     0
 91
        4
 64
     7
 65
   257
 75
     1
175
     1
 42
1.0
 92
        0
 66
     7
 43
1.0
 76
     1
 77
     6
 78
     2
 67
     7
 79
     5
170
     0
171
     0
290
     0
174
     0
 93
       13
 44
0.0
173
     0
291
     1
 45
0.0
1001
ACAD
1000
AcDbSavedByObjectVersion
1070
     0
  0
VISUALSTYLE
  5
2E
102
{ACAD_REACTORS
330
2A
102
}
102
{ACAD_XDICTIONARY
360
3D3
102
}
330
2A
100
AcDbVisualStyle
  2
GouraudWithEdges
 70
     3
 71
     2
 72
     2
 73
     1
 90
        2
 40
-0.6
 41
30.0
 62
     5
 63
     7
 74
     1
 91
        4
 64
     7
 65
   257
 75
     1
175
     1
 42
1.0
 92
        0
 66
   257
 43
1.0
 76
     1
 77
     6
 78
     2
 67
     7
 79
     5
170
     0
171
     0
290
     0
174
     0
 93
       13
 44
0.0
173
     0
291
     1
 45
0.0
1001
ACAD
1000
AcDbSavedByObjectVersion
1070
     0
  0
VISUALSTYLE
  5
38
102
{ACAD_REACTORS
330
2A
102
}
102
{ACAD_XDICTIONARY
360
3E7
102
}
330
2A
100
AcDbVisualStyle
  2
Linepattern
 70
    14
 71
     2
 72
     2
 73
     0
 90
        0
 40
-0.6
 41
-30.0
 62
     5
 63
     7
 74
     1
 91
        4
 64
     7
 65
   257
 75
     7
175
     7
 42
1.0
 92
        8
 66
     7
 43
1.0
 76
     1
 77
     6
 78
     2
 67
     7
 79
     5
170
     0
171
     0
290
     0
174
     0
 93
        1
 44
0.0
173
     0
291
     1
 45
0.0
1001
ACAD
1000
AcDbSavedByObjectVersion
1070
     0
  0
VISUALSTYLE
  5
33
102
{ACAD_REACTORS
330
2A
102
}
102
{ACAD_XDICTIONARY
360
3DD
102
}
330
2A
100
AcDbVisualStyle
  2
Realistic
 70
     8
 71
     2
 72
     2
 73
     0
 90
        0
 40
-0.6
 41
-30.0
 62
     5
 63
     7
 74
     1
 91
        0
 64
     7
 65
   257
 75
     1
175
     1
 42
1.0
 92
        8
 66
     8
 43
1.0
 76
     1
 77
     6
 78
     2
 67
     7
 79
     5
170
     0
171
     0
290
     0
174
     0
 93
       13
 44
0.0
173
     0
291
     0
 45
0.0
1001
ACAD
1000
AcDbSavedByObjectVersion
1070
     0
  0
VISUALSTYLE
  5
37
102
{ACAD_REACTORS
330
2A
102
}
102
{ACAD_XDICTIONARY
360
3E5
102
}
330
2A
100
AcDbVisualStyle
  2
Thicken
 70
    13
 71
     2
 72
     2
 73
     0
 90
        0
 40
-0.6
 41
-30.0
 62
     5
 63
     7
 74
     1
 91
        4
 64
     7
 65
   257
 75
     1
175
     1
 42
1.0
 92
       12
 66
     7
 43
1.0
 76
     1
 77
     6
 78
     2
 67
     7
 79
     5
170
     0
171
     0
290
     0
174
     0
 93
        1
 44
0.0
173
     0
291
     1
 45
0.0
1001
ACAD
1000
AcDbSavedByObjectVersion
1070
     0
  0
DICTIONARYVAR
  5
3CA
102
{ACAD_REACTORS
330
3C7
102
}
330
3C7
100
DictionaryVariables
280
     0
  1
1:1
  0
DICTIONARYVAR
  5
3CB
102
{ACAD_REACTORS
330
3C7
102
}
330
3C7
100
DictionaryVariables
280
     0
  1
2
  0
DICTIONARYVAR
  5
3CC
102
{ACAD_REACTORS
330
3C7
102
}
330
3C7
100
DictionaryVariables
280
     0
  1
1
  0
DICTIONARY
  5
3EF
330
3D
100
AcDbDictionary
280
     1
281
     1
  3
ACAD_XREC_ROUNDTRIP
360
3F0
  0
DICTIONARY
  5
3ED
330
3C
100
AcDbDictionary
280
     1
281
     1
  3
ACAD_XREC_ROUNDTRIP
360
3EE
  0
DICTIONARY
  5
3F1
330
3E
100
AcDbDictionary
280
     1
281
     1
  3
ACAD_XREC_ROUNDTRIP
360
3F2
  0
DICTIONARY
  5
3D5
330
2F
100
AcDbDictionary
280
     1
281
     1
  3
ACAD_XREC_ROUNDTRIP
360
3D6
  0
DICTIONARY
  5
3D9
330
31
100
AcDbDictionary
280
     1
281
     1
  3
ACAD_XREC_ROUNDTRIP
360
3DA
  0
DICTIONARY
  5
3D7
330
30
100
AcDbDictionary
280
     1
281
     1
  3
ACAD_XREC_ROUNDTRIP
360
3D8
  0
DICTIONARY
  5
3DB
330
32
100
AcDbDictionary
280
     1
281
     1
  3
ACAD_XREC_ROUNDTRIP
360
3DC
  0
DICTIONARY
  5
3E3
330
36
100
AcDbDictionary
280
     1
281
     1
  3
ACAD_XREC_ROUNDTRIP
360
3E4
  0
DICTIONARY
  5
3EB
330
3A
100
AcDbDictionary
280
     1
281
     1
  3
ACAD_XREC_ROUNDTRIP
360
3EC
  0
DICTIONARY
  5
3DF
330
34
100
AcDbDictionary
280
     1
281
     1
  3
ACAD_XREC_ROUNDTRIP
360
3E0
  0
DICTIONARY
  5
3E1
330
35
100
AcDbDictionary
280
     1
281
     1
  3
ACAD_XREC_ROUNDTRIP
360
3E2
  0
DICTIONARY
  5
3E9
330
39
100
AcDbDictionary
280
     1
281
     1
  3
ACAD_XREC_ROUNDTRIP
360
3EA
  0
DICTIONARY
  5
3CD
330
2B
100
AcDbDictionary
280
     1
281
     1
  3
ACAD_XREC_ROUNDTRIP
360
3CE
  0
DICTIONARY
  5
3CF
330
2C
100
AcDbDictionary
280
     1
281
     1
  3
ACAD_XREC_ROUNDTRIP
360
3D0
  0
DICTIONARY
  5
3D1
330
2D
100
AcDbDictionary
280
     1
281
     1
  3
ACAD_XREC_ROUNDTRIP
360
3D2
  0
DICTIONARY
  5
3D3
330
2E
100
AcDbDictionary
280
     1
281
     1
  3
ACAD_XREC_ROUNDTRIP
360
3D4
  0
DICTIONARY
  5
3E7
330
38
100
AcDbDictionary
280
     1
281
     1
  3
ACAD_XREC_ROUNDTRIP
360
3E8
  0
DICTIONARY
  5
3DD
330
33
100
AcDbDictionary
280
     1
281
     1
  3
ACAD_XREC_ROUNDTRIP
360
3DE
  0
DICTIONARY
  5
3E5
330
37
100
AcDbDictionary
280
     1
281
     1
  3
ACAD_XREC_ROUNDTRIP
360
3E6
  0
XRECORD
  5
3F0
102
{ACAD_REACTORS
330
3EF
102
}
330
3EF
100
AcDbXrecord
280
     1
102
MATERIAL
148
0.0
149
0.0
149
0.0
 93
        0
 94
      127
282
     0
 72
     1
 77
     1
171
     1
175
     1
179
     1
273
     0
  0
XRECORD
  5
3EE
102
{ACAD_REACTORS
330
3ED
102
}
330
3ED
100
AcDbXrecord
280
     1
102
MATERIAL
148
0.0
149
0.0
149
0.0
 93
        0
 94
      127
282
     0
 72
     1
 77
     1
171
     1
175
     1
179
     1
273
     0
  0
XRECORD
  5
3F2
102
{ACAD_REACTORS
330
3F1
102
}
330
3F1
100
AcDbXrecord
280
     1
102
MATERIAL
148
0.0
149
0.0
149
0.0
 93
        0
 94
      127
282
     0
 72
     1
 77
     1
171
     1
175
     1
179
     1
273
     0
  0
XRECORD
  5
3D6
102
{ACAD_REACTORS
330
3D5
102
}
330
3D5
100
AcDbXrecord
280
     1
102
RTVSPropertyOp0
 70
     1
102
RTVSPropertyOp1
 70
     1
102
RTVSPropertyOp2
 70
     1
102
RTVSPropertyOp3
 70
     1
102
RTVSPropertyOp4
 70
     1
102
RTVSPropertyOp5
 70
     1
102
RTVSPropertyOp6
 70
     1
102
RTVSPropertyOp7
 70
     1
102
RTVSPropertyOp8
 70
     1
102
RTVSPropertyOp9
 70
     1
102
RTVSPropertyOp10
 70
     1
102
RTVSPropertyOp11
 70
     1
102
RTVSPropertyOp12
 70
     1
102
RTVSPropertyOp13
 70
     1
102
RTVSPropertyOp14
 70
     1
102
RTVSPropertyOp15
 70
     1
102
RTVSPropertyOp16
 70
     1
102
RTVSPropertyOp17
 70
     1
102
RTVSPropertyOp18
 70
     1
102
RTVSPropertyOp19
 70
     1
102
RTVSPropertyOp20
 70
     1
102
RTVSPropertyOp21
 70
     1
102
RTVSPropertyOp22
 70
     1
102
RTVSPropertyOp23
 70
     1
102
RTVSPropertyOp24
 70
     1
102
RTVSPropertyOp25
 70
     1
102
RTVSPropertyOp26
 70
     1
102
RTVSPropertyOp27
 70
     1
  0
XRECORD
  5
3DA
102
{ACAD_REACTORS
330
3D9
102
}
330
3D9
100
AcDbXrecord
280
     1
102
RTVSPropertyOp0
 70
     1
102
RTVSPropertyOp1
 70
     1
102
RTVSPropertyOp2
 70
     1
102
RTVSPropertyOp3
 70
     1
102
RTVSPropertyOp4
 70
     1
102
RTVSPropertyOp5
 70
     1
102
RTVSPropertyOp6
 70
     1
102
RTVSPropertyOp7
 70
     1
102
RTVSPropertyOp8
 70
     1
102
RTVSPropertyOp9
 70
     1
102
RTVSPropertyOp10
 70
     1
102
RTVSPropertyOp11
 70
     1
102
RTVSPropertyOp12
 70
     1
102
RTVSPropertyOp13
 70
     1
102
RTVSPropertyOp14
 70
     1
102
RTVSPropertyOp15
 70
     1
102
RTVSPropertyOp16
 70
     1
102
RTVSPropertyOp17
 70
     1
102
RTVSPropertyOp18
 70
     1
102
RTVSPropertyOp19
 70
     1
102
RTVSPropertyOp20
 70
     1
102
RTVSPropertyOp21
 70
     1
102
RTVSPropertyOp22
 70
     1
102
RTVSPropertyOp23
 70
     1
102
RTVSPropertyOp24
 70
     1
102
RTVSPropertyOp25
 70
     1
102
RTVSPropertyOp26
 70
     1
102
RTVSPropertyOp27
 70
     1
  0
XRECORD
  5
3D8
102
{ACAD_REACTORS
330
3D7
102
}
330
3D7
100
AcDbXrecord
280
     1
102
RTVSPropertyOp0
 70
     1
102
RTVSPropertyOp1
 70
     1
102
RTVSPropertyOp2
 70
     1
102
RTVSPropertyOp3
 70
     1
102
RTVSPropertyOp4
 70
     1
102
RTVSPropertyOp5
 70
     1
102
RTVSPropertyOp6
 70
     1
102
RTVSPropertyOp7
 70
     1
102
RTVSPropertyOp8
 70
     1
102
RTVSPropertyOp9
 70
     1
102
RTVSPropertyOp10
 70
     1
102
RTVSPropertyOp11
 70
     1
102
RTVSPropertyOp12
 70
     1
102
RTVSPropertyOp13
 70
     1
102
RTVSPropertyOp14
 70
     1
102
RTVSPropertyOp15
 70
     1
102
RTVSPropertyOp16
 70
     1
102
RTVSPropertyOp17
 70
     1
102
RTVSPropertyOp18
 70
     1
102
RTVSPropertyOp19
 70
     1
102
RTVSPropertyOp20
 70
     1
102
RTVSPropertyOp21
 70
     1
102
RTVSPropertyOp22
 70
     1
102
RTVSPropertyOp23
 70
     1
102
RTVSPropertyOp24
 70
     1
102
RTVSPropertyOp25
 70
     1
102
RTVSPropertyOp26
 70
     1
102
RTVSPropertyOp27
 70
     1
  0
XRECORD
  5
3DC
102
{ACAD_REACTORS
330
3DB
102
}
330
3DB
100
AcDbXrecord
280
     1
102
RTVSPropertyOp0
 70
     1
102
RTVSPropertyOp1
 70
     1
102
RTVSPropertyOp2
 70
     1
102
RTVSPropertyOp3
 70
     1
102
RTVSPropertyOp4
 70
     1
102
RTVSPropertyOp5
 70
     1
102
RTVSPropertyOp6
 70
     1
102
RTVSPropertyOp7
 70
     1
102
RTVSPropertyOp8
 70
     1
102
RTVSPropertyOp9
 70
     1
102
RTVSPropertyOp10
 70
     1
102
RTVSPropertyOp11
 70
     1
102
RTVSPropertyOp12
 70
     1
102
RTVSPropertyOp13
 70
     1
102
RTVSPropertyOp14
 70
     1
102
RTVSPropertyOp15
 70
     1
102
RTVSPropertyOp16
 70
     1
102
RTVSPropertyOp17
 70
     1
102
RTVSPropertyOp18
 70
     1
102
RTVSPropertyOp19
 70
     1
102
RTVSPropertyOp20
 70
     1
102
RTVSPropertyOp21
 70
     1
102
RTVSPropertyOp22
 70
     1
102
RTVSPropertyOp23
 70
     1
102
RTVSPropertyOp24
 70
     1
102
RTVSPropertyOp25
 70
     1
102
RTVSPropertyOp26
 70
     1
102
RTVSPropertyOp27
 70
     1
  0
XRECORD
  5
3E4
102
{ACAD_REACTORS
330
3E3
102
}
330
3E3
100
AcDbXrecord
280
     1
102
RTVSPropertyOp0
 70
     1
102
RTVSPropertyOp1
 70
     1
102
RTVSPropertyOp2
 70
     1
102
RTVSPropertyOp3
 70
     1
102
RTVSPropertyOp4
 70
     1
102
RTVSPropertyOp5
 70
     1
102
RTVSPropertyOp6
 70
     1
102
RTVSPropertyOp7
 70
     1
102
RTVSPropertyOp8
 70
     1
102
RTVSPropertyOp9
 70
     1
102
RTVSPropertyOp10
 70
     1
102
RTVSPropertyOp11
 70
     1
102
RTVSPropertyOp12
 70
     1
102
RTVSPropertyOp13
 70
     1
102
RTVSPropertyOp14
 70
     1
102
RTVSPropertyOp15
 70
     1
102
RTVSPropertyOp16
 70
     1
102
RTVSPropertyOp17
 70
     1
102
RTVSPropertyOp18
 70
     1
102
RTVSPropertyOp19
 70
     1
102
RTVSPropertyOp20
 70
     1
102
RTVSPropertyOp21
 70
     1
102
RTVSPropertyOp22
 70
     1
102
RTVSPropertyOp23
 70
     1
102
RTVSPropertyOp24
 70
     1
102
RTVSPropertyOp25
 70
     1
102
RTVSPropertyOp26
 70
     1
102
RTVSPropertyOp27
 70
     1
  0
XRECORD
  5
3EC
102
{ACAD_REACTORS
330
3EB
102
}
330
3EB
100
AcDbXrecord
280
     1
102
RTVSPropertyOp0
 70
     1
102
RTVSPropertyOp1
 70
     1
102
RTVSPropertyOp2
 70
     1
102
RTVSPropertyOp3
 70
     1
102
RTVSPropertyOp4
 70
     1
102
RTVSPropertyOp5
 70
     1
102
RTVSPropertyOp6
 70
     1
102
RTVSPropertyOp7
 70
     1
102
RTVSPropertyOp8
 70
     1
102
RTVSPropertyOp9
 70
     1
102
RTVSPropertyOp10
 70
     1
102
RTVSPropertyOp11
 70
     1
102
RTVSPropertyOp12
 70
     1
102
RTVSPropertyOp13
 70
     1
102
RTVSPropertyOp14
 70
     1
102
RTVSPropertyOp15
 70
     1
102
RTVSPropertyOp16
 70
     1
102
RTVSPropertyOp17
 70
     1
102
RTVSPropertyOp18
 70
     1
102
RTVSPropertyOp19
 70
     1
102
RTVSPropertyOp20
 70
     1
102
RTVSPropertyOp21
 70
     1
102
RTVSPropertyOp22
 70
     1
102
RTVSPropertyOp23
 70
     1
102
RTVSPropertyOp24
 70
     1
102
RTVSPropertyOp25
 70
     1
102
RTVSPropertyOp26
 70
     1
102
RTVSPropertyOp27
 70
     1
  0
XRECORD
  5
3E0
102
{ACAD_REACTORS
330
3DF
102
}
330
3DF
100
AcDbXrecord
280
     1
102
RTVSPropertyOp0
 70
     1
102
RTVSPropertyOp1
 70
     1
102
RTVSPropertyOp2
 70
     1
102
RTVSPropertyOp3
 70
     1
102
RTVSPropertyOp4
 70
     1
102
RTVSPropertyOp5
 70
     1
102
RTVSPropertyOp6
 70
     1
102
RTVSPropertyOp7
 70
     1
102
RTVSPropertyOp8
 70
     1
102
RTVSPropertyOp9
 70
     1
102
RTVSPropertyOp10
 70
     1
102
RTVSPropertyOp11
 70
     1
102
RTVSPropertyOp12
 70
     1
102
RTVSPropertyOp13
 70
     1
102
RTVSPropertyOp14
 70
     1
102
RTVSPropertyOp15
 70
     1
102
RTVSPropertyOp16
 70
     1
102
RTVSPropertyOp17
 70
     1
102
RTVSPropertyOp18
 70
     1
102
RTVSPropertyOp19
 70
     1
102
RTVSPropertyOp20
 70
     1
102
RTVSPropertyOp21
 70
     1
102
RTVSPropertyOp22
 70
     1
102
RTVSPropertyOp23
 70
     1
102
RTVSPropertyOp24
 70
     1
102
RTVSPropertyOp25
 70
     1
102
RTVSPropertyOp26
 70
     1
102
RTVSPropertyOp27
 70
     1
  0
XRECORD
  5
3E2
102
{ACAD_REACTORS
330
3E1
102
}
330
3E1
100
AcDbXrecord
280
     1
102
RTVSPropertyOp0
 70
     1
102
RTVSPropertyOp1
 70
     1
102
RTVSPropertyOp2
 70
     1
102
RTVSPropertyOp3
 70
     1
102
RTVSPropertyOp4
 70
     1
102
RTVSPropertyOp5
 70
     1
102
RTVSPropertyOp6
 70
     1
102
RTVSPropertyOp7
 70
     1
102
RTVSPropertyOp8
 70
     1
102
RTVSPropertyOp9
 70
     1
102
RTVSPropertyOp10
 70
     1
102
RTVSPropertyOp11
 70
     1
102
RTVSPropertyOp12
 70
     1
102
RTVSPropertyOp13
 70
     1
102
RTVSPropertyOp14
 70
     1
102
RTVSPropertyOp15
 70
     1
102
RTVSPropertyOp16
 70
     1
102
RTVSPropertyOp17
 70
     1
102
RTVSPropertyOp18
 70
     1
102
RTVSPropertyOp19
 70
     1
102
RTVSPropertyOp20
 70
     1
102
RTVSPropertyOp21
 70
     1
102
RTVSPropertyOp22
 70
     1
102
RTVSPropertyOp23
 70
     1
102
RTVSPropertyOp24
 70
     1
102
RTVSPropertyOp25
 70
     1
102
RTVSPropertyOp26
 70
     1
102
RTVSPropertyOp27
 70
     1
  0
XRECORD
  5
3EA
102
{ACAD_REACTORS
330
3E9
102
}
330
3E9
100
AcDbXrecord
280
     1
102
RTVSPropertyOp0
 70
     1
102
RTVSPropertyOp1
 70
     1
102
RTVSPropertyOp2
 70
     1
102
RTVSPropertyOp3
 70
     1
102
RTVSPropertyOp4
 70
     1
102
RTVSPropertyOp5
 70
     1
102
RTVSPropertyOp6
 70
     1
102
RTVSPropertyOp7
 70
     1
102
RTVSPropertyOp8
 70
     1
102
RTVSPropertyOp9
 70
     1
102
RTVSPropertyOp10
 70
     1
102
RTVSPropertyOp11
 70
     1
102
RTVSPropertyOp12
 70
     1
102
RTVSPropertyOp13
 70
     1
102
RTVSPropertyOp14
 70
     1
102
RTVSPropertyOp15
 70
     1
102
RTVSPropertyOp16
 70
     1
102
RTVSPropertyOp17
 70
     1
102
RTVSPropertyOp18
 70
     1
102
RTVSPropertyOp19
 70
     1
102
RTVSPropertyOp20
 70
     1
102
RTVSPropertyOp21
 70
     1
102
RTVSPropertyOp22
 70
     1
102
RTVSPropertyOp23
 70
     1
102
RTVSPropertyOp24
 70
     1
102
RTVSPropertyOp25
 70
     1
102
RTVSPropertyOp26
 70
     1
102
RTVSPropertyOp27
 70
     1
  0
XRECORD
  5
3CE
102
{ACAD_REACTORS
330
3CD
102
}
330
3CD
100
AcDbXrecord
280
     1
102
RTVSPropertyOp0
 70
     1
102
RTVSPropertyOp1
 70
     1
102
RTVSPropertyOp2
 70
     1
102
RTVSPropertyOp3
 70
     1
102
RTVSPropertyOp4
 70
     1
102
RTVSPropertyOp5
 70
     1
102
RTVSPropertyOp6
 70
     1
102
RTVSPropertyOp7
 70
     1
102
RTVSPropertyOp8
 70
     1
102
RTVSPropertyOp9
 70
     1
102
RTVSPropertyOp10
 70
     1
102
RTVSPropertyOp11
 70
     1
102
RTVSPropertyOp12
 70
     1
102
RTVSPropertyOp13
 70
     1
102
RTVSPropertyOp14
 70
     1
102
RTVSPropertyOp15
 70
     1
102
RTVSPropertyOp16
 70
     1
102
RTVSPropertyOp17
 70
     1
102
RTVSPropertyOp18
 70
     1
102
RTVSPropertyOp19
 70
     1
102
RTVSPropertyOp20
 70
     1
102
RTVSPropertyOp21
 70
     1
102
RTVSPropertyOp22
 70
     1
102
RTVSPropertyOp23
 70
     1
102
RTVSPropertyOp24
 70
     1
102
RTVSPropertyOp25
 70
     1
102
RTVSPropertyOp26
 70
     1
102
RTVSPropertyOp27
 70
     1
  0
XRECORD
  5
3D0
102
{ACAD_REACTORS
330
3CF
102
}
330
3CF
100
AcDbXrecord
280
     1
102
RTVSPropertyOp0
 70
     1
102
RTVSPropertyOp1
 70
     1
102
RTVSPropertyOp2
 70
     1
102
RTVSPropertyOp3
 70
     1
102
RTVSPropertyOp4
 70
     1
102
RTVSPropertyOp5
 70
     1
102
RTVSPropertyOp6
 70
     1
102
RTVSPropertyOp7
 70
     1
102
RTVSPropertyOp8
 70
     1
102
RTVSPropertyOp9
 70
     1
102
RTVSPropertyOp10
 70
     1
102
RTVSPropertyOp11
 70
     1
102
RTVSPropertyOp12
 70
     1
102
RTVSPropertyOp13
 70
     1
102
RTVSPropertyOp14
 70
     1
102
RTVSPropertyOp15
 70
     1
102
RTVSPropertyOp16
 70
     1
102
RTVSPropertyOp17
 70
     1
102
RTVSPropertyOp18
 70
     1
102
RTVSPropertyOp19
 70
     1
102
RTVSPropertyOp20
 70
     1
102
RTVSPropertyOp21
 70
     1
102
RTVSPropertyOp22
 70
     1
102
RTVSPropertyOp23
 70
     1
102
RTVSPropertyOp24
 70
     1
102
RTVSPropertyOp25
 70
     1
102
RTVSPropertyOp26
 70
     1
102
RTVSPropertyOp27
 70
     1
  0
XRECORD
  5
3D2
102
{ACAD_REACTORS
330
3D1
102
}
330
3D1
100
AcDbXrecord
280
     1
102
RTVSPropertyOp0
 70
     1
102
RTVSPropertyOp1
 70
     1
102
RTVSPropertyOp2
 70
     1
102
RTVSPropertyOp3
 70
     1
102
RTVSPropertyOp4
 70
     1
102
RTVSPropertyOp5
 70
     1
102
RTVSPropertyOp6
 70
     1
102
RTVSPropertyOp7
 70
     1
102
RTVSPropertyOp8
 70
     1
102
RTVSPropertyOp9
 70
     1
102
RTVSPropertyOp10
 70
     1
102
RTVSPropertyOp11
 70
     1
102
RTVSPropertyOp12
 70
     1
102
RTVSPropertyOp13
 70
     1
102
RTVSPropertyOp14
 70
     1
102
RTVSPropertyOp15
 70
     1
102
RTVSPropertyOp16
 70
     1
102
RTVSPropertyOp17
 70
     1
102
RTVSPropertyOp18
 70
     1
102
RTVSPropertyOp19
 70
     1
102
RTVSPropertyOp20
 70
     1
102
RTVSPropertyOp21
 70
     1
102
RTVSPropertyOp22
 70
     1
102
RTVSPropertyOp23
 70
     1
102
RTVSPropertyOp24
 70
     1
102
RTVSPropertyOp25
 70
     1
102
RTVSPropertyOp26
 70
     1
102
RTVSPropertyOp27
 70
     1
  0
XRECORD
  5
3D4
102
{ACAD_REACTORS
330
3D3
102
}
330
3D3
100
AcDbXrecord
280
     1
102
RTVSPropertyOp0
 70
     1
102
RTVSPropertyOp1
 70
     1
102
RTVSPropertyOp2
 70
     1
102
RTVSPropertyOp3
 70
     1
102
RTVSPropertyOp4
 70
     1
102
RTVSPropertyOp5
 70
     1
102
RTVSPropertyOp6
 70
     1
102
RTVSPropertyOp7
 70
     1
102
RTVSPropertyOp8
 70
     1
102
RTVSPropertyOp9
 70
     1
102
RTVSPropertyOp10
 70
     1
102
RTVSPropertyOp11
 70
     1
102
RTVSPropertyOp12
 70
     1
102
RTVSPropertyOp13
 70
     1
102
RTVSPropertyOp14
 70
     1
102
RTVSPropertyOp15
 70
     1
102
RTVSPropertyOp16
 70
     1
102
RTVSPropertyOp17
 70
     1
102
RTVSPropertyOp18
 70
     1
102
RTVSPropertyOp19
 70
     1
102
RTVSPropertyOp20
 70
     1
102
RTVSPropertyOp21
 70
     1
102
RTVSPropertyOp22
 70
     1
102
RTVSPropertyOp23
 70
     1
102
RTVSPropertyOp24
 70
     1
102
RTVSPropertyOp25
 70
     1
102
RTVSPropertyOp26
 70
     1
102
RTVSPropertyOp27
 70
     1
  0
XRECORD
  5
3E8
102
{ACAD_REACTORS
330
3E7
102
}
330
3E7
100
AcDbXrecord
280
     1
102
RTVSPropertyOp0
 70
     1
102
RTVSPropertyOp1
 70
     1
102
RTVSPropertyOp2
 70
     1
102
RTVSPropertyOp3
 70
     1
102
RTVSPropertyOp4
 70
     1
102
RTVSPropertyOp5
 70
     1
102
RTVSPropertyOp6
 70
     1
102
RTVSPropertyOp7
 70
     1
102
RTVSPropertyOp8
 70
     1
102
RTVSPropertyOp9
 70
     1
102
RTVSPropertyOp10
 70
     1
102
RTVSPropertyOp11
 70
     1
102
RTVSPropertyOp12
 70
     1
102
RTVSPropertyOp13
 70
     1
102
RTVSPropertyOp14
 70
     1
102
RTVSPropertyOp15
 70
     1
102
RTVSPropertyOp16
 70
     1
102
RTVSPropertyOp17
 70
     1
102
RTVSPropertyOp18
 70
     1
102
RTVSPropertyOp19
 70
     1
102
RTVSPropertyOp20
 70
     1
102
RTVSPropertyOp21
 70
     1
102
RTVSPropertyOp22
 70
     1
102
RTVSPropertyOp23
 70
     1
102
RTVSPropertyOp24
 70
     1
102
RTVSPropertyOp25
 70
     1
102
RTVSPropertyOp26
 70
     1
102
RTVSPropertyOp27
 70
     1
  0
XRECORD
  5
3DE
102
{ACAD_REACTORS
330
3DD
102
}
330
3DD
100
AcDbXrecord
280
     1
102
RTVSPropertyOp0
 70
     1
102
RTVSPropertyOp1
 70
     1
102
RTVSPropertyOp2
 70
     1
102
RTVSPropertyOp3
 70
     1
102
RTVSPropertyOp4
 70
     1
102
RTVSPropertyOp5
 70
     1
102
RTVSPropertyOp6
 70
     1
102
RTVSPropertyOp7
 70
     1
102
RTVSPropertyOp8
 70
     1
102
RTVSPropertyOp9
 70
     1
102
RTVSPropertyOp10
 70
     1
102
RTVSPropertyOp11
 70
     1
102
RTVSPropertyOp12
 70
     1
102
RTVSPropertyOp13
 70
     1
102
RTVSPropertyOp14
 70
     1
102
RTVSPropertyOp15
 70
     1
102
RTVSPropertyOp16
 70
     1
102
RTVSPropertyOp17
 70
     1
102
RTVSPropertyOp18
 70
     1
102
RTVSPropertyOp19
 70
     1
102
RTVSPropertyOp20
 70
     1
102
RTVSPropertyOp21
 70
     1
102
RTVSPropertyOp22
 70
     1
102
RTVSPropertyOp23
 70
     1
102
RTVSPropertyOp24
 70
     1
102
RTVSPropertyOp25
 70
     1
102
RTVSPropertyOp26
 70
     1
102
RTVSPropertyOp27
 70
     1
  0
XRECORD
  5
3E6
102
{ACAD_REACTORS
330
3E5
102
}
330
3E5
100
AcDbXrecord
280
     1
102
RTVSPropertyOp0
 70
     1
102
RTVSPropertyOp1
 70
     1
102
RTVSPropertyOp2
 70
     1
102
RTVSPropertyOp3
 70
     1
102
RTVSPropertyOp4
 70
     1
102
RTVSPropertyOp5
 70
     1
102
RTVSPropertyOp6
 70
     1
102
RTVSPropertyOp7
 70
     1
102
RTVSPropertyOp8
 70
     1
102
RTVSPropertyOp9
 70
     1
102
RTVSPropertyOp10
 70
     1
102
RTVSPropertyOp11
 70
     1
102
RTVSPropertyOp12
 70
     1
102
RTVSPropertyOp13
 70
     1
102
RTVSPropertyOp14
 70
     1
102
RTVSPropertyOp15
 70
     1
102
RTVSPropertyOp16
 70
     1
102
RTVSPropertyOp17
 70
     1
102
RTVSPropertyOp18
 70
     1
102
RTVSPropertyOp19
 70
     1
102
RTVSPropertyOp20
 70
     1
102
RTVSPropertyOp21
 70
     1
102
RTVSPropertyOp22
 70
     1
102
RTVSPropertyOp23
 70
     1
102
RTVSPropertyOp24
 70
     1
102
RTVSPropertyOp25
 70
     1
102
RTVSPropertyOp26
 70
     1
102
RTVSPropertyOp27
 70
     1
  0
ENDSEC
  0
EOF
