  0
SECTION
  2
HEADER
  9
$ACADVER
  1
AC1015
  9
$ACADMAINTVER
 70
     6
  9
$DWGCODEPAGE
  3
ANSI_1252
  9
$INSBASE
 10
0.0
 20
0.0
 30
0.0
  9
$EXTMIN
 10
0.0
 20
0.0
 30
0.0
  9
$EXTMAX
 10
197.5066684218749
 20
287.0
 30
0.0
  9
$LIMMIN
 10
0.0
 20
0.0
  9
$LIMMAX
 10
12.0
 20
9.0
  9
$ORTHOMODE
 70
     0
  9
$REGENMODE
 70
     1
  9
$FILLMODE
 70
     1
  9
$QTEXTMODE
 70
     0
  9
$MIRRTEXT
 70
     1
  9
$LTSCALE
 40
1.0
  9
$ATTMODE
 70
     1
  9
$TEXTSIZE
 40
0.2
  9
$TRACEWID
 40
0.05
  9
$TEXTSTYLE
  7
Standard
  9
$CLAYER
  8
0
  9
$CELTYPE
  6
ByLayer
  9
$CECOLOR
 62
   256
  9
$CELTSCALE
 40
1.0
  9
$DISPSILH
 70
     0
  9
$DIMSCALE
 40
1.0
  9
$DIMASZ
 40
0.18
  9
$DIMEXO
 40
0.0625
  9
$DIMDLI
 40
0.38
  9
$DIMRND
 40
0.0
  9
$DIMDLE
 40
0.0
  9
$DIMEXE
 40
0.18
  9
$DIMTP
 40
0.0
  9
$DIMTM
 40
0.0
  9
$DIMTXT
 40
0.18
  9
$DIMCEN
 40
0.09
  9
$DIMTSZ
 40
0.0
  9
$DIMTOL
 70
     0
  9
$DIMLIM
 70
     0
  9
$DIMTIH
 70
     1
  9
$DIMTOH
 70
     1
  9
$DIMSE1
 70
     0
  9
$DIMSE2
 70
     0
  9
$DIMTAD
 70
     0
  9
$DIMZIN
 70
     0
  9
$DIMBLK
  1

  9
$DIMASO
 70
     1
  9
$DIMSHO
 70
     1
  9
$DIMPOST
  1

  9
$DIMAPOST
  1

  9
$DIMALT
 70
     0
  9
$DIMALTD
 70
     2
  9
$DIMALTF
 40
25.4
  9
$DIMLFAC
 40
1.0
  9
$DIMTOFL
 70
     0
  9
$DIMTVP
 40
0.0
  9
$DIMTIX
 70
     0
  9
$DIMSOXD
 70
     0
  9
$DIMSAH
 70
     0
  9
$DIMBLK1
  1

  9
$DIMBLK2
  1

  9
$DIMSTYLE
  2
Standard
  9
$DIMCLRD
 70
     0
  9
$DIMCLRE
 70
     0
  9
$DIMCLRT
 70
     0
  9
$DIMTFAC
 40
1.0
  9
$DIMGAP
 40
0.09
  9
$DIMJUST
 70
     0
  9
$DIMSD1
 70
     0
  9
$DIMSD2
 70
     0
  9
$DIMTOLJ
 70
     1
  9
$DIMTZIN
 70
     0
  9
$DIMALTZ
 70
     0
  9
$DIMALTTZ
 70
     0
  9
$DIMUPT
 70
     0
  9
$DIMDEC
 70
     4
  9
$DIMTDEC
 70
     4
  9
$DIMALTU
 70
     2
  9
$DIMALTTD
 70
     2
  9
$DIMTXSTY
  7
Standard
  9
$DIMAUNIT
 70
     0
  9
$DIMADEC
 70
     0
  9
$DIMALTRND
 40
0.0
  9
$DIMAZIN
 70
     0
  9
$DIMDSEP
 70
    46
  9
$DIMATFIT
 70
     3
  9
$DIMFRAC
 70
     0
  9
$DIMLDRBLK
  1

  9
$DIMLUNIT
 70
     2
  9
$DIMLWD
 70
    -2
  9
$DIMLWE
 70
    -2
  9
$DIMTMOVE
 70
     0
  9
$LUNITS
 70
     2
  9
$LUPREC
 70
     4
  9
$SKETCHINC
 40
0.1
  9
$FILLETRAD
 40
0.5
  9
$AUNITS
 70
     0
  9
$AUPREC
 70
     0
  9
$MENU
  1
.
  9
$ELEVATION
 40
0.0
  9
$PELEVATION
 40
0.0
  9
$THICKNESS
 40
0.0
  9
$LIMCHECK
 70
     0
  9
$CHAMFERA
 40
0.5
  9
$CHAMFERB
 40
0.5
  9
$CHAMFERC
 40
1.0
  9
$CHAMFERD
 40
0.0
  9
$SKPOLY
 70
     0
  9
$TDCREATE
 40
2456666.357348773
  9
$TDUCREATE
 40
2456666.315682107
  9
$TDUPDATE
 40
2456666.357348785
  9
$TDUUPDATE
 40
2456666.315682118
  9
$TDINDWG
 40
0.0000000116
  9
$TDUSRTIMER
 40
0.0000000116
  9
$USRTIMER
 70
     1
  9
$ANGBASE
 50
0.0
  9
$ANGDIR
 70
     0
  9
$PDMODE
 70
     0
  9
$PDSIZE
 40
0.0
  9
$PLINEWID
 40
0.0
  9
$SPLFRAME
 70
     0
  9
$SPLINETYPE
 70
     6
  9
$SPLINESEGS
 70
     8
  9
$HANDSEED
  5
4D6
  9
$SURFTAB1
 70
     6
  9
$SURFTAB2
 70
     6
  9
$SURFTYPE
 70
     6
  9
$SURFU
 70
     6
  9
$SURFV
 70
     6
  9
$UCSBASE
  2

  9
$UCSNAME
  2

  9
$UCSORG
 10
0.0
 20
0.0
 30
0.0
  9
$UCSXDIR
 10
1.0
 20
0.0
 30
0.0
  9
$UCSYDIR
 10
0.0
 20
1.0
 30
0.0
  9
$UCSORTHOREF
  2

  9
$UCSORTHOVIEW
 70
     0
  9
$UCSORGTOP
 10
0.0
 20
0.0
 30
0.0
  9
$UCSORGBOTTOM
 10
0.0
 20
0.0
 30
0.0
  9
$UCSORGLEFT
 10
0.0
 20
0.0
 30
0.0
  9
$UCSORGRIGHT
 10
0.0
 20
0.0
 30
0.0
  9
$UCSORGFRONT
 10
0.0
 20
0.0
 30
0.0
  9
$UCSORGBACK
 10
0.0
 20
0.0
 30
0.0
  9
$PUCSBASE
  2

  9
$PUCSNAME
  2

  9
$PUCSORG
 10
0.0
 20
0.0
 30
0.0
  9
$PUCSXDIR
 10
1.0
 20
0.0
 30
0.0
  9
$PUCSYDIR
 10
0.0
 20
1.0
 30
0.0
  9
$PUCSORTHOREF
  2

  9
$PUCSORTHOVIEW
 70
     0
  9
$PUCSORGTOP
 10
0.0
 20
0.0
 30
0.0
  9
$PUCSORGBOTTOM
 10
0.0
 20
0.0
 30
0.0
  9
$PUCSORGLEFT
 10
0.0
 20
0.0
 30
0.0
  9
$PUCSORGRIGHT
 10
0.0
 20
0.0
 30
0.0
  9
$PUCSORGFRONT
 10
0.0
 20
0.0
 30
0.0
  9
$PUCSORGBACK
 10
0.0
 20
0.0
 30
0.0
  9
$USERI1
 70
     0
  9
$USERI2
 70
     0
  9
$USERI3
 70
     0
  9
$USERI4
 70
     0
  9
$USERI5
 70
     0
  9
$USERR1
 40
17.0
  9
$USERR2
 40
0.0
  9
$USERR3
 40
0.0
  9
$USERR4
 40
0.0
  9
$USERR5
 40
0.0
  9
$WORLDVIEW
 70
     1
  9
$SHADEDGE
 70
     3
  9
$SHADEDIF
 70
    70
  9
$TILEMODE
 70
     1
  9
$MAXACTVP
 70
    64
  9
$PINSBASE
 10
0.0
 20
0.0
 30
0.0
  9
$PLIMCHECK
 70
     0
  9
$PEXTMIN
 10
1.00000000000000E+20
 20
1.00000000000000E+20
 30
1.00000000000000E+20
  9
$PEXTMAX
 10
-1.00000000000000E+20
 20
-1.00000000000000E+20
 30
-1.00000000000000E+20
  9
$PLIMMIN
 10
0.0
 20
0.0
  9
$PLIMMAX
 10
12.0
 20
9.0
  9
$UNITMODE
 70
     0
  9
$VISRETAIN
 70
     1
  9
$PLINEGEN
 70
     0
  9
$PSLTSCALE
 70
     1
  9
$TREEDEPTH
 70
  3020
  9
$CMLSTYLE
  2
Standard
  9
$CMLJUST
 70
     0
  9
$CMLSCALE
 40
1.0
  9
$PROXYGRAPHICS
 70
     1
  9
$MEASUREMENT
 70
     1
  9
$CELWEIGHT
370
    -1
  9
$ENDCAPS
280
     0
  9
$JOINSTYLE
280
     0
  9
$LWDISPLAY
290
     0
  9
$INSUNITS
 70
     1
  9
$HYPERLINKBASE
  1

  9
$STYLESHEET
  1

  9
$XEDIT
290
     1
  9
$CEPSNTYPE
380
     0
  9
$PSTYLEMODE
290
     1
  9
$FINGERPRINTGUID
  2
{9865A7F9-21A9-4C3A-9AA8-88572900127F}
  9
$VERSIONGUID
  2
{FAEB1C32-E019-11D5-929B-00C0DF256EC4}
  9
$EXTNAMES
290
     1
  9
$PSVPSCALE
 40
0.0
  9
$OLESTARTUP
290
     0
  0
ENDSEC
  0
SECTION
  2
CLASSES
  0
CLASS
  1
ACDBDICTIONARYWDFLT
  2
AcDbDictionaryWithDefault
  3
ObjectDBX Classes
 90
        0
280
     0
281
     0
  0
CLASS
  1
VISUALSTYLE
  2
AcDbVisualStyle
  3
ObjectDBX Classes
 90
     4095
280
     0
281
     0
  0
CLASS
  1
MATERIAL
  2
AcDbMaterial
  3
ObjectDBX Classes
 90
     1153
280
     0
281
     0
  0
CLASS
  1
SCALE
  2
AcDbScale
  3
ObjectDBX Classes
 90
     1153
280
     0
281
     0
  0
CLASS
  1

  2
exOdDbCircle
  3

 90
        0
280
     0
281
     1
  0
CLASS
  1

  2
exOdDbSpline
  3

 90
        0
280
     0
281
     1
  0
CLASS
  1

  2
exOdDbPolyline
  3

 90
        0
280
     0
281
     1
  0
CLASS
  1
DICTIONARYVAR
  2
AcDbDictionaryVar
  3
ObjectDBX Classes
 90
        0
280
     0
281
     0
  0
CLASS
  1
ACDBPLACEHOLDER
  2
AcDbPlaceHolder
  3
ObjectDBX Classes
 90
        0
280
     0
281
     0
  0
CLASS
  1
LAYOUT
  2
AcDbLayout
  3
ObjectDBX Classes
 90
        0
280
     0
281
     0
  0
ENDSEC
  0
SECTION
  2
TABLES
  0
TABLE
  2
VPORT
  5
8
330
0
100
AcDbSymbolTable
 70
     1
  0
VPORT
  5
29
330
8
100
AcDbSymbolTableRecord
100
AcDbViewportTableRecord
  2
*Active
 70
     0
 10
0.0
 20
0.0
 11
1.0
 21
1.0
 12
98.75333421093745
 22
143.5
 13
0.0
 23
0.0
 14
0.5
 24
0.5
 15
0.5
 25
0.5
 16
0.0
 26
0.0
 36
1.0
 17
0.0
 27
0.0
 37
0.0
 40
315.7
 41
1.60267857142857
 42
50.0
 43
0.0
 44
0.0
 50
0.0
 51
0.0
 71
     0
 72
   100
 73
     1
 74
     3
 75
     0
 76
     0
 77
     0
 78
     0
281
     0
 65
     1
110
0.0
120
0.0
130
0.0
111
1.0
121
0.0
131
0.0
112
0.0
122
1.0
132
0.0
 79
     0
146
0.0
  0
ENDTAB
  0
TABLE
  2
LTYPE
  5
5
330
0
100
AcDbSymbolTable
 70
     8
  0
LTYPE
  5
14
330
5
100
AcDbSymbolTableRecord
100
AcDbLinetypeTableRecord
  2
ByBlock
 70
     0
  3

 72
    65
 73
     0
 40
0.0
  0
LTYPE
  5
15
330
5
100
AcDbSymbolTableRecord
100
AcDbLinetypeTableRecord
  2
ByLayer
 70
     0
  3

 72
    65
 73
     0
 40
0.0
  0
LTYPE
  5
16
330
5
100
AcDbSymbolTableRecord
100
AcDbLinetypeTableRecord
  2
Continuous
 70
     0
  3
Solid line
 72
    65
 73
     0
 40
0.0
  0
LTYPE
  5
3F
330
5
100
AcDbSymbolTableRecord
100
AcDbLinetypeTableRecord
  2
DASHED
 70
     0
  3
Dashed
 72
    65
 73
     2
 40
15.0
 49
7.0
 74
     0
 49
-8.0
 74
     0
  0
LTYPE
  5
40
330
5
100
AcDbSymbolTableRecord
100
AcDbLinetypeTableRecord
  2
DOTTED
 70
     0
  3
Dotted
 72
    65
 73
     2
 40
1.0
 49
0.0
 74
     0
 49
-1.0
 74
     0
  0
LTYPE
  5
41
330
5
100
AcDbSymbolTableRecord
100
AcDbLinetypeTableRecord
  2
DOT_CENTER
 70
     0
  3
Dot_Center
 72
    65
 73
     4
 40
14.0
 49
12.0
 74
     0
 49
-1.0
 74
     0
 49
0.0
 74
     0
 49
-1.0
 74
     0
  0
LTYPE
  5
42
330
5
100
AcDbSymbolTableRecord
100
AcDbLinetypeTableRecord
  2
LONG_DASHED
 70
     0
  3
Long_Dashed
 72
    65
 73
     2
 40
15.0
 49
10.0
 74
     0
 49
-5.0
 74
     0
  0
LTYPE
  5
43
330
5
100
AcDbSymbolTableRecord
100
AcDbLinetypeTableRecord
  2
DASH_CENTER
 70
     0
  3
Dash_Center
 72
    65
 73
     4
 40
14.0
 49
11.0
 74
     0
 49
-1.0
 74
     0
 49
1.0
 74
     0
 49
-1.0
 74
     0
  0
LTYPE
  5
44
330
5
100
AcDbSymbolTableRecord
100
AcDbLinetypeTableRecord
  2
PHANTOM
 70
     0
  3
Phantom
 72
    65
 73
     6
 40
13.0
 49
10.0
 74
     0
 49
-1.0
 74
     0
 49
0.0
 74
     0
 49
-1.0
 74
     0
 49
0.0
 74
     0
 49
-1.0
 74
     0
  0
LTYPE
  5
45
330
5
100
AcDbSymbolTableRecord
100
AcDbLinetypeTableRecord
  2
CENTER_DASH_DASH
 70
     0
  3
Center_Dash_Dash
 72
    65
 73
     6
 40
14.0
 49
9.0
 74
     0
 49
-1.0
 74
     0
 49
1.0
 74
     0
 49
-1.0
 74
     0
 49
1.0
 74
     0
 49
-1.0
 74
     0
  0
ENDTAB
  0
TABLE
  2
LAYER
  5
2
330
0
100
AcDbSymbolTable
 70
     2
  0
LAYER
  5
10
330
2
100
AcDbSymbolTableRecord
100
AcDbLayerTableRecord
  2
0
 70
     0
 62
     7
  6
Continuous
370
    -3
390
F
  0
LAYER
  5
46
330
2
100
AcDbSymbolTableRecord
100
AcDbLayerTableRecord
  2
1
 70
     0
 62
     7
  6
Continuous
370
    -3
390
F
  0
ENDTAB
  0
TABLE
  2
STYLE
  5
3
330
0
100
AcDbSymbolTable
 70
    10
  0
STYLE
  5
11
330
3
100
AcDbSymbolTableRecord
100
AcDbTextStyleTableRecord
  2
Standard
 70
     0
 40
0.0
 41
1.0
 50
0.0
 71
     0
 42
0.2
  3
txt
  4

  0
STYLE
  5
89
330
3
100
AcDbSymbolTableRecord
100
AcDbTextStyleTableRecord
  2
CONVERTER_11
 70
     0
 40
0.0
 41
0.9
 50
0.0
 71
     0
 42
0.2
  3
txt.shx
  4

  0
STYLE
  5
8E
330
3
100
AcDbSymbolTableRecord
100
AcDbTextStyleTableRecord
  2
CONVERTER_12
 70
     0
 40
0.0
 41
0.63
 50
0.0
 71
     0
 42
0.2
  3
txt.shx
  4

  0
STYLE
  5
E9
330
3
100
AcDbSymbolTableRecord
100
AcDbTextStyleTableRecord
  2
CONVERTER_13
 70
     0
 40
0.0
 41
0.75
 50
0.0
 71
     0
 42
0.2
  3
txt.shx
  4

  0
STYLE
  5
3A2
330
3
100
AcDbSymbolTableRecord
100
AcDbTextStyleTableRecord
  2
CONVERTER_14
 70
     0
 40
0.0
 41
0.7
 50
0.0
 71
     0
 42
0.2
  3
txt.shx
  4

  0
STYLE
  5
44D
330
3
100
AcDbSymbolTableRecord
100
AcDbTextStyleTableRecord
  2
CONVERTER_15
 70
     0
 40
0.0
 41
0.765
 50
0.0
 71
     0
 42
0.2
  3
txt.shx
  4

  0
STYLE
  5
44F
330
3
100
AcDbSymbolTableRecord
100
AcDbTextStyleTableRecord
  2
CONVERTER_16
 70
     0
 40
0.0
 41
0.72
 50
0.0
 71
     0
 42
0.2
  3
txt.shx
  4

  0
STYLE
  5
45A
330
3
100
AcDbSymbolTableRecord
100
AcDbTextStyleTableRecord
  2
CONVERTER_17
 70
     0
 40
0.0
 41
0.54
 50
0.0
 71
     0
 42
0.2
  3
txt.shx
  4

  0
STYLE
  5
48C
330
3
100
AcDbSymbolTableRecord
100
AcDbTextStyleTableRecord
  2
CONVERTER_18
 70
     0
 40
0.0
 41
0.66696267749507
 50
0.0
 71
     0
 42
0.2
  3
txt.shx
  4

  0
STYLE
  5
49F
330
3
100
AcDbSymbolTableRecord
100
AcDbTextStyleTableRecord
  2
CONVERTER_19
 70
     0
 40
0.0
 41
0.99
 50
0.0
 71
     0
 42
0.2
  3
txt.shx
  4

  0
ENDTAB
  0
TABLE
  2
VIEW
  5
6
330
0
100
AcDbSymbolTable
 70
     0
  0
ENDTAB
  0
TABLE
  2
UCS
  5
7
330
0
100
AcDbSymbolTable
 70
     0
  0
ENDTAB
  0
TABLE
  2
APPID
  5
9
330
0
100
AcDbSymbolTable
 70
     1
  0
APPID
  5
12
330
9
100
AcDbSymbolTableRecord
100
AcDbRegAppTableRecord
  2
ACAD
 70
     0
  0
ENDTAB
  0
TABLE
  2
DIMSTYLE
  5
A
330
0
100
AcDbSymbolTable
 70
    14
100
AcDbDimStyleTable
  0
DIMSTYLE
105
27
330
A
100
AcDbSymbolTableRecord
100
AcDbDimStyleTableRecord
  2
Standard
 70
     0
340
11
  0
DIMSTYLE
105
F7
102
{ACAD_REACTORS
330
F8
102
}
330
A
100
AcDbSymbolTableRecord
100
AcDbDimStyleTableRecord
  2
ME10_DIM_10
 70
     0
 41
3.5
 42
0.0
 44
2.0
 73
     0
 74
     0
 77
     1
 78
     8
140
3.5
147
2.0
172
     1
173
     1
174
     1
175
     1
176
     3
177
     3
178
     4
271
     2
340
89
  0
DIMSTYLE
105
104
102
{ACAD_REACTORS
330
105
102
}
330
A
100
AcDbSymbolTableRecord
100
AcDbDimStyleTableRecord
  2
ME10_DIM_11
 70
     0
 41
3.5
 42
0.0
 44
2.0
 73
     0
 74
     0
 77
     1
 78
     8
140
3.5
147
2.0
172
     1
173
     1
174
     1
175
     1
176
     3
177
     3
178
     4
271
     2
340
89
  0
DIMSTYLE
105
111
102
{ACAD_REACTORS
330
112
102
}
330
A
100
AcDbSymbolTableRecord
100
AcDbDimStyleTableRecord
  2
ME10_DIM_12
 70
     0
  3
{\Fgdt;n}<>
 41
3.5
 42
0.0
 44
2.0
 73
     0
 74
     0
 77
     1
 78
     8
140
3.5
147
2.0
172
     1
173
     1
174
     1
175
     1
176
     3
177
     3
178
     4
271
     2
340
89
  0
DIMSTYLE
105
11E
102
{ACAD_REACTORS
330
11F
102
}
330
A
100
AcDbSymbolTableRecord
100
AcDbDimStyleTableRecord
  2
ME10_DIM_13
 70
     0
 41
3.5
 42
0.0
 44
2.0
 73
     0
 74
     0
 77
     1
 78
     8
140
3.5
147
2.0
172
     1
173
     1
174
     1
175
     1
176
     3
177
     3
178
     4
271
     2
340
89
  0
DIMSTYLE
105
12B
102
{ACAD_REACTORS
330
12C
102
}
330
A
100
AcDbSymbolTableRecord
100
AcDbDimStyleTableRecord
  2
ME10_DIM_14
 70
     0
 41
3.5
 42
0.0
 44
2.0
 73
     0
 74
     0
 77
     1
 78
     8
140
3.5
147
2.0
172
     1
173
     1
174
     1
175
     1
176
     3
177
     3
178
     4
271
     2
340
89
  0
DIMSTYLE
105
136
102
{ACAD_REACTORS
330
137
102
}
330
A
100
AcDbSymbolTableRecord
100
AcDbDimStyleTableRecord
  2
ME10_DIM_15
 70
     0
  3
{\Fgdt;n}<>
 41
3.5
 42
0.0
 44
2.0
 73
     0
 74
     0
 77
     1
 78
     8
140
3.5
147
2.0
172
     1
173
     1
174
     1
175
     1
176
     3
177
     3
178
     4
271
     2
340
89
  0
DIMSTYLE
105
143
102
{ACAD_REACTORS
330
144
102
}
330
A
100
AcDbSymbolTableRecord
100
AcDbDimStyleTableRecord
  2
ME10_DIM_16
 70
     0
 41
3.5
 42
0.0
 44
2.0
 73
     0
 74
     0
 77
     1
 78
     8
140
3.5
147
2.0
172
     1
173
     1
174
     1
175
     1
176
     3
177
     3
178
     4
271
     2
340
89
  0
DIMSTYLE
105
152
102
{ACAD_REACTORS
330
153
102
}
330
A
100
AcDbSymbolTableRecord
100
AcDbDimStyleTableRecord
  2
ME10_DIM_17
 70
     0
 41
3.5
 42
0.0
 44
2.0
 73
     0
 74
     0
 77
     1
 78
     8
140
3.5
147
2.0
172
     1
173
     1
174
     1
175
     1
176
     3
177
     3
178
     4
271
     2
340
89
  0
DIMSTYLE
105
160
102
{ACAD_REACTORS
330
161
102
}
330
A
100
AcDbSymbolTableRecord
100
AcDbDimStyleTableRecord
  2
ME10_DIM_18
 70
     0
 41
3.5
 42
0.0
 44
2.0
 73
     0
 74
     0
 77
     1
 78
     8
140
3.5
147
2.0
172
     1
173
     1
174
     1
175
     1
176
     3
177
     3
178
     4
271
     2
340
89
  0
DIMSTYLE
105
18F
102
{ACAD_REACTORS
330
190
102
}
330
A
100
AcDbSymbolTableRecord
100
AcDbDimStyleTableRecord
  2
ME10_DIM_19
 70
     0
 41
3.5
 42
0.0
 44
2.0
 73
     0
 74
     0
 77
     1
 78
     8
140
3.5
147
2.0
172
     1
173
     1
174
     1
175
     1
176
     3
177
     3
178
     4
271
     2
340
89
  0
DIMSTYLE
105
19A
102
{ACAD_REACTORS
330
19B
102
}
330
A
100
AcDbSymbolTableRecord
100
AcDbDimStyleTableRecord
  2
ME10_DIM_20
 70
     0
 41
3.5
 42
0.0
 44
2.0
 73
     0
 74
     0
 77
     1
 78
     8
140
3.5
147
2.0
172
     1
173
     1
174
     1
175
     1
176
     3
177
     3
178
     4
271
     2
340
89
  0
DIMSTYLE
105
1A5
102
{ACAD_REACTORS
330
1A6
102
}
330
A
100
AcDbSymbolTableRecord
100
AcDbDimStyleTableRecord
  2
ME10_DIM_21
 70
     0
 41
3.5
 42
0.0
 44
2.0
 73
     0
 74
     0
 77
     1
 78
     8
140
3.5
147
2.0
172
     1
173
     1
174
     1
175
     1
176
     3
177
     3
178
     4
271
     2
340
89
  0
DIMSTYLE
105
1B0
102
{ACAD_REACTORS
330
1B1
102
}
330
A
100
AcDbSymbolTableRecord
100
AcDbDimStyleTableRecord
  2
ME10_DIM_22
 70
     0
 41
3.5
 42
0.0
 44
2.0
 73
     0
 74
     0
 77
     1
 78
     8
140
3.5
147
2.0
172
     1
173
     1
174
     1
175
     1
176
     3
177
     3
178
     4
271
     2
340
89
  0
ENDTAB
  0
TABLE
  2
BLOCK_RECORD
  5
1
330
0
100
AcDbSymbolTable
 70
    20
  0
BLOCK_RECORD
  5
1F
330
1
100
AcDbSymbolTableRecord
100
AcDbBlockTableRecord
  2
*Model_Space
340
22
  0
BLOCK_RECORD
  5
1B
330
1
100
AcDbSymbolTableRecord
100
AcDbBlockTableRecord
  2
*Paper_Space
340
1E
  0
BLOCK_RECORD
  5
23
330
1
100
AcDbSymbolTableRecord
100
AcDbBlockTableRecord
  2
*Paper_Space0
340
26
  0
BLOCK_RECORD
  5
47
330
1
100
AcDbSymbolTableRecord
100
AcDbBlockTableRecord
  2
Mat_-Nr_Tabelle
340
0
102
{BLKREFS
331
7C
102
}
  0
BLOCK_RECORD
  5
4A
330
1
100
AcDbSymbolTableRecord
100
AcDbBlockTableRecord
  2
Untersicht
340
0
102
{BLKREFS
331
7D
102
}
  0
BLOCK_RECORD
  5
4D
330
1
100
AcDbSymbolTableRecord
100
AcDbBlockTableRecord
  2
Vorderansicht
340
0
102
{BLKREFS
331
7E
102
}
  0
BLOCK_RECORD
  5
50
330
1
100
AcDbSymbolTableRecord
100
AcDbBlockTableRecord
  2
ISO_Ansicht
340
0
102
{BLKREFS
331
7F
102
}
  0
BLOCK_RECORD
  5
53
330
1
100
AcDbSymbolTableRecord
100
AcDbBlockTableRecord
  2
a4kl
340
0
102
{BLKREFS
331
79
102
}
  0
BLOCK_RECORD
  5
56
330
1
100
AcDbSymbolTableRecord
100
AcDbBlockTableRecord
  2
Rahmen
340
0
102
{BLKREFS
331
80
102
}
  0
BLOCK_RECORD
  5
EB
330
1
100
AcDbSymbolTableRecord
100
AcDbBlockTableRecord
  2
*D7
340
0
  0
BLOCK_RECORD
  5
F9
330
1
100
AcDbSymbolTableRecord
100
AcDbBlockTableRecord
  2
*D8
340
0
  0
BLOCK_RECORD
  5
106
330
1
100
AcDbSymbolTableRecord
100
AcDbBlockTableRecord
  2
*D9
340
0
  0
BLOCK_RECORD
  5
113
330
1
100
AcDbSymbolTableRecord
100
AcDbBlockTableRecord
  2
*D10
340
0
  0
BLOCK_RECORD
  5
120
330
1
100
AcDbSymbolTableRecord
100
AcDbBlockTableRecord
  2
*D11
340
0
  0
BLOCK_RECORD
  5
12D
330
1
100
AcDbSymbolTableRecord
100
AcDbBlockTableRecord
  2
*D12
340
0
  0
BLOCK_RECORD
  5
138
330
1
100
AcDbSymbolTableRecord
100
AcDbBlockTableRecord
  2
*D13
340
0
  0
BLOCK_RECORD
  5
145
330
1
100
AcDbSymbolTableRecord
100
AcDbBlockTableRecord
  2
*D14
340
0
  0
BLOCK_RECORD
  5
154
330
1
100
AcDbSymbolTableRecord
100
AcDbBlockTableRecord
  2
*D15
340
0
  0
BLOCK_RECORD
  5
186
330
1
100
AcDbSymbolTableRecord
100
AcDbBlockTableRecord
  2
*D16
340
0
  0
BLOCK_RECORD
  5
191
330
1
100
AcDbSymbolTableRecord
100
AcDbBlockTableRecord
  2
*D17
340
0
  0
BLOCK_RECORD
  5
19C
330
1
100
AcDbSymbolTableRecord
100
AcDbBlockTableRecord
  2
*D18
340
0
  0
BLOCK_RECORD
  5
1A7
330
1
100
AcDbSymbolTableRecord
100
AcDbBlockTableRecord
  2
*D19
340
0
  0
ENDTAB
  0
ENDSEC
  0
SECTION
  2
BLOCKS
  0
BLOCK
  5
20
330
1F
100
AcDbEntity
  8
0
100
AcDbBlockBegin
  2
*Model_Space
 70
     0
 10
0.0
 20
0.0
 30
0.0
  3
*Model_Space
  1

  0
ENDBLK
  5
21
330
1F
100
AcDbEntity
  8
0
100
AcDbBlockEnd
  0
BLOCK
  5
1C
330
1B
100
AcDbEntity
 67
     1
  8
0
100
AcDbBlockBegin
  2
*Paper_Space
 70
     0
 10
0.0
 20
0.0
 30
0.0
  3
*Paper_Space
  1

  0
ENDBLK
  5
1D
330
1B
100
AcDbEntity
 67
     1
  8
0
100
AcDbBlockEnd
  0
BLOCK
  5
24
330
23
100
AcDbEntity
  8
0
100
AcDbBlockBegin
  2
*Paper_Space0
 70
     0
 10
0.0
 20
0.0
 30
0.0
  3
*Paper_Space0
  1

  0
ENDBLK
  5
25
330
23
100
AcDbEntity
  8
0
100
AcDbBlockEnd
  0
BLOCK
  5
48
330
47
100
AcDbEntity
  8
0
100
AcDbBlockBegin
  2
Mat_-Nr_Tabelle
 70
     0
 10
118.276169668279
 20
47.81541522464147
 30
0.0
  3
Mat_-Nr_Tabelle
  1

  0
LINE
  5
81
330
47
100
AcDbEntity
  8
1
  6
Continuous
 62
     1
100
AcDbLine
 10
118.276169668279
 20
71.81541522464147
 30
0.0
 11
194.276169668279
 21
71.81541522464147
 31
0.0
  0
LINE
  5
82
330
47
100
AcDbEntity
  8
1
  6
Continuous
 62
     1
100
AcDbLine
 10
194.276169668279
 20
71.81541522464147
 30
0.0
 11
194.276169668279
 21
47.81541522464147
 31
0.0
  0
LINE
  5
83
330
47
100
AcDbEntity
  8
1
  6
Continuous
 62
     1
100
AcDbLine
 10
164.127665704149
 20
71.81541522464147
 30
0.0
 11
164.127665704149
 21
47.81541522464147
 31
0.0
  0
LINE
  5
84
330
47
100
AcDbEntity
  8
1
  6
Continuous
 62
     1
100
AcDbLine
 10
118.276169668279
 20
71.81541522464147
 30
0.0
 11
118.276169668279
 21
47.81541522464147
 31
0.0
  0
LINE
  5
85
330
47
100
AcDbEntity
  8
1
  6
Continuous
 62
     1
100
AcDbLine
 10
194.276169668279
 20
47.81541522464147
 30
0.0
 11
118.276169668279
 21
47.81541522464147
 31
0.0
  0
LINE
  5
86
330
47
100
AcDbEntity
  8
1
  6
Continuous
 62
     1
100
AcDbLine
 10
164.127665704149
 20
53.81541522464147
 30
0.0
 11
194.276169668279
 21
53.81541522464147
 31
0.0
  0
LINE
  5
87
330
47
100
AcDbEntity
  8
1
  6
Continuous
 62
     1
100
AcDbLine
 10
194.276169668279
 20
59.81541522464147
 30
0.0
 11
118.276169668279
 21
59.81541522464147
 31
0.0
  0
LINE
  5
88
330
47
100
AcDbEntity
  8
1
  6
Continuous
 62
     1
100
AcDbLine
 10
118.276169668279
 20
65.81541522464147
 30
0.0
 11
194.276169668279
 21
65.81541522464147
 31
0.0
  0
TEXT
  5
8A
330
47
100
AcDbEntity
  8
1
 62
     4
100
AcDbText
 10
171.280654067058
 20
49.12156373847017
 30
0.0
 40
3.5
  1
155572
 41
0.9
  7
CONVERTER_11
100
AcDbText
  0
TEXT
  5
8B
330
47
100
AcDbEntity
  8
1
 62
     4
100
AcDbText
 10
171.280654067058
 20
55.12400855177788
 30
0.0
 40
3.5
  1
155571
 41
0.9
  7
CONVERTER_11
100
AcDbText
  0
TEXT
  5
8C
330
47
100
AcDbEntity
  8
1
 62
     4
100
AcDbText
 10
171.280654067058
 20
60.92857056904251
 30
0.0
 40
3.5
  1
155570
 41
0.9
  7
CONVERTER_11
100
AcDbText
  0
TEXT
  5
8D
330
47
100
AcDbEntity
  8
1
 62
     4
100
AcDbText
 10
171.280654067058
 20
66.9310153823501
 30
0.0
 40
3.5
  1
115956
 41
0.9
  7
CONVERTER_11
100
AcDbText
  0
MTEXT
  5
8F
330
47
100
AcDbEntity
  8
1
 62
     4
100
AcDbMText
 10
119.276169668279
 20
61.3550914095066
 30
0.0
 40
3.5
 41
0.0
 71
     7
 72
     1
  1
GEZE Mat.-Nr.\Penthalten in/included in
  7
CONVERTER_12
 73
     1
 44
1.02040816326531
  0
ENDBLK
  5
49
330
47
100
AcDbEntity
  8
0
100
AcDbBlockEnd
  0
BLOCK
  5
4B
330
4A
100
AcDbEntity
  8
0
100
AcDbBlockBegin
  2
Untersicht
 70
     0
 10
79.39252613866199
 20
168.5728154002316
 30
0.0
  3
Untersicht
  1

  0
LINE
  5
90
330
4A
100
AcDbEntity
  8
1
  6
PHANTOM
 62
     3
100
AcDbLine
 10
134.492125232262
 20
198.3475724487
 30
0.0
 11
110.5626632006413
 21
212.1632537942192
 31
0.0
  0
LINE
  5
91
330
4A
100
AcDbEntity
  8
1
  6
PHANTOM
 62
     3
100
AcDbLine
 10
134.492125232262
 20
198.3475724487
 30
0.0
 11
160.1923253361946
 21
213.1855898969328
 31
0.0
  0
LINE
  5
92
330
4A
100
AcDbEntity
  8
1
  6
DOT_CENTER
 62
     3
100
AcDbLine
 10
134.492125232262
 20
232.789544194672
 30
0.0
 11
134.492125232262
 21
186.722877556392
 31
0.0
  0
LINE
  5
93
330
4A
100
AcDbEntity
  8
1
  6
DOT_CENTER
 62
     3
100
AcDbLine
 10
139.992125232262
 20
198.3475724487
 30
0.0
 11
128.992125232262
 21
198.3475724487
 31
0.0
  0
LINE
  5
94
330
4A
100
AcDbEntity
  8
1
  6
DOT_CENTER
 62
     3
100
AcDbLine
 10
156.492125232262
 20
180.3475724487
 30
0.0
 11
156.492125232262
 21
186.372673236543
 31
0.0
  0
LINE
  5
95
330
4A
100
AcDbEntity
  8
0
  6
Continuous
 62
     1
100
AcDbLine
 10
161.192125232262
 20
185.8475724487
 30
0.0
 11
160.842125232262
 21
185.8475724487
 31
0.0
  0
LINE
  5
96
330
4A
100
AcDbEntity
  8
0
  6
Continuous
 62
     1
100
AcDbLine
 10
123.492125232262
 20
220.3475724487
 30
0.0
 11
126.492125232262
 21
220.3475724487
 31
0.0
  0
LINE
  5
97
330
4A
100
AcDbEntity
  8
0
  6
Continuous
 62
     1
100
AcDbLine
 10
123.492125232262
 20
198.3475724487
 30
0.0
 11
123.492125232262
 21
220.3475724487
 31
0.0
  0
LINE
  5
98
330
4A
100
AcDbEntity
  8
0
  6
Continuous
 62
     1
100
AcDbLine
 10
142.492125232262
 20
220.3475724487
 30
0.0
 11
126.492125232262
 21
220.3475724487
 31
0.0
  0
LINE
  5
99
330
4A
100
AcDbEntity
  8
0
  6
Continuous
 62
     3
100
AcDbLine
 10
128.6608875134621
 20
198.3475724487
 30
0.0
 11
131.576506372862
 21
193.2975724487001
 31
0.0
  0
LINE
  5
9A
330
4A
100
AcDbEntity
  8
0
  6
Continuous
 62
     3
100
AcDbLine
 10
131.576506372862
 20
203.3975724487
 30
0.0
 11
128.6608875134621
 21
198.3475724487
 31
0.0
  0
LINE
  5
9B
330
4A
100
AcDbEntity
  8
0
  6
Continuous
 62
     3
100
AcDbLine
 10
137.407744091662
 20
203.3975724487
 30
0.0
 11
131.576506372862
 21
203.3975724487
 31
0.0
  0
LINE
  5
9C
330
4A
100
AcDbEntity
  8
0
  6
Continuous
 62
     3
100
AcDbLine
 10
140.323362951062
 20
198.3475724487
 30
0.0
 11
137.407744091662
 21
203.3975724487
 31
0.0
  0
LINE
  5
9D
330
4A
100
AcDbEntity
  8
0
  6
Continuous
 62
     3
100
AcDbLine
 10
137.407744091662
 20
193.2975724487001
 30
0.0
 11
140.323362951062
 21
198.3475724487
 31
0.0
  0
LINE
  5
9E
330
4A
100
AcDbEntity
  8
0
  6
Continuous
 62
     3
100
AcDbLine
 10
131.576506372862
 20
193.2975724487001
 30
0.0
 11
137.407744091662
 21
193.2975724487001
 31
0.0
  0
LINE
  5
9F
330
4A
100
AcDbEntity
  8
0
  6
Continuous
 62
     1
100
AcDbLine
 10
142.492125232262
 20
220.3475724487
 30
0.0
 11
145.492125232262
 21
220.3475724487
 31
0.0
  0
LINE
  5
A0
330
4A
100
AcDbEntity
  8
0
  6
Continuous
 62
     1
100
AcDbLine
 10
145.492125232262
 20
220.3475724487
 30
0.0
 11
145.492125232262
 21
198.3475724487
 31
0.0
  0
LINE
  5
A1
330
4A
100
AcDbEntity
  8
0
  6
Continuous
 62
     1
100
AcDbLine
 10
141.492125232262
 20
222.7975724487001
 30
0.0
 11
127.492125232262
 21
222.7975724487001
 31
0.0
  0
LINE
  5
A2
330
4A
100
AcDbEntity
  8
0
  6
Continuous
 62
     1
100
AcDbLine
 10
141.492125232262
 20
223.3975724487
 30
0.0
 11
127.492125232262
 21
223.3975724487
 31
0.0
  0
LINE
  5
A3
330
4A
100
AcDbEntity
  8
0
  6
Continuous
 62
     1
100
AcDbLine
 10
134.492125232262
 20
230.8475724487
 30
0.0
 11
161.992125232262
 21
230.8475724487
 31
0.0
  0
LINE
  5
A4
330
4A
100
AcDbEntity
  8
0
  6
Continuous
 62
     1
100
AcDbLine
 10
106.992125232262
 20
225.8475724487
 30
0.0
 11
134.492125232262
 21
225.8475724487
 31
0.0
  0
LINE
  5
A5
330
4A
100
AcDbEntity
  8
0
  6
Continuous
 62
     1
100
AcDbLine
 10
134.492125232262
 20
225.8475724487
 30
0.0
 11
161.992125232262
 21
225.8475724487
 31
0.0
  0
LINE
  5
A6
330
4A
100
AcDbEntity
  8
0
  6
Continuous
 62
     1
100
AcDbLine
 10
116.594266887362
 20
187.3475724487
 30
0.0
 11
123.492125232262
 21
199.2950135654
 31
0.0
  0
LINE
  5
A7
330
4A
100
AcDbEntity
  8
0
  6
Continuous
 62
     1
100
AcDbLine
 10
145.492125232262
 20
199.2950135654
 30
0.0
 11
152.389983577162
 21
187.3475724487
 31
0.0
  0
LINE
  5
A8
330
4A
100
AcDbEntity
  8
0
  6
Continuous
 62
     1
100
AcDbLine
 10
116.016916618246
 20
186.3475724487
 30
0.0
 11
116.594266887362
 21
187.3475724487
 31
0.0
  0
LINE
  5
A9
330
4A
100
AcDbEntity
  8
0
  6
Continuous
 62
     1
100
AcDbLine
 10
152.389983577162
 20
187.3475724487
 30
0.0
 11
152.967333846378
 21
186.3475724487
 31
0.0
  0
LINE
  5
AA
330
4A
100
AcDbEntity
  8
0
  6
Continuous
 62
     1
100
AcDbLine
 10
158.742125232262
 20
180.8475724487
 30
0.0
 11
154.242125232262
 21
180.8475724487
 31
0.0
  0
LINE
  5
AB
330
4A
100
AcDbEntity
  8
0
  6
Continuous
 62
     1
100
AcDbLine
 10
158.742125232262
 20
180.8475724487
 30
0.0
 11
161.992125232262
 21
180.8475724487
 31
0.0
  0
LINE
  5
AC
330
4A
100
AcDbEntity
  8
0
  6
Continuous
 62
     1
100
AcDbLine
 10
161.992125232262
 20
185.0475724487001
 30
0.0
 11
161.992125232262
 21
180.8475724487
 31
0.0
  0
LINE
  5
AD
330
4A
100
AcDbEntity
  8
0
  6
Continuous
 62
     1
100
AcDbLine
 10
158.742125232262
 20
180.8475724487
 30
0.0
 11
158.742125232262
 21
183.7475724487
 31
0.0
  0
LINE
  5
AE
330
4A
100
AcDbEntity
  8
0
  6
Continuous
 62
     1
100
AcDbLine
 10
148.992125232262
 20
181.3475724487
 30
0.0
 11
148.0720136102619
 21
181.3475724487
 31
0.0
  0
LINE
  5
AF
330
4A
100
AcDbEntity
  8
0
  6
Continuous
 62
     1
100
AcDbLine
 10
152.1421252322621
 20
185.8475724487
 30
0.0
 11
150.7228523670621
 21
185.8475724292
 31
0.0
  0
LINE
  5
B0
330
4A
100
AcDbEntity
  8
0
  6
Continuous
 62
     1
100
AcDbLine
 10
148.992125232262
 20
180.8475724487
 30
0.0
 11
154.242125232262
 21
180.8475724487
 31
0.0
  0
LINE
  5
B1
330
4A
100
AcDbEntity
  8
0
  6
Continuous
 62
     1
100
AcDbLine
 10
154.242125232262
 20
183.7475724487
 30
0.0
 11
154.242125232262
 21
180.8475724487
 31
0.0
  0
LINE
  5
B2
330
4A
100
AcDbEntity
  8
0
  6
Continuous
 62
     1
100
AcDbLine
 10
160.842125232262
 20
185.8475724487
 30
0.0
 11
152.1421252322621
 21
185.8475724487
 31
0.0
  0
LINE
  5
B3
330
4A
100
AcDbEntity
  8
0
  6
Continuous
 62
     1
100
AcDbLine
 10
152.1421252322621
 20
185.8475724487
 30
0.0
 11
154.242125232262
 21
183.7475724487
 31
0.0
  0
LINE
  5
B4
330
4A
100
AcDbEntity
  8
0
  6
Continuous
 62
     1
100
AcDbLine
 10
158.742125232262
 20
183.7475724487
 30
0.0
 11
154.242125232262
 21
183.7475724487
 31
0.0
  0
LINE
  5
B5
330
4A
100
AcDbEntity
  8
0
  6
Continuous
 62
     1
100
AcDbLine
 10
158.742125232262
 20
183.7475724487
 30
0.0
 11
160.842125232262
 21
185.8475724487
 31
0.0
  0
LINE
  5
B6
330
4A
100
AcDbEntity
  8
0
  6
Continuous
 62
     1
100
AcDbLine
 10
148.992125232262
 20
180.8475724487
 30
0.0
 11
148.992125232262
 21
181.3475724487
 31
0.0
  0
LINE
  5
B7
330
4A
100
AcDbEntity
  8
0
  6
Continuous
 62
     1
100
AcDbLine
 10
107.792125232262
 20
185.8475724487
 30
0.0
 11
108.992125232262
 21
185.8475724487
 31
0.0
  0
LINE
  5
B8
330
4A
100
AcDbEntity
  8
0
  6
Continuous
 62
     1
100
AcDbLine
 10
108.992125232262
 20
180.8475724487
 30
0.0
 11
106.992125232262
 21
180.8475724487
 31
0.0
  0
LINE
  5
B9
330
4A
100
AcDbEntity
  8
0
  6
Continuous
 62
     1
100
AcDbLine
 10
106.992125232262
 20
180.8475724487
 30
0.0
 11
106.992125232262
 21
185.0475724487001
 31
0.0
  0
LINE
  5
BA
330
4A
100
AcDbEntity
  8
0
  6
Continuous
 62
     1
100
AcDbLine
 10
119.992125232262
 20
180.8475724487
 30
0.0
 11
117.591144745862
 21
180.8475724487
 31
0.0
  0
LINE
  5
BB
330
4A
100
AcDbEntity
  8
0
  6
Continuous
 62
     1
100
AcDbLine
 10
108.992125232262
 20
185.8475724487
 30
0.0
 11
150.7228523875621
 21
185.8475724487
 31
0.0
  0
LINE
  5
BC
330
4A
100
AcDbEntity
  8
0
  6
Continuous
 62
     1
100
AcDbLine
 10
108.992125232262
 20
180.8475724487
 30
0.0
 11
117.591144745862
 21
180.8475724487
 31
0.0
  0
LINE
  5
BD
330
4A
100
AcDbEntity
  8
0
  6
Continuous
 62
     1
100
AcDbLine
 10
117.591144745862
 20
180.8475724487
 30
0.0
 11
117.5911447458619
 21
181.3475724487
 31
0.0
  0
LINE
  5
BE
330
4A
100
AcDbEntity
  8
0
  6
Continuous
 62
     1
100
AcDbLine
 10
129.492125232262
 20
223.3975724487
 30
0.0
 11
129.492125232262
 21
222.7975724487001
 31
0.0
  0
LINE
  5
BF
330
4A
100
AcDbEntity
  8
0
  6
Continuous
 62
     1
100
AcDbLine
 10
139.492125232262
 20
222.7975724487001
 30
0.0
 11
139.492125232262
 21
223.3975724487
 31
0.0
  0
LINE
  5
C0
330
4A
100
AcDbEntity
  8
0
  6
Continuous
 62
     1
100
AcDbLine
 10
127.492125232262
 20
222.7975724487001
 30
0.0
 11
127.492125232262
 21
221.8475724487
 31
0.0
  0
LINE
  5
C1
330
4A
100
AcDbEntity
  8
0
  6
Continuous
 62
     1
100
AcDbLine
 10
141.492125232262
 20
221.8475724487
 30
0.0
 11
141.492125232262
 21
222.7975724487001
 31
0.0
  0
LINE
  5
C2
330
4A
100
AcDbEntity
  8
0
  6
Continuous
 62
     1
100
AcDbLine
 10
127.492125232262
 20
224.3475724487
 30
0.0
 11
127.492125232262
 21
223.3975724487
 31
0.0
  0
LINE
  5
C3
330
4A
100
AcDbEntity
  8
0
  6
Continuous
 62
     1
100
AcDbLine
 10
141.492125232262
 20
223.3975724487
 30
0.0
 11
141.492125232262
 21
224.3475724487
 31
0.0
  0
LINE
  5
C4
330
4A
100
AcDbEntity
  8
0
  6
Continuous
 62
     1
100
AcDbLine
 10
106.992125232262
 20
230.8475724487
 30
0.0
 11
106.992125232262
 21
225.8475724487
 31
0.0
  0
LINE
  5
C5
330
4A
100
AcDbEntity
  8
0
  6
Continuous
 62
     1
100
AcDbLine
 10
161.992125232262
 20
225.8475724487
 30
0.0
 11
161.992125232262
 21
230.8475724487
 31
0.0
  0
LINE
  5
C6
330
4A
100
AcDbEntity
  8
0
  6
Continuous
 62
     1
100
AcDbLine
 10
119.992125232262
 20
180.8475724487
 30
0.0
 11
119.992125232262
 21
181.3475724487
 31
0.0
  0
LINE
  5
C7
330
4A
100
AcDbEntity
  8
0
  6
Continuous
 62
     1
100
AcDbLine
 10
117.5911447458619
 20
181.3475724487
 30
0.0
 11
148.0720136102619
 21
181.3475724487
 31
0.0
  0
ARC
  5
C8
330
4A
100
AcDbEntity
  8
0
  6
Continuous
 62
     1
100
AcDbCircle
 10
134.492125232262
 20
198.3475724487
 30
0.0
 40
11.0
100
AcDbArc
 50
180.0
 51
0.0
  0
ARC
  5
C9
330
4A
100
AcDbEntity
  8
0
  6
Continuous
 62
     1
100
AcDbCircle
 10
134.492125232262
 20
198.3475724487
 30
0.0
 40
4.99999999999982
100
AcDbArc
 50
210.0000000000012
 51
270.0
  0
ARC
  5
CA
330
4A
100
AcDbEntity
  8
0
  6
Continuous
 62
     1
100
AcDbCircle
 10
134.492125232262
 20
198.3475724487
 30
0.0
 40
5.0
100
AcDbArc
 50
270.0
 51
330.00000000009
  0
ARC
  5
CB
330
4A
100
AcDbEntity
  8
0
  6
Continuous
 62
     1
100
AcDbCircle
 10
134.492125232262
 20
198.3475724487
 30
0.0
 40
5.000000000020593
100
AcDbArc
 50
29.99999999977125
 51
90.0
  0
ARC
  5
CC
330
4A
100
AcDbEntity
  8
0
  6
Continuous
 62
     1
100
AcDbCircle
 10
134.492125232262
 20
198.3475724487
 30
0.0
 40
5.0
100
AcDbArc
 50
90.0
 51
149.9999999999988
  0
ARC
  5
CD
330
4A
100
AcDbEntity
  8
0
  6
Continuous
 62
     1
100
AcDbCircle
 10
134.492125232262
 20
198.3475724487
 30
0.0
 40
4.99999999999982
100
AcDbArc
 50
149.9999999999988
 51
210.0000000000012
  0
ARC
  5
CE
330
4A
100
AcDbEntity
  8
0
  6
Continuous
 62
     1
100
AcDbCircle
 10
134.492125232262
 20
198.3475724487
 30
0.0
 40
5.000000000027585
100
AcDbArc
 50
330.00000000009
 51
29.99999999977125
  0
ARC
  5
CF
330
4A
100
AcDbEntity
  8
0
  6
Continuous
 62
     1
100
AcDbCircle
 10
115.150891214462
 20
186.8475724487
 30
0.0
 40
1.0
100
AcDbArc
 50
270.0
 51
329.9999999999873
  0
ARC
  5
D0
330
4A
100
AcDbEntity
  8
0
  6
Continuous
 62
     1
100
AcDbCircle
 10
153.833359250162
 20
186.8475724487
 30
0.0
 40
0.9999999999996144
100
AcDbArc
 50
210.0000000000127
 51
270.0
  0
ARC
  5
D1
330
4A
100
AcDbEntity
  8
0
  6
Continuous
 62
     1
100
AcDbCircle
 10
161.192125232262
 20
185.0475724487001
 30
0.0
 40
0.8000000000000114
100
AcDbArc
 50
0.0
 51
90.0
  0
ARC
  5
D2
330
4A
100
AcDbEntity
  8
0
  6
Continuous
 62
     1
100
AcDbCircle
 10
107.792125232262
 20
185.0475724487001
 30
0.0
 40
0.7999999999998977
100
AcDbArc
 50
90.0
 51
180.0
  0
ARC
  5
D3
330
4A
100
AcDbEntity
  8
0
  6
Continuous
 62
     1
100
AcDbCircle
 10
139.992125232262
 20
221.8475724487
 30
0.0
 40
1.5
100
AcDbArc
 50
270.0
 51
0.0
  0
ARC
  5
D4
330
4A
100
AcDbEntity
  8
0
  6
Continuous
 62
     1
100
AcDbCircle
 10
128.992125232262
 20
221.8475724487
 30
0.0
 40
1.5
100
AcDbArc
 50
180.0
 51
270.0
  0
ARC
  5
D5
330
4A
100
AcDbEntity
  8
0
  6
Continuous
 62
     1
100
AcDbCircle
 10
128.992125232262
 20
224.3475724487
 30
0.0
 40
1.5
100
AcDbArc
 50
90.0
 51
180.0
  0
ARC
  5
D6
330
4A
100
AcDbEntity
  8
0
  6
Continuous
 62
     1
100
AcDbCircle
 10
139.992125232262
 20
224.3475724487
 30
0.0
 40
1.5
100
AcDbArc
 50
0.0
 51
90.0
  0
CIRCLE
  5
D7
330
4A
100
AcDbEntity
  8
0
  6
Continuous
 62
     1
100
AcDbCircle
 10
134.492125232262
 20
198.3475724487
 30
0.0
 40
3.0
  0
SPLINE
  5
D8
330
4A
100
AcDbEntity
  8
0
  6
Continuous
 62
     3
100
AcDbSpline
210
0.0
220
0.0
230
1.0
 70
    24
 71
     3
 72
    11
 73
     7
 74
     5
 42
0.0000000001
 43
0.0000000001
 44
0.00000001
 40
0.0
 40
0.0
 40
0.0
 40
0.0
 40
0.7042113812238581
 40
1.414301064826174
 40
2.147478289258621
 40
2.886751345940658
 40
2.886751345940658
 40
2.886751345940658
 40
2.886751345940658
 10
128.718622540393
 20
198.347572448693
 30
0.0
 10
128.8359911039303
 20
198.5508607639511
 30
0.0
 10
129.0717079480679
 20
198.9591343141974
 30
0.0
 10
129.4296209962774
 20
199.5790578983886
 30
0.0
 10
129.7933776570654
 20
200.2091029164608
 30
0.0
 10
130.0387860372346
 20
200.6341626995552
 30
0.0
 10
130.16199821334
 20
200.8475724487
 30
0.0
 11
128.718622540393
 21
198.347572448693
 31
0.0
 11
129.0707282310048
 21
198.9574373944671
 31
0.0
 11
129.425773072806
 21
199.5723930994319
 31
0.0
 11
129.7923616850194
 21
200.2073432012682
 31
0.0
 11
130.16199821334
 21
200.8475724487
 31
0.0
  0
SPLINE
  5
D9
330
4A
100
AcDbEntity
  8
0
  6
Continuous
 62
     3
100
AcDbSpline
210
0.0
220
0.0
230
1.0
 70
    24
 71
     3
 72
    13
 73
     9
 74
     7
 42
0.0000000001
 43
0.0000000001
 44
0.00000001
 40
0.0
 40
0.0
 40
0.0
 40
0.0
 40
0.1025988725684451
 40
0.2052029488078446
 40
0.8792137559212061
 40
1.548091433389415
 40
2.220200485027488
 40
2.886751345928548
 40
2.886751345928548
 40
2.886751345928548
 40
2.886751345928548
 10
130.16199821334
 20
195.8475724487
 30
0.0
 10
130.1448984012514
 20
195.8771901920515
 30
0.0
 10
130.1106979097958
 20
195.936427180925
 30
0.0
 10
129.9641622838058
 20
196.1902343302514
 30
0.0
 10
129.7232468570053
 20
196.6075120898038
 30
0.0
 10
129.3874139343008
 20
197.1891917747796
 30
0.0
 10
129.0528243359662
 20
197.7687179587791
 30
0.0
 10
128.8297143505432
 20
198.1551557892081
 30
0.0
 10
128.718622540393
 20
198.347572448693
 30
0.0
 11
130.16199821334
 21
195.8475724487
 31
0.0
 11
130.1106987770711
 21
195.9364256787527
 31
0.0
 11
130.0593967389536
 21
196.0252834153092
 31
0.0
 11
129.7223913353968
 21
196.6089938966946
 31
0.0
 11
129.3879524966626
 21
197.1882589574063
 31
0.0
 11
129.0518979708434
 21
197.7703224702382
 31
0.0
 11
128.718622540393
 21
198.347572448693
 31
0.0
  0
SPLINE
  5
DA
330
4A
100
AcDbEntity
  8
0
  6
Continuous
 62
     3
100
AcDbSpline
210
0.0
220
0.0
230
1.0
 70
    24
 71
     3
 72
    13
 73
     9
 74
     7
 42
0.0000000001
 43
0.0000000001
 44
0.00000001
 40
0.0
 40
0.0
 40
0.0
 40
0.0
 40
0.3639029039691195
 40
0.7294738601237896
 40
1.259224873249877
 40
1.794272558603438
 40
2.339558242199786
 40
2.886751345920999
 40
2.886751345920999
 40
2.886751345920999
 40
2.886751345920999
 10
131.605373886341
 20
203.347572448693
 30
0.0
 10
131.7266748543307
 20
203.347572448693
 30
0.0
 10
131.9698328077053
 20
203.347572448693
 30
0.0
 10
132.3895744321219
 20
203.347572448693
 30
0.0
 10
132.866364317
 20
203.3475724486929
 30
0.0
 10
133.4030591110254
 20
203.3475724486933
 30
0.0
 10
133.9455679352491
 20
203.3475724486925
 30
0.0
 10
134.3097275310216
 20
203.3475724486975
 30
0.0
 10
134.492125232262
 20
203.3475724487
 30
0.0
 11
131.605373886341
 21
203.347572448693
 31
0.0
 11
131.9692767903101
 21
203.347572448693
 31
0.0
 11
132.3348477464648
 21
203.347572448693
 31
0.0
 11
132.8645987595909
 21
203.347572448693
 31
0.0
 11
133.3996464449444
 21
203.347572448693
 31
0.0
 11
133.9449321285408
 21
203.3475724486939
 31
0.0
 11
134.492125232262
 21
203.3475724487
 31
0.0
  0
SPLINE
  5
DB
330
4A
100
AcDbEntity
  8
0
  6
Continuous
 62
     3
100
AcDbSpline
210
0.0
220
0.0
230
1.0
 70
    24
 71
     3
 72
    13
 73
     9
 74
     7
 42
0.0000000001
 43
0.0000000001
 44
0.00000001
 40
0.0
 40
0.0
 40
0.0
 40
0.0
 40
0.102598872592074
 40
0.2052029488348452
 40
0.8792137559482276
 40
1.548091433416623
 40
2.220200485055051
 40
2.886751345955535
 40
2.886751345955535
 40
2.886751345955535
 40
2.886751345955535
 10
130.16199821334
 20
200.8475724487
 30
0.0
 10
130.1790980254468
 20
200.8771901920501
 30
0.0
 10
130.2132985169356
 20
200.9364271809148
 30
0.0
 10
130.3598341429226
 20
201.1902343302534
 30
0.0
 10
130.6007495697308
 20
201.6075120898027
 30
0.0
 10
130.9365824924327
 20
202.1891917747802
 30
0.0
 10
131.2711720907676
 20
202.7687179587795
 30
0.0
 10
131.4942820761909
 20
203.1551557892084
 30
0.0
 10
131.605373886341
 20
203.347572448693
 30
0.0
 11
130.16199821334
 21
200.8475724487
 31
0.0
 11
130.2132976496562
 21
200.9364256787528
 31
0.0
 11
130.2645996877804
 21
201.0252834153092
 31
0.0
 11
130.6016050913371
 21
201.6089938966946
 31
0.0
 11
130.9360439300713
 21
202.1882589574066
 31
0.0
 11
131.2720984558906
 21
202.7703224702389
 31
0.0
 11
131.605373886341
 21
203.347572448693
 31
0.0
  0
SPLINE
  5
DC
330
4A
100
AcDbEntity
  8
0
  6
Continuous
 62
     3
100
AcDbSpline
210
0.0
220
0.0
230
1.0
 70
    24
 71
     3
 72
    13
 73
     9
 74
     7
 42
0.0000000001
 43
0.0000000001
 44
0.00000001
 40
0.0
 40
0.0
 40
0.0
 40
0.0
 40
0.3639029039691479
 40
0.7294738601237896
 40
1.259224873249906
 40
1.794272558603438
 40
2.339558242199757
 40
2.886751345920999
 40
2.886751345920999
 40
2.886751345920999
 40
2.886751345920999
 10
131.605373886341
 20
193.347572448693
 30
0.0
 10
131.7266748543307
 20
193.347572448693
 30
0.0
 10
131.9698328077053
 20
193.347572448693
 30
0.0
 10
132.3895744321219
 20
193.347572448693
 30
0.0
 10
132.866364317
 20
193.347572448693
 30
0.0
 10
133.4030591110254
 20
193.3475724486931
 30
0.0
 10
133.945567935249
 20
193.3475724486925
 30
0.0
 10
134.3097275310216
 20
193.3475724486975
 30
0.0
 10
134.492125232262
 20
193.3475724487
 30
0.0
 11
131.605373886341
 21
193.347572448693
 31
0.0
 11
131.9692767903101
 21
193.347572448693
 31
0.0
 11
132.3348477464648
 21
193.347572448693
 31
0.0
 11
132.8645987595909
 21
193.347572448693
 31
0.0
 11
133.3996464449444
 21
193.347572448693
 31
0.0
 11
133.9449321285408
 21
193.3475724486939
 31
0.0
 11
134.492125232262
 21
193.3475724487
 31
0.0
  0
SPLINE
  5
DD
330
4A
100
AcDbEntity
  8
0
  6
Continuous
 62
     3
100
AcDbSpline
210
0.0
220
0.0
230
1.0
 70
    24
 71
     3
 72
    11
 73
     7
 74
     5
 42
0.0000000001
 43
0.0000000001
 44
0.00000001
 40
0.0
 40
0.0
 40
0.0
 40
0.0
 40
0.7042113812236913
 40
1.414301064825894
 40
2.147478289261862
 40
2.886751345967645
 40
2.886751345967645
 40
2.886751345967645
 40
2.886751345967645
 10
131.605373886341
 20
193.347572448693
 30
0.0
 10
131.4880053228039
 20
193.5508607639511
 30
0.0
 10
131.2522884786666
 20
193.9591343141975
 30
0.0
 10
130.8943754304559
 20
194.5790578983894
 30
0.0
 10
130.5306187696664
 20
195.209102916471
 30
0.0
 10
130.2852103894638
 20
195.6341626995567
 30
0.0
 10
130.16199821334
 20
195.8475724487
 30
0.0
 11
131.605373886341
 21
193.347572448693
 31
0.0
 11
131.2532681957295
 21
193.9574373944671
 31
0.0
 11
130.8982233539285
 21
194.5723930994318
 31
0.0
 11
130.5316347417081
 21
195.2073432012682
 31
0.0
 11
130.16199821334
 21
195.8475724487
 31
0.0
  0
SPLINE
  5
DE
330
4A
100
AcDbEntity
  8
0
  6
Continuous
 62
     3
100
AcDbSpline
210
0.0
220
0.0
230
1.0
 70
    24
 71
     3
 72
    11
 73
     7
 74
     5
 42
0.0000000001
 43
0.0000000001
 44
0.00000001
 40
0.0
 40
0.0
 40
0.0
 40
0.0
 40
0.7042113812234736
 40
1.414301064825426
 40
2.147478289259186
 40
2.886751345948103
 40
2.886751345948103
 40
2.886751345948103
 40
2.886751345948103
 10
137.378876578238
 20
203.347572448693
 30
0.0
 10
137.4962451417751
 20
203.1442841334351
 30
0.0
 10
137.7319619859125
 20
202.7360105831889
 30
0.0
 10
138.0898750341225
 20
202.1160869989976
 30
0.0
 10
138.45363169491
 20
201.4860419809222
 30
0.0
 10
138.6990400750971
 20
201.060982197835
 30
0.0
 10
138.822252251212
 20
200.847572448693
 30
0.0
 11
137.378876578238
 21
203.347572448693
 31
0.0
 11
137.7309822688495
 21
202.7377075029192
 31
0.0
 11
138.0860271106505
 21
202.1227517979547
 31
0.0
 11
138.4526157228675
 21
201.4878016961189
 31
0.0
 11
138.822252251212
 21
200.847572448693
 31
0.0
  0
SPLINE
  5
DF
330
4A
100
AcDbEntity
  8
0
  6
Continuous
 62
     3
100
AcDbSpline
210
0.0
220
0.0
230
1.0
 70
    24
 71
     3
 72
    13
 73
     9
 74
     7
 42
0.0000000001
 43
0.0000000001
 44
0.00000001
 40
0.0
 40
0.0
 40
0.0
 40
0.0
 40
0.3931294257357649
 40
0.785600485821135
 40
1.315487727775206
 40
1.840797842368772
 40
2.365491884404179
 40
2.886751345975995
 40
2.886751345975995
 40
2.886751345975995
 40
2.886751345975995
 10
134.492125232262
 20
203.3475724487
 30
0.0
 10
134.6231683741739
 20
203.3475724486975
 30
0.0
 10
134.885035202781
 20
203.3475724486925
 30
0.0
 10
135.3235311120394
 20
203.3475724486932
 30
0.0
 10
135.8060872509171
 20
203.3475724486929
 30
0.0
 10
136.3327177171114
 20
203.347572448693
 30
0.0
 10
136.8564722565116
 20
203.3475724486929
 30
0.0
 10
137.2051234243808
 20
203.347572448693
 30
0.0
 10
137.378876578238
 20
203.347572448693
 30
0.0
 11
134.492125232262
 21
203.3475724487
 31
0.0
 11
134.8852546579978
 21
203.3475724486939
 31
0.0
 11
135.2777257180831
 21
203.347572448693
 31
0.0
 11
135.8076129600372
 21
203.347572448693
 31
0.0
 11
136.3329230746308
 21
203.347572448693
 31
0.0
 11
136.8576171166662
 21
203.347572448693
 31
0.0
 11
137.378876578238
 21
203.347572448693
 31
0.0
  0
SPLINE
  5
E0
330
4A
100
AcDbEntity
  8
0
  6
Continuous
 62
     3
100
AcDbSpline
210
0.0
220
0.0
230
1.0
 70
    24
 71
     3
 72
    13
 73
     9
 74
     7
 42
0.0000000001
 43
0.0000000001
 44
0.00000001
 40
0.0
 40
0.0
 40
0.0
 40
0.0
 40
0.3931294257357933
 40
0.785600485821135
 40
1.315487727775235
 40
1.840797842368772
 40
2.365491884404207
 40
2.886751345975995
 40
2.886751345975995
 40
2.886751345975995
 40
2.886751345975995
 10
134.492125232262
 20
193.3475724487
 30
0.0
 10
134.6231683741739
 20
193.3475724486975
 30
0.0
 10
134.885035202781
 20
193.3475724486925
 30
0.0
 10
135.3235311120394
 20
193.3475724486933
 30
0.0
 10
135.806087250917
 20
193.3475724486929
 30
0.0
 10
136.3327177171114
 20
193.347572448693
 30
0.0
 10
136.8564722565117
 20
193.3475724486931
 30
0.0
 10
137.2051234243807
 20
193.347572448693
 30
0.0
 10
137.378876578238
 20
193.347572448693
 30
0.0
 11
134.492125232262
 21
193.3475724487
 31
0.0
 11
134.8852546579978
 21
193.3475724486939
 31
0.0
 11
135.2777257180831
 21
193.347572448693
 31
0.0
 11
135.8076129600372
 21
193.347572448693
 31
0.0
 11
136.3329230746308
 21
193.347572448693
 31
0.0
 11
136.8576171166662
 21
193.347572448693
 31
0.0
 11
137.378876578238
 21
193.347572448693
 31
0.0
  0
SPLINE
  5
E1
330
4A
100
AcDbEntity
  8
0
  6
Continuous
 62
     3
100
AcDbSpline
210
0.0
220
0.0
230
1.0
 70
    24
 71
     3
 72
    13
 73
     9
 74
     7
 42
0.0000000001
 43
0.0000000001
 44
0.00000001
 40
0.0
 40
0.0
 40
0.0
 40
0.0
 40
0.1025988725848326
 40
0.2052029488265877
 40
0.8792137559402058
 40
1.548091433408774
 40
2.220200485047039
 40
2.886751345948103
 40
2.886751345948103
 40
2.886751345948103
 40
2.886751345948103
 10
138.822252251212
 20
195.847572448693
 30
0.0
 10
138.8051524391145
 20
195.8179547053403
 30
0.0
 10
138.7709519476433
 20
195.7587177164687
 30
0.0
 10
138.6244163216533
 20
195.5049105671347
 30
0.0
 10
138.3835008948494
 20
195.0876328075833
 30
0.0
 10
138.047667972146
 20
194.5059531226065
 30
0.0
 10
137.7130783738113
 20
193.926426938607
 30
0.0
 10
137.4899683883881
 20
193.5399891081779
 30
0.0
 10
137.378876578238
 20
193.347572448693
 30
0.0
 11
138.822252251212
 21
195.847572448693
 31
0.0
 11
138.7709528149194
 21
195.758719218635
 31
0.0
 11
138.7196507767986
 21
195.6698614820778
 31
0.0
 11
138.3826453732419
 21
195.0861510006921
 31
0.0
 11
138.0482065345076
 21
194.5068859399799
 31
0.0
 11
137.7121520086885
 21
193.9248224271477
 31
0.0
 11
137.378876578238
 21
193.347572448693
 31
0.0
  0
SPLINE
  5
E2
330
4A
100
AcDbEntity
  8
0
  6
Continuous
 62
     3
100
AcDbSpline
210
0.0
220
0.0
230
1.0
 70
    24
 71
     3
 72
    11
 73
     7
 74
     5
 42
0.0000000001
 43
0.0000000001
 44
0.00000001
 40
0.0
 40
0.0
 40
0.0
 40
0.0
 40
0.7042113812241073
 40
1.414301064826263
 40
2.147478289259589
 40
2.88675134594809
 40
2.88675134594809
 40
2.88675134594809
 40
2.88675134594809
 10
140.265627924186
 20
198.347572448693
 30
0.0
 10
140.1482593606485
 20
198.144284133435
 30
0.0
 10
139.9125425165105
 20
197.7360105831889
 30
0.0
 10
139.5546294683009
 20
197.1160869989972
 30
0.0
 10
139.1908728075137
 20
196.4860419809219
 30
0.0
 10
138.9454644273267
 20
196.0609821978348
 30
0.0
 10
138.822252251212
 20
195.847572448693
 30
0.0
 11
140.265627924186
 21
198.347572448693
 31
0.0
 11
139.9135222335736
 21
197.737707502919
 31
0.0
 11
139.5584773917727
 21
197.1227517979542
 31
0.0
 11
139.1918887795562
 21
196.4878016961187
 31
0.0
 11
138.822252251212
 21
195.847572448693
 31
0.0
  0
SPLINE
  5
E3
330
4A
100
AcDbEntity
  8
0
  6
Continuous
 62
     3
100
AcDbSpline
210
0.0
220
0.0
230
1.0
 70
    24
 71
     3
 72
    13
 73
     9
 74
     7
 42
0.0000000001
 43
0.0000000001
 44
0.00000001
 40
0.0
 40
0.0
 40
0.0
 40
0.0
 40
0.1025988725848572
 40
0.2052029488265877
 40
0.8792137559401565
 40
1.548091433408774
 40
2.220200485047039
 40
2.886751345948089
 40
2.886751345948089
 40
2.886751345948089
 40
2.886751345948089
 10
138.822252251212
 20
200.847572448693
 30
0.0
 10
138.8393520633095
 20
200.8179547053403
 30
0.0
 10
138.8735525547808
 20
200.7587177164686
 30
0.0
 10
139.0200881807705
 20
200.5049105671349
 30
0.0
 10
139.2610036075747
 20
200.0876328075833
 30
0.0
 10
139.5968365302779
 20
199.5059531226065
 30
0.0
 10
139.9314261286127
 20
198.926426938607
 30
0.0
 10
140.1545361140359
 20
198.5399891081779
 30
0.0
 10
140.265627924186
 20
198.347572448693
 30
0.0
 11
138.822252251212
 21
200.847572448693
 31
0.0
 11
138.8735516875046
 21
200.758719218635
 31
0.0
 11
138.9248537256254
 21
200.6698614820778
 31
0.0
 11
139.2618591291821
 21
200.0861510006921
 31
0.0
 11
139.5962979679164
 21
199.5068859399799
 31
0.0
 11
139.9323524937356
 21
198.9248224271477
 31
0.0
 11
140.265627924186
 21
198.347572448693
 31
0.0
  0
SPLINE
  5
E4
330
4A
100
AcDbEntity
  8
0
  6
Continuous
 62
     1
100
AcDbSpline
210
0.0
220
0.0
230
1.0
 70
     8
 71
     3
 72
    15
 73
    11
 74
     9
 42
0.0000000001
 43
0.0000000001
 44
0.00000001
 40
0.0
 40
0.0
 40
0.0
 40
0.0
 40
0.0302172904762975
 40
0.1121858086908206
 40
0.2314183326024074
 40
0.3763102615057147
 40
0.5369038326340115
 40
0.7082458972071255
 40
0.887469669255746
 40
1.0709046841728
 40
1.0709046841728
 40
1.0709046841728
 40
1.0709046841728
 10
150.7228523875621
 20
185.8475724487
 30
0.0
 10
150.7155574686812
 20
185.8406270459415
 30
0.0
 10
150.6884740882359
 20
185.8148412917303
 30
0.0
 10
150.6332554477459
 20
185.7609726235086
 30
0.0
 10
150.5517654880595
 20
185.6793055458724
 30
0.0
 10
150.4538492548255
 20
185.5770374228939
 30
0.0
 10
150.3467219630075
 20
185.4595960726957
 30
0.0
 10
150.2353395814244
 20
185.3306335349066
 30
0.0
 10
150.1226799647052
 20
185.1927707019634
 30
0.0
 10
150.0497570588101
 20
185.0963451021507
 30
0.0
 10
150.012872210541
 20
185.047572448693
 30
0.0
 11
150.7228523875621
 21
185.8475724487
 31
0.0
 11
150.7009904671643
 21
185.8267124132195
 31
0.0
 11
150.642252280626
 21
185.769540187266
 31
0.0
 11
150.5580715974908
 21
185.6851008164416
 31
0.0
 11
150.4578730817075
 21
185.580439799362
 31
0.0
 11
150.3496624312026
 21
185.4617774624346
 31
0.0
 11
150.2376372630135
 21
185.332129998964
 31
0.0
 11
150.1244447616707
 21
185.1931745452851
 31
0.0
 11
150.012872210541
 21
185.047572448693
 31
0.0
  0
SPLINE
  5
E5
330
4A
100
AcDbEntity
  8
0
  6
Continuous
 62
     1
100
AcDbSpline
210
0.0
220
0.0
230
1.0
 70
     8
 71
     3
 72
    11
 73
     7
 74
     5
 42
0.0000000001
 43
0.0000000001
 44
0.00000001
 40
0.0
 40
0.0
 40
0.0
 40
0.0
 40
0.6600063114380608
 40
1.349019076370786
 40
2.750985177516776
 40
4.186653162595536
 40
4.186653162595536
 40
4.186653162595536
 40
4.186653162595536
 10
150.012872210541
 20
185.047572448693
 30
0.0
 10
149.886963670852
 20
184.8670096885838
 30
0.0
 10
149.6296130683278
 20
184.497948660457
 30
0.0
 10
149.1764801236542
 20
183.7000335299244
 30
0.0
 10
148.6200087791004
 20
182.6633500221538
 30
0.0
 10
148.2561192753312
 20
181.7896239831276
 30
0.0
 10
148.0720136102619
 20
181.3475724487
 30
0.0
 11
150.012872210541
 21
185.047572448693
 31
0.0
 11
149.643559003663
 21
184.5005659712509
 31
0.0
 11
149.2954878923293
 21
183.9059357570042
 31
0.0
 11
148.6457971123313
 21
182.6635948862493
 31
0.0
 11
148.0720136102619
 21
181.3475724487
 31
0.0
  0
MTEXT
  5
EA
330
4A
100
AcDbEntity
  8
0
 62
     3
100
AcDbMText
 10
111.312050296562
 20
269.0
 30
0.0
 40
3.5
 41
0.0
 71
     1
 72
     1
  1
Schwenkbereich ca 2x60{\Fgdt;~}
  7
CONVERTER_13
 73
     1
 44
1.0
  0
DIMENSION
  5
F8
330
4A
100
AcDbEntity
  8
1
100
AcDbDimension
  2
*D7
 10
181.663754280671
 20
185.8475724487
 30
0.0
 11
177.913754280671
 21
183.562816058272
 31
0.0
 70
    32
  1
<>
 71
     5
 42
-1.0
 53
90.0
  3
ME10_DIM_10
100
AcDbAlignedDimension
 13
161.992125232262
 23
180.8475724487
 33
0.0
 14
160.842125232262
 24
185.8475724487
 34
0.0
 50
90.0
100
AcDbRotatedDimension
  0
DIMENSION
  5
105
330
4A
100
AcDbEntity
  8
1
100
AcDbDimension
  2
*D8
 10
173.663754280671
 20
185.8475724487
 30
0.0
 11
169.913754280671
 21
192.775724693071
 31
0.0
 70
    32
  1
<>
 71
     5
 42
-1.0
 53
90.0
  3
ME10_DIM_11
100
AcDbAlignedDimension
 13
158.742125232262
 23
183.7475724487
 33
0.0
 14
160.842125232262
 24
185.8475724487
 34
0.0
 50
90.0
100
AcDbRotatedDimension
  0
DIMENSION
  5
112
330
4A
100
AcDbEntity
  8
1
100
AcDbDimension
  2
*D9
 10
154.242125232262
 20
172.8475724487
 30
0.0
 11
144.992125232262
 21
176.5975724487
 31
0.0
 70
    32
  1
<>
 71
     5
 42
-1.0
 53
0.00013888888889
  3
ME10_DIM_12
100
AcDbAlignedDimension
 13
158.742125232262
 23
180.8475724487
 33
0.0
 14
154.242125232262
 24
180.8475724487
 34
0.0
100
AcDbRotatedDimension
  0
DIMENSION
  5
11F
330
4A
100
AcDbEntity
  8
1
100
AcDbDimension
  2
*D10
 10
189.663754280671
 20
230.8475724487
 30
0.0
 11
185.913754280671
 21
204.037341195739
 31
0.0
 70
    32
  1
<>
 71
     5
 42
-1.0
 53
90.0
  3
ME10_DIM_13
100
AcDbAlignedDimension
 13
161.992125232262
 23
180.8475724487
 33
0.0
 14
161.992125232262
 24
230.8475724487
 34
0.0
 50
90.0
100
AcDbRotatedDimension
  0
DIMENSION
  5
12C
330
4A
100
AcDbEntity
  8
1
100
AcDbDimension
  2
*D11
 10
169.992125232262
 20
225.8475724487
 30
0.0
 11
166.242125232262
 21
237.433480016005
 31
0.0
 70
    32
  1
<>
 71
     5
 42
-1.0
 53
90.0
  3
ME10_DIM_14
100
AcDbAlignedDimension
 13
161.992125232262
 23
230.8475724487
 33
0.0
 14
161.992125232262
 24
225.8475724487
 34
0.0
 50
90.0
100
AcDbRotatedDimension
  0
DIMENSION
  5
137
330
4A
100
AcDbEntity
  8
1
100
AcDbDimension
  2
*D12
 10
106.992125232262
 20
238.8475724487
 30
0.0
 11
134.492125232262
 21
242.5975724487
 31
0.0
 70
    32
  1
<>
 71
     5
 42
-1.0
 53
0.00013888888889
  3
ME10_DIM_15
100
AcDbAlignedDimension
 13
161.992125232262
 23
230.8475724487
 33
0.0
 14
106.992125232262
 24
230.8475724487
 34
0.0
100
AcDbRotatedDimension
  0
DIMENSION
  5
144
330
4A
100
AcDbEntity
  8
1
100
AcDbDimension
  2
*D13
 10
156.4921252322621
 20
195.6987523864101
 30
0.0
 11
157.0126925125904
 21
199.4412028189093
 31
0.0
 70
    37
  1
<>
 71
     5
 42
-1.0
  3
ME10_DIM_16
100
AcDb3PointAngularDimension
 13
158.742125232262
 23
183.7475724487
 33
0.0
 14
152.1421252322621
 24
185.8475724487
 34
0.0
 15
156.4921252322619
 25
181.4975724486999
 35
0.0
  0
DIMENSION
  5
153
330
4A
100
AcDbEntity
  8
1
100
AcDbDimension
  2
*D14
 10
162.7236132661745
 20
247.2459440967092
 30
0.0
 11
165.9768510542936
 21
249.67314625802
 31
0.0
 70
    37
  1
<>
 71
     5
 42
-1.0
  3
ME10_DIM_17
100
AcDb3PointAngularDimension
 13
160.1923253361946
 23
213.1855898969328
 33
0.0
 14
134.492125232262
 24
232.789544194672
 34
0.0
 15
134.492125232262
 25
198.3475724487001
 35
0.0
  0
DIMENSION
  5
161
330
4A
100
AcDbEntity
  8
1
100
AcDbDimension
  2
*D15
 10
106.2771635694477
 20
247.2173195823025
 30
0.0
 11
102.6131350962793
 21
249.3902326398427
 31
0.0
 70
    37
  1
<>
 71
     5
 42
-1.0
  3
ME10_DIM_18
100
AcDb3PointAngularDimension
 13
134.492125232262
 23
232.789544194672
 33
0.0
 14
110.5626632006413
 24
212.1632537942192
 34
0.0
 15
134.492125232262
 25
198.3475724487
 35
0.0
  0
HATCH
  5
162
330
4A
100
AcDbEntity
  8
0
  6
Continuous
 62
     3
100
AcDbHatch
 10
0.0
 20
0.0
 30
0.0
210
0.0
220
0.0
230
1.0
  2
CUSTOM0
 70
     0
 71
     0
 91
        1
 92
        1
 93
       13
 72
     1
 10
158.742125232262
 20
180.8475724487
 11
161.992125232262
 21
180.8475724487
 72
     1
 10
161.992125232262
 20
180.8475724487
 11
161.992125232262
 21
185.0475724487001
 72
     1
 10
161.992125232262
 20
185.0475724487001
 11
161.976178494562
 21
185.206507913329
 72
     1
 10
161.976178494562
 20
185.206507913329
 11
161.928974027492
 21
185.35910712254
 72
     1
 10
161.928974027492
 20
185.35910712254
 11
161.852393724217
 21
185.4992864274091
 72
     1
 10
161.852393724217
 20
185.4992864274091
 11
161.749490599767
 21
185.621457321412
 72
     1
 10
161.749490599767
 20
185.621457321412
 11
161.624367076984
 21
185.720749236539
 72
     1
 10
161.624367076984
 20
185.720749236539
 11
161.482011435871
 21
185.793203717467
 72
     1
 10
161.482011435871
 20
185.793203717467
 11
161.32809894661
 21
185.835932232683
 72
     1
 10
161.32809894661
 20
185.835932232683
 11
161.192125232262
 21
185.8475724487
 72
     1
 10
161.192125232262
 20
185.8475724487
 11
160.842125232262
 21
185.8475724487
 72
     1
 10
160.842125232262
 20
185.8475724487
 11
158.742125232262
 21
183.7475724487
 72
     1
 10
158.742125232262
 20
183.7475724487
 11
158.742125232262
 21
180.8475724487
 97
        0
 75
     1
 76
     2
 52
0.0
 41
0.6666666667
 77
     0
 78
     2
 53
134.9999999999997
 43
0.0
 44
0.0
 45
-0.0000000000000148
 46
-2.993418707023051
 79
     0
 53
44.99999999999998
 43
0.0
 44
0.0
 45
-2.993418707023051
 46
0.0000000000000012
 79
     0
 98
        1
 10
0.0
 20
0.0
  0
HATCH
  5
163
330
4A
100
AcDbEntity
  8
0
  6
Continuous
 62
     3
100
AcDbHatch
 10
0.0
 20
0.0
 30
0.0
210
0.0
220
0.0
230
1.0
  2
CUSTOM1
 70
     0
 71
     0
 91
        1
 92
        1
 93
       19
 72
     1
 10
152.1421252322621
 20
185.8475724487
 11
150.7228523670621
 21
185.8475724292
 72
     1
 10
150.7228523670621
 20
185.8475724292
 11
150.503582888699
 21
185.628784733276
 72
     1
 10
150.503582888699
 20
185.628784733276
 11
150.295408483087
 21
185.399903322708
 72
     1
 10
150.295408483087
 20
185.399903322708
 11
150.0988293095051
 21
185.160587534018
 72
     1
 10
150.0988293095051
 20
185.160587534018
 11
149.884642576671
 21
184.868862761605
 72
     1
 10
149.884642576671
 20
184.868862761605
 11
149.682336302669
 21
184.5625367184221
 72
     1
 10
149.682336302669
 20
184.5625367184221
 11
149.487441177792
 21
184.241573138784
 72
     1
 10
149.487441177792
 20
184.241573138784
 11
149.295487892329
 21
183.905935757004
 72
     1
 10
149.295487892329
 20
183.905935757004
 11
149.076278103673
 21
183.506076377752
 72
     1
 10
149.076278103673
 20
183.506076377752
 11
148.858556921006
 21
183.09074927345
 72
     1
 10
148.858556921006
 20
183.09074927345
 11
148.645797112328
 21
182.663594886244
 72
     1
 10
148.645797112328
 20
182.663594886244
 11
148.441471445641
 21
182.228253658279
 72
     1
 10
148.441471445641
 20
182.228253658279
 11
148.249052688944
 21
181.788366031701
 72
     1
 10
148.249052688944
 20
181.788366031701
 11
148.0720136102619
 21
181.3475724487
 72
     1
 10
148.0720136102619
 20
181.3475724487
 11
148.992125232262
 21
181.3475724487
 72
     1
 10
148.992125232262
 20
181.3475724487
 11
148.992125232262
 21
180.8475724487
 72
     1
 10
148.992125232262
 20
180.8475724487
 11
154.242125232262
 21
180.8475724487
 72
     1
 10
154.242125232262
 20
180.8475724487
 11
154.242125232262
 21
183.7475724487
 72
     1
 10
154.242125232262
 20
183.7475724487
 11
152.1421252322621
 21
185.8475724487
 97
        0
 75
     1
 76
     2
 52
0.0
 41
0.6666666667
 77
     0
 78
     2
 53
134.9999999999997
 43
0.0
 44
0.0
 45
-0.0000000000000148
 46
-2.993418707023051
 79
     0
 53
44.99999999999998
 43
0.0
 44
0.0
 45
-2.993418707023051
 46
0.0000000000000012
 79
     0
 98
        1
 10
0.0
 20
0.0
  0
HATCH
  5
164
330
4A
100
AcDbEntity
  8
0
  6
Continuous
 62
     7
100
AcDbHatch
 10
0.0
 20
0.0
 30
0.0
210
0.0
220
0.0
230
1.0
  2
CUSTOM2
 70
     0
 71
     0
 91
        1
 92
        1
 93
       59
 72
     1
 10
148.0720136102619
 20
181.3475724487
 11
148.249052688944
 21
181.788366031701
 72
     1
 10
148.249052688944
 20
181.788366031701
 11
148.441471445641
 21
182.228253658279
 72
     1
 10
148.441471445641
 20
182.228253658279
 11
148.645797112328
 21
182.663594886244
 72
     1
 10
148.645797112328
 20
182.663594886244
 11
148.858556921006
 21
183.09074927345
 72
     1
 10
148.858556921006
 20
183.09074927345
 11
149.076278103673
 21
183.506076377752
 72
     1
 10
149.076278103673
 20
183.506076377752
 11
149.295487892329
 21
183.905935757004
 72
     1
 10
149.295487892329
 20
183.905935757004
 11
149.487441177792
 21
184.241573138784
 72
     1
 10
149.487441177792
 20
184.241573138784
 11
149.682336302669
 21
184.5625367184221
 72
     1
 10
149.682336302669
 20
184.5625367184221
 11
149.884642576671
 21
184.868862761605
 72
     1
 10
149.884642576671
 20
184.868862761605
 11
150.0988293095051
 21
185.160587534018
 72
     1
 10
150.0988293095051
 20
185.160587534018
 11
150.295408483087
 21
185.399903322708
 72
     1
 10
150.295408483087
 20
185.399903322708
 11
150.503582888699
 21
185.628784733276
 72
     1
 10
150.503582888699
 20
185.628784733276
 11
150.7228523670621
 21
185.8475724292
 72
     1
 10
150.7228523670621
 20
185.8475724292
 11
150.7228523875621
 21
185.8475724487
 72
     1
 10
150.7228523875621
 20
185.8475724487
 11
150.722366528872
 21
185.847111566625
 72
     1
 10
150.722366528872
 20
185.847111566625
 11
150.7209271654131
 21
185.845743834254
 72
     1
 10
150.7209271654131
 20
185.845743834254
 11
150.718561616082
 21
185.84349162233
 72
     1
 10
150.718561616082
 20
185.84349162233
 11
150.7152971997761
 21
185.8403773016009
 72
     1
 10
150.7152971997761
 20
185.8403773016009
 11
150.711161235397
 21
185.836423242818
 72
     1
 10
150.711161235397
 20
185.836423242818
 11
150.7061810418441
 21
185.831651816727
 72
     1
 10
150.7061810418441
 20
185.831651816727
 11
150.700383938017
 21
185.82608539408
 72
     1
 10
150.700383938017
 20
185.82608539408
 11
150.693797242815
 21
185.819746345626
 72
     1
 10
150.693797242815
 20
185.819746345626
 11
150.6853826734561
 21
185.81162440719
 72
     1
 10
150.6853826734561
 20
185.81162440719
 11
150.67602729714
 21
185.802560369616
 72
     1
 10
150.67602729714
 20
185.802560369616
 11
150.665796631678
 21
185.792607373908
 72
     1
 10
150.665796631678
 20
185.792607373908
 11
150.654756194883
 21
185.781818561073
 72
     1
 10
150.654756194883
 20
185.781818561073
 11
150.642971504565
 21
185.770247072116
 72
     1
 10
150.642971504565
 20
185.770247072116
 11
150.630508078536
 21
185.757946048043
 72
     1
 10
150.630508078536
 20
185.757946048043
 11
150.61743143461
 21
185.7449686298601
 72
     1
 10
150.61743143461
 20
185.7449686298601
 11
150.599749312438
 21
185.727299257985
 72
     1
 10
150.599749312438
 20
185.727299257985
 11
150.581152938487
 21
185.708565390181
 72
     1
 10
150.581152938487
 20
185.708565390181
 11
150.561733531974
 21
185.688839826419
 72
     1
 10
150.561733531974
 20
185.688839826419
 11
150.541582312114
 21
185.668195366669
 72
     1
 10
150.541582312114
 20
185.668195366669
 11
150.520790498122
 21
185.6467048109009
 72
     1
 10
150.520790498122
 20
185.6467048109009
 11
150.499449309213
 21
185.624440959085
 72
     1
 10
150.499449309213
 20
185.624440959085
 11
150.4776499646021
 21
185.601476611192
 72
     1
 10
150.4776499646021
 20
185.601476611192
 11
150.455483683504
 21
185.577884567191
 72
     1
 10
150.455483683504
 20
185.577884567191
 11
150.429097728087
 21
185.549468773165
 72
     1
 10
150.429097728087
 20
185.549468773165
 11
150.402222056502
 21
185.520151610589
 72
     1
 10
150.402222056502
 20
185.520151610589
 11
150.374932119073
 21
185.489996469254
 72
     1
 10
150.374932119073
 20
185.489996469254
 11
150.347303366122
 21
185.4590667389521
 72
     1
 10
150.347303366122
 20
185.4590667389521
 11
150.319411247974
 21
185.427425809473
 72
     1
 10
150.319411247974
 20
185.427425809473
 11
150.29133121495
 21
185.39513707061
 72
     1
 10
150.29133121495
 20
185.39513707061
 11
150.263138717375
 21
185.3622639121541
 72
     1
 10
150.263138717375
 20
185.3622639121541
 11
150.2349092055711
 21
185.328869723897
 72
     1
 10
150.2349092055711
 20
185.328869723897
 11
150.206718129861
 21
185.295017895629
 72
     1
 10
150.206718129861
 20
185.295017895629
 11
150.167548679381
 21
185.247104138277
 72
     1
 10
150.167548679381
 20
185.247104138277
 11
150.128431864743
 21
185.198223014248
 72
     1
 10
150.128431864743
 20
185.198223014248
 11
150.089515183413
 21
185.1485542242
 72
     1
 10
150.089515183413
 20
185.1485542242
 11
150.050946132857
 21
185.098277468795
 72
     1
 10
150.050946132857
 20
185.098277468795
 11
150.012872210541
 21
185.047572448693
 72
     1
 10
150.012872210541
 20
185.047572448693
 11
149.763008884079
 21
184.688182487687
 72
     1
 10
149.763008884079
 20
184.688182487687
 11
149.526469356085
 21
184.307657928503
 72
     1
 10
149.526469356085
 20
184.307657928503
 11
149.295487892329
 21
183.905935757004
 72
     1
 10
149.295487892329
 20
183.905935757004
 11
149.032503650084
 21
183.424131880747
 72
     1
 10
149.032503650084
 20
183.424131880747
 11
148.772663157648
 21
182.921102927756
 72
     1
 10
148.772663157648
 20
182.921102927756
 11
148.521967358125
 21
182.403139582059
 72
     1
 10
148.521967358125
 20
182.403139582059
 11
148.28641719462
 21
181.876532527683
 72
     1
 10
148.28641719462
 20
181.876532527683
 11
148.0720136102619
 21
181.3475724487
 97
        0
 75
     1
 76
     2
 52
0.0
 41
0.6666666667
 77
     0
 78
     2
 53
44.99999999999998
 43
0.0
 44
0.0
 45
-2.993418707023051
 46
0.0000000000000012
 79
     0
 53
134.9999999999997
 43
0.0
 44
0.0
 45
-0.0000000000000148
 46
-2.993418707023051
 79
     0
 98
        1
 10
0.0
 20
0.0
  0
ENDBLK
  5
4C
330
4A
100
AcDbEntity
  8
0
100
AcDbBlockEnd
  0
BLOCK
  5
4E
330
4D
100
AcDbEntity
  8
0
100
AcDbBlockBegin
  2
Vorderansicht
 70
     0
 10
102.7196622702749
 20
86.87107781119687
 30
0.0
  3
Vorderansicht
  1

  0
LINE
  5
165
330
4D
100
AcDbEntity
  8
1
  6
DOT_CENTER
 62
     3
100
AcDbLine
 10
132.7196622702749
 20
158.7002590551654
 30
0.0
 11
132.7196622702749
 21
102.7002590551654
 31
0.0
  0
LINE
  5
166
330
4D
100
AcDbEntity
  8
1
  6
DOT_CENTER
 62
     3
100
AcDbLine
 10
160.7196622702749
 20
130.7002590551654
 30
0.0
 11
104.7196622702749
 21
130.7002590551654
 31
0.0
  0
LINE
  5
167
330
4D
100
AcDbEntity
  8
1
  6
DOT_CENTER
 62
     3
100
AcDbLine
 10
154.7196622702749
 20
113.5502590551654
 30
0.0
 11
154.7196622702749
 21
103.8502590551653
 31
0.0
  0
LINE
  5
168
330
4D
100
AcDbEntity
  8
1
  6
DOT_CENTER
 62
     3
100
AcDbLine
 10
159.5696622702749
 20
108.7002590551654
 30
0.0
 11
149.8696622702749
 21
108.7002590551654
 31
0.0
  0
LINE
  5
169
330
4D
100
AcDbEntity
  8
1
  6
DOT_CENTER
 62
     3
100
AcDbLine
 10
110.7196622702749
 20
113.5502590551651
 30
0.0
 11
110.7196622702749
 21
103.8502590551656
 31
0.0
  0
LINE
  5
16A
330
4D
100
AcDbEntity
  8
1
  6
DOT_CENTER
 62
     3
100
AcDbLine
 10
115.5696622702747
 20
108.7002590551654
 30
0.0
 11
105.8696622702752
 21
108.7002590551654
 31
0.0
  0
LINE
  5
16B
330
4D
100
AcDbEntity
  8
1
  6
DOT_CENTER
 62
     3
100
AcDbLine
 10
110.7196622702749
 20
157.5502590551654
 30
0.0
 11
110.7196622702749
 21
147.8502590551653
 31
0.0
  0
LINE
  5
16C
330
4D
100
AcDbEntity
  8
1
  6
DOT_CENTER
 62
     3
100
AcDbLine
 10
115.5696622702749
 20
152.7002590551654
 30
0.0
 11
105.8696622702749
 21
152.7002590551654
 31
0.0
  0
LINE
  5
16D
330
4D
100
AcDbEntity
  8
1
  6
DOT_CENTER
 62
     3
100
AcDbLine
 10
154.7196622702749
 20
157.5502590551651
 30
0.0
 11
154.7196622702749
 21
147.8502590551656
 31
0.0
  0
LINE
  5
16E
330
4D
100
AcDbEntity
  8
1
  6
DOT_CENTER
 62
     3
100
AcDbLine
 10
159.5696622702747
 20
152.7002590551654
 30
0.0
 11
149.8696622702752
 21
152.7002590551654
 31
0.0
  0
LINE
  5
16F
330
4D
100
AcDbEntity
  8
0
  6
Continuous
 62
     1
100
AcDbLine
 10
154.0862971906749
 20
148.3966154039654
 30
0.0
 11
154.7196622702749
 21
148.3502590551653
 31
0.0
  0
LINE
  5
170
330
4D
100
AcDbEntity
  8
0
  6
Continuous
 62
     1
100
AcDbLine
 10
153.7077780024749
 20
148.4695865047653
 30
0.0
 11
154.0862971906749
 21
148.3966154039654
 31
0.0
  0
LINE
  5
171
330
4D
100
AcDbEntity
  8
0
  6
Continuous
 62
     1
100
AcDbLine
 10
111.353027349975
 20
148.3966154039654
 30
0.0
 11
111.731546538075
 21
148.4695865047653
 31
0.0
  0
LINE
  5
172
330
4D
100
AcDbEntity
  8
0
  6
Continuous
 62
     1
100
AcDbLine
 10
110.7196622702749
 20
148.3502590551653
 30
0.0
 11
111.353027349975
 21
148.3966154039654
 31
0.0
  0
LINE
  5
173
330
4D
100
AcDbEntity
  8
0
  6
Continuous
 62
     1
100
AcDbLine
 10
160.2196622702749
 20
156.2002590551654
 30
0.0
 11
160.2196622702749
 21
105.2002590551654
 31
0.0
  0
LINE
  5
174
330
4D
100
AcDbEntity
  8
0
  6
Continuous
 62
     1
100
AcDbLine
 10
105.2196622702749
 20
105.2002590551654
 30
0.0
 11
105.2196622702749
 21
156.2002590551654
 31
0.0
  0
LINE
  5
175
330
4D
100
AcDbEntity
  8
0
  6
Continuous
 62
     1
100
AcDbLine
 10
107.2196622702749
 20
158.2002590551654
 30
0.0
 11
158.2196622702749
 21
158.2002590551654
 31
0.0
  0
LINE
  5
176
330
4D
100
AcDbEntity
  8
0
  6
Continuous
 62
     1
100
AcDbLine
 10
158.2196622702749
 20
103.2002590551654
 30
0.0
 11
107.2196622702749
 21
103.2002590551654
 31
0.0
  0
ARC
  5
177
330
4D
100
AcDbEntity
  8
0
  6
Continuous
 62
     1
100
AcDbCircle
 10
158.2196622702749
 20
105.2002590551654
 30
0.0
 40
2.0
100
AcDbArc
 50
270.0
 51
0.0
  0
ARC
  5
178
330
4D
100
AcDbEntity
  8
0
  6
Continuous
 62
     1
100
AcDbCircle
 10
158.2196622702749
 20
156.2002590551654
 30
0.0
 40
2.0
100
AcDbArc
 50
0.0
 51
90.0
  0
ARC
  5
179
330
4D
100
AcDbEntity
  8
0
  6
Continuous
 62
     1
100
AcDbCircle
 10
107.2196622702749
 20
105.2002590551654
 30
0.0
 40
2.0
100
AcDbArc
 50
180.0
 51
270.0
  0
ARC
  5
17A
330
4D
100
AcDbEntity
  8
0
  6
Continuous
 62
     1
100
AcDbCircle
 10
154.7196622702749
 20
152.7002590551654
 30
0.0
 40
4.35000000000008
100
AcDbArc
 50
270.0
 51
193.4511989006949
  0
ARC
  5
17B
330
4D
100
AcDbEntity
  8
0
  6
Continuous
 62
     1
100
AcDbCircle
 10
110.7196622702749
 20
152.7002590551654
 30
0.0
 40
4.349999999999802
100
AcDbArc
 50
346.5488010993054
 51
270.0
  0
ARC
  5
17C
330
4D
100
AcDbEntity
  8
0
  6
Continuous
 62
     1
100
AcDbCircle
 10
110.7196622702749
 20
108.7002590551654
 30
0.0
 40
4.349999999999695
100
AcDbArc
 50
76.54880109930485
 51
270.0
  0
ARC
  5
17D
330
4D
100
AcDbEntity
  8
0
  6
Continuous
 62
     1
100
AcDbCircle
 10
110.7196622702749
 20
108.7002590551654
 30
0.0
 40
4.350000000000108
100
AcDbArc
 50
270.0
 51
13.45119890069461
  0
ARC
  5
17E
330
4D
100
AcDbEntity
  8
0
  6
Continuous
 62
     1
100
AcDbCircle
 10
154.7196622702749
 20
108.7002590551654
 30
0.0
 40
4.349999999999719
100
AcDbArc
 50
166.5488010993051
 51
270.0
  0
ARC
  5
17F
330
4D
100
AcDbEntity
  8
0
  6
Continuous
 62
     1
100
AcDbCircle
 10
154.7196622702749
 20
108.7002590551654
 30
0.0
 40
4.350000000000108
100
AcDbArc
 50
270.0
 51
103.451198900695
  0
ARC
  5
180
330
4D
100
AcDbEntity
  8
0
  6
Continuous
 62
     1
100
AcDbCircle
 10
107.2196622702749
 20
156.2002590551654
 30
0.0
 40
2.0
100
AcDbArc
 50
90.0
 51
180.0
  0
CIRCLE
  5
181
330
4D
100
AcDbEntity
  8
0
  6
Continuous
 62
     1
100
AcDbCircle
 10
132.7196622702749
 20
130.7002590551654
 30
0.0
 40
27.5
  0
CIRCLE
  5
182
330
4D
100
AcDbEntity
  8
0
  6
Continuous
 62
     1
100
AcDbCircle
 10
154.7196622702749
 20
108.7002590551654
 30
0.0
 40
2.25
  0
CIRCLE
  5
183
330
4D
100
AcDbEntity
  8
0
  6
Continuous
 62
     1
100
AcDbCircle
 10
154.7196622702749
 20
152.7002590551654
 30
0.0
 40
2.25
  0
CIRCLE
  5
184
330
4D
100
AcDbEntity
  8
0
  6
Continuous
 62
     1
100
AcDbCircle
 10
110.7196622702749
 20
108.7002590551654
 30
0.0
 40
2.25
  0
CIRCLE
  5
185
330
4D
100
AcDbEntity
  8
0
  6
Continuous
 62
     1
100
AcDbCircle
 10
110.7196622702749
 20
152.7002590551654
 30
0.0
 40
2.25
  0
DIMENSION
  5
190
330
4D
100
AcDbEntity
  8
1
100
AcDbDimension
  2
*D16
 10
178.2196622702749
 20
103.2002590551653
 30
0.0
 11
174.4696622702749
 21
131.091311424891
 31
0.0
 70
    32
  1
<>
 71
     5
 42
-1.0
 53
90.0
  3
ME10_DIM_19
100
AcDbAlignedDimension
 13
158.2196622702749
 23
158.2002590551654
 33
0.0
 14
158.2196622702749
 24
103.2002590551654
 34
0.0
 50
90.0
100
AcDbRotatedDimension
  0
DIMENSION
  5
19B
330
4D
100
AcDbEntity
  8
1
100
AcDbDimension
  2
*D17
 10
170.2196622702749
 20
108.7002590551653
 30
0.0
 11
166.4696622702749
 21
131.091311424891
 31
0.0
 70
    32
  1
<>
 71
     5
 42
-1.0
 53
90.0
  3
ME10_DIM_20
100
AcDbAlignedDimension
 13
159.5696622702747
 23
152.7002590551654
 33
0.0
 14
159.5696622702749
 24
108.7002590551654
 34
0.0
 50
90.0
100
AcDbRotatedDimension
  0
DIMENSION
  5
1A6
330
4D
100
AcDbEntity
  8
1
100
AcDbDimension
  2
*D18
 10
105.2196622702749
 20
85.1665300817669
 30
0.0
 11
132.169474618771
 21
88.9165300817669
 31
0.0
 70
    32
  1
<>
 71
     5
 42
-1.0
 53
0.00013888888889
  3
ME10_DIM_21
100
AcDbAlignedDimension
 13
160.2196622702749
 23
105.2002590551654
 33
0.0
 14
105.2196622702749
 24
105.2002590551654
 34
0.0
100
AcDbRotatedDimension
  0
DIMENSION
  5
1B1
330
4D
100
AcDbEntity
  8
1
100
AcDbDimension
  2
*D19
 10
110.7196622702749
 20
93.1665300817669
 30
0.0
 11
132.39441366781
 21
96.9165300817669
 31
0.0
 70
    32
  1
<>
 71
     5
 42
-1.0
 53
0.00013888888889
  3
ME10_DIM_22
100
AcDbAlignedDimension
 13
154.7196622702749
 23
103.8502590551653
 33
0.0
 14
110.7196622702749
 24
103.8502590551656
 34
0.0
100
AcDbRotatedDimension
  0
ENDBLK
  5
4F
330
4D
100
AcDbEntity
  8
0
100
AcDbBlockEnd
  0
BLOCK
  5
51
330
50
100
AcDbEntity
  8
0
100
AcDbBlockBegin
  2
ISO_Ansicht
 70
     0
 10
24.0066684218749
 20
43.0
 30
0.0
  3
ISO_Ansicht
  1

  0
LWPOLYLINE
  5
1B2
330
50
100
AcDbEntity
  8
0
  6
Continuous
 62
     3
100
AcDbPolyline
 90
        2
 70
     0
 43
0.15
 10
44.33129292367488
 20
68.31225222219689
 10
44.39081626583499
 20
68.20748870118786
  0
LWPOLYLINE
  5
1B3
330
50
100
AcDbEntity
  8
0
  6
Continuous
 62
     3
100
AcDbPolyline
 90
        2
 70
     0
 43
0.15
 10
44.29099296617488
 20
68.40703400229688
 10
44.33129292367488
 20
68.31225222219689
  0
LWPOLYLINE
  5
1B4
330
50
100
AcDbEntity
  8
0
  6
Continuous
 62
     3
100
AcDbPolyline
 90
        2
 70
     0
 43
0.15
 10
44.27100795727489
 20
68.4892667837969
 10
44.29099296617488
 20
68.40703400229688
  0
LWPOLYLINE
  5
1B5
330
50
100
AcDbEntity
  8
0
  6
Continuous
 62
     3
100
AcDbPolyline
 90
        2
 70
     0
 43
0.15
 10
44.27187921067491
 20
68.55672321069687
 10
44.27100795727489
 20
68.4892667837969
  0
LWPOLYLINE
  5
1B6
330
50
100
AcDbEntity
  8
0
  6
Continuous
 62
     3
100
AcDbPolyline
 90
        2
 70
     0
 43
0.15
 10
44.29358312737492
 20
68.60757615949689
 10
44.27187921067491
 20
68.55672321069687
  0
LWPOLYLINE
  5
1B7
330
50
100
AcDbEntity
  8
0
  6
Continuous
 62
     3
100
AcDbPolyline
 90
        2
 70
     0
 43
0.15
 10
44.29777462817492
 20
68.61273412439687
 10
44.29358312737492
 20
68.60757615949689
  0
LWPOLYLINE
  5
1B8
330
50
100
AcDbEntity
  8
0
  6
Continuous
 62
     3
100
AcDbPolyline
 90
        2
 70
     0
 43
0.15
 10
99.6408682976749
 20
62.4881735085969
 10
99.37187940421887
 20
62.38638579925009
  0
LWPOLYLINE
  5
1B9
330
50
100
AcDbEntity
  8
0
  6
Continuous
 62
     3
100
AcDbPolyline
 90
        2
 70
     0
 43
0.15
 10
99.84904250177493
 20
62.60729279519688
 10
99.6408682976749
 20
62.4881735085969
  0
LWPOLYLINE
  5
1BA
330
50
100
AcDbEntity
  8
0
  6
Continuous
 62
     3
100
AcDbPolyline
 90
        2
 70
     0
 43
0.15
 10
99.9884019984749
 20
62.73916597199684
 10
99.84904250177493
 20
62.60729279519688
  0
LWPOLYLINE
  5
1BB
330
50
100
AcDbEntity
  8
0
  6
Continuous
 62
     3
100
AcDbPolyline
 90
        2
 70
     0
 43
0.15
 10
100.0535912804749
 20
62.87872522649684
 10
99.9884019984749
 20
62.73916597199684
  0
LWPOLYLINE
  5
1BC
330
50
100
AcDbEntity
  8
0
  6
Continuous
 62
     3
100
AcDbPolyline
 90
        2
 70
     0
 43
0.15
 10
100.0582968331749
 20
62.92415981619689
 10
100.0535912804749
 20
62.87872522649684
  0
LWPOLYLINE
  5
1BD
330
50
100
AcDbEntity
  8
0
  6
Continuous
 62
     3
100
AcDbPolyline
 90
        2
 70
     0
 43
0.15
 10
79.78294342637486
 20
61.93326831329688
 10
79.70378226933502
 20
61.83270626199868
  0
LWPOLYLINE
  5
1BE
330
50
100
AcDbEntity
  8
0
  6
Continuous
 62
     3
100
AcDbPolyline
 90
        2
 70
     0
 43
0.15
 10
79.84447733277494
 20
62.02496501979687
 10
79.78294342637486
 20
61.93326831329688
  0
LWPOLYLINE
  5
1BF
330
50
100
AcDbEntity
  8
0
  6
Continuous
 62
     3
100
AcDbPolyline
 90
        2
 70
     0
 43
0.15
 10
79.88671728207493
 20
62.10531268579689
 10
79.84447733277494
 20
62.02496501979687
  0
LWPOLYLINE
  5
1C0
330
50
100
AcDbEntity
  8
0
  6
Continuous
 62
     3
100
AcDbPolyline
 90
        2
 70
     0
 43
0.15
 10
79.90851916367495
 20
62.1721350159969
 10
79.88671728207493
 20
62.10531268579689
  0
LWPOLYLINE
  5
1C1
330
50
100
AcDbEntity
  8
0
  6
Continuous
 62
     3
100
AcDbPolyline
 90
        2
 70
     0
 43
0.15
 10
79.90929245217495
 20
62.22362206159687
 10
79.90851916367495
 20
62.1721350159969
  0
LWPOLYLINE
  5
1C2
330
50
100
AcDbEntity
  8
0
  6
Continuous
 62
     3
100
AcDbPolyline
 90
        2
 70
     0
 43
0.15
 10
79.89705547727493
 20
62.25006890539686
 10
79.90929245217495
 20
62.22362206159687
  0
LWPOLYLINE
  5
1C3
330
50
100
AcDbEntity
  8
0
  6
Continuous
 62
     3
100
AcDbPolyline
 90
        2
 70
     0
 43
0.15
 10
25.0689623803749
 20
65.65446986979686
 10
25.20532733467491
 20
65.58437660779686
  0
LWPOLYLINE
  5
1C4
330
50
100
AcDbEntity
  8
0
  6
Continuous
 62
     3
100
AcDbPolyline
 90
        2
 70
     0
 43
0.15
 10
24.97261253267487
 20
65.73264437929686
 10
25.0689623803749
 20
65.65446986979686
  0
LWPOLYLINE
  5
1C5
330
50
100
AcDbEntity
  8
0
  6
Continuous
 62
     3
100
AcDbPolyline
 90
        2
 70
     0
 43
0.15
 10
24.91998046227491
 20
65.81589593389685
 10
24.97261253267487
 20
65.73264437929686
  0
LWPOLYLINE
  5
1C6
330
50
100
AcDbEntity
  8
0
  6
Continuous
 62
     3
100
AcDbPolyline
 90
        2
 70
     0
 43
0.15
 10
24.91308879017493
 20
65.90102522289686
 10
24.91998046227491
 20
65.81589593389685
  0
LWPOLYLINE
  5
1C7
330
50
100
AcDbEntity
  8
0
  6
Continuous
 62
     3
100
AcDbPolyline
 90
        2
 70
     0
 43
0.15
 10
24.95220235937489
 20
65.9847607755969
 10
24.91308879017493
 20
65.90102522289686
  0
LWPOLYLINE
  5
1C8
330
50
100
AcDbEntity
  8
0
  6
Continuous
 62
     3
100
AcDbPolyline
 90
        2
 70
     0
 43
0.15
 10
25.03581805737491
 20
66.06388468169689
 10
24.95220235937489
 20
65.9847607755969
  0
LWPOLYLINE
  5
1C9
330
50
100
AcDbEntity
  8
0
  6
Continuous
 62
     3
100
AcDbPolyline
 90
        2
 70
     0
 43
0.15
 10
25.16072257987491
 20
66.13535625369684
 10
25.03581805737491
 20
66.06388468169689
  0
LWPOLYLINE
  5
1CA
330
50
100
AcDbEntity
  8
0
  6
Continuous
 62
     3
100
AcDbPolyline
 90
        2
 70
     0
 43
0.15
 10
25.32211591597491
 20
66.19642887929689
 10
25.16072257987491
 20
66.13535625369684
  0
LWPOLYLINE
  5
1CB
330
50
100
AcDbEntity
  8
0
  6
Continuous
 62
     3
100
AcDbPolyline
 90
        2
 70
     0
 43
0.15
 10
99.10420237707496
 20
63.89522637429684
 10
98.96783742277495
 20
63.96531963619691
  0
LWPOLYLINE
  5
1CC
330
50
100
AcDbEntity
  8
0
  6
Continuous
 62
     3
100
AcDbPolyline
 90
        2
 70
     0
 43
0.15
 10
99.20055222477487
 20
63.81705186469685
 10
99.10420237707496
 20
63.89522637429684
  0
LWPOLYLINE
  5
1CD
330
50
100
AcDbEntity
  8
0
  6
Continuous
 62
     3
100
AcDbPolyline
 90
        2
 70
     0
 43
0.15
 10
99.25318429517489
 20
63.73380031009685
 10
99.20055222477487
 20
63.81705186469685
  0
LWPOLYLINE
  5
1CE
330
50
100
AcDbEntity
  8
0
  6
Continuous
 62
     3
100
AcDbPolyline
 90
        2
 70
     0
 43
0.15
 10
99.26007596727487
 20
63.6486710210969
 10
99.25318429517489
 20
63.73380031009685
  0
LWPOLYLINE
  5
1CF
330
50
100
AcDbEntity
  8
0
  6
Continuous
 62
     3
100
AcDbPolyline
 90
        2
 70
     0
 43
0.15
 10
99.22096239807496
 20
63.56493546839687
 10
99.26007596727487
 20
63.6486710210969
  0
LWPOLYLINE
  5
1D0
330
50
100
AcDbEntity
  8
0
  6
Continuous
 62
     3
100
AcDbPolyline
 90
        2
 70
     0
 43
0.15
 10
99.13734670007494
 20
63.48581156229687
 10
99.22096239807496
 20
63.56493546839687
  0
LWPOLYLINE
  5
1D1
330
50
100
AcDbEntity
  8
0
  6
Continuous
 62
     3
100
AcDbPolyline
 90
        2
 70
     0
 43
0.15
 10
99.01244217767493
 20
63.41433999029687
 10
99.13734670007494
 20
63.48581156229687
  0
LWPOLYLINE
  5
1D2
330
50
100
AcDbEntity
  8
0
  6
Continuous
 62
     3
100
AcDbPolyline
 90
        2
 70
     0
 43
0.15
 10
98.85104884147489
 20
63.35326736479686
 10
99.01244217767493
 20
63.41433999029687
  0
LWPOLYLINE
  5
1D3
330
50
100
AcDbEntity
  8
0
  6
Continuous
 62
     3
100
AcDbPolyline
 90
        2
 70
     0
 43
0.15
 10
78.69984699017488
 20
76.69581762869689
 10
78.70695208987496
 20
76.76808288689688
  0
LWPOLYLINE
  5
1D4
330
50
100
AcDbEntity
  8
0
  6
Continuous
 62
     3
100
AcDbPolyline
 90
        2
 70
     0
 43
0.15
 10
78.60206306717492
 20
76.48647874689686
 10
78.69984699017488
 20
76.69581762869689
  0
LWPOLYLINE
  5
1D5
330
50
100
AcDbEntity
  8
0
  6
Continuous
 62
     3
100
AcDbPolyline
 90
        2
 70
     0
 43
0.15
 10
78.3930238220749
 20
76.28866898179689
 10
78.60206306717492
 20
76.48647874689686
  0
LWPOLYLINE
  5
1D6
330
50
100
AcDbEntity
  8
0
  6
Continuous
 62
     3
100
AcDbPolyline
 90
        2
 70
     0
 43
0.15
 10
78.08076251597487
 20
76.1099900517969
 10
78.3930238220749
 20
76.28866898179689
  0
LWPOLYLINE
  5
1D7
330
50
100
AcDbEntity
  8
0
  6
Continuous
 62
     3
100
AcDbPolyline
 90
        2
 70
     0
 43
0.15
 10
77.67727917577491
 20
75.95730848789685
 10
78.08076251597487
 20
76.1099900517969
  0
LWPOLYLINE
  5
1D8
330
50
100
AcDbEntity
  8
0
  6
Continuous
 62
     3
100
AcDbPolyline
 90
        2
 70
     0
 43
0.15
 10
57.42086329167495
 20
63.45665829009687
 10
57.11004747807493
 20
63.34741875069688
  0
LWPOLYLINE
  5
1D9
330
50
100
AcDbEntity
  8
0
  6
Continuous
 62
     3
100
AcDbPolyline
 90
        2
 70
     0
 43
0.15
 10
58.12678839687493
 20
63.81653792059689
 10
57.42086329167495
 20
63.45665829009687
  0
LWPOLYLINE
  5
1DA
330
50
100
AcDbEntity
  8
0
  6
Continuous
 62
     3
100
AcDbPolyline
 90
        2
 70
     0
 43
0.15
 10
58.77505548777486
 20
64.31220169549687
 10
58.12678839687493
 20
63.81653792059689
  0
LWPOLYLINE
  5
1DB
330
50
100
AcDbEntity
  8
0
  6
Continuous
 62
     3
100
AcDbPolyline
 90
        2
 70
     0
 43
0.15
 10
59.35689786407494
 20
64.9369466125969
 10
58.77505548777486
 20
64.31220169549687
  0
LWPOLYLINE
  5
1DC
330
50
100
AcDbEntity
  8
0
  6
Continuous
 62
     3
100
AcDbPolyline
 90
        2
 70
     0
 43
0.15
 10
59.8644471057749
 20
65.68232406859687
 10
59.35689786407494
 20
64.9369466125969
  0
LWPOLYLINE
  5
1DD
330
50
100
AcDbEntity
  8
0
  6
Continuous
 62
     3
100
AcDbPolyline
 90
        2
 70
     0
 43
0.15
 10
60.29083948017495
 20
66.53825411209687
 10
59.8644471057749
 20
65.68232406859687
  0
LWPOLYLINE
  5
1DE
330
50
100
AcDbEntity
  8
0
  6
Continuous
 62
     3
100
AcDbPolyline
 90
        2
 70
     0
 43
0.15
 10
60.63030876167494
 20
67.4931617576969
 10
60.29083948017495
 20
66.53825411209687
  0
LWPOLYLINE
  5
1DF
330
50
100
AcDbEntity
  8
0
  6
Continuous
 62
     3
100
AcDbPolyline
 90
        2
 70
     0
 43
0.15
 10
60.87826421077494
 20
68.53413351749685
 10
60.63030876167494
 20
67.4931617576969
  0
LWPOLYLINE
  5
1E0
330
50
100
AcDbEntity
  8
0
  6
Continuous
 62
     3
100
AcDbPolyline
 90
        2
 70
     0
 43
0.15
 10
61.03135265537486
 20
69.64709203419687
 10
60.87826421077494
 20
68.53413351749685
  0
LWPOLYLINE
  5
1E1
330
50
100
AcDbEntity
  8
0
  6
Continuous
 62
     3
100
AcDbPolyline
 90
        2
 70
     0
 43
0.15
 10
61.08750383677494
 20
70.81698645319688
 10
61.03135265537486
 20
69.64709203419687
  0
LWPOLYLINE
  5
1E2
330
50
100
AcDbEntity
  8
0
  6
Continuous
 62
     3
100
AcDbPolyline
 90
        2
 70
     0
 43
0.15
 10
56.79982501057492
 20
69.95031916309688
 10
56.85499110648453
 20
70.94521112232388
  0
LWPOLYLINE
  5
1E3
330
50
100
AcDbEntity
  8
0
  6
Continuous
 62
     3
100
AcDbPolyline
 90
        2
 70
     0
 43
0.15
 10
56.6478134502749
 20
69.01514952189689
 10
56.79982501057492
 20
69.95031916309688
  0
LWPOLYLINE
  5
1E4
330
50
100
AcDbEntity
  8
0
  6
Continuous
 62
     3
100
AcDbPolyline
 90
        2
 70
     0
 43
0.15
 10
56.40178811357492
 20
68.15712263969687
 10
56.6478134502749
 20
69.01514952189689
  0
LWPOLYLINE
  5
1E5
330
50
100
AcDbEntity
  8
0
  6
Continuous
 62
     3
100
AcDbPolyline
 90
        2
 70
     0
 43
0.15
 10
56.06633198677491
 20
67.39222193379686
 10
56.40178811357492
 20
68.15712263969687
  0
LWPOLYLINE
  5
1E6
330
50
100
AcDbEntity
  8
0
  6
Continuous
 62
     3
100
AcDbPolyline
 90
        2
 70
     0
 43
0.15
 10
55.64769398287496
 20
66.73469605719686
 10
56.06633198677491
 20
67.39222193379686
  0
LWPOLYLINE
  5
1E7
330
50
100
AcDbEntity
  8
0
  6
Continuous
 62
     3
100
AcDbPolyline
 90
        2
 70
     0
 43
0.15
 10
55.15367253597492
 20
66.19679347289684
 10
55.64769398287496
 20
66.73469605719686
  0
LWPOLYLINE
  5
1E8
330
50
100
AcDbEntity
  8
0
  6
Continuous
 62
     3
100
AcDbPolyline
 90
        2
 70
     0
 43
0.15
 10
54.59347033057492
 20
65.78853428819684
 10
55.15367253597492
 20
66.19679347289684
  0
LWPOLYLINE
  5
1E9
330
50
100
AcDbEntity
  8
0
  6
Continuous
 62
     3
100
AcDbPolyline
 90
        2
 70
     0
 43
0.15
 10
53.97752287407491
 20
65.5175235993969
 10
54.59347033057492
 20
65.78853428819684
  0
LWPOLYLINE
  5
1EA
330
50
100
AcDbEntity
  8
0
  6
Continuous
 62
     3
100
AcDbPolyline
 90
        2
 70
     0
 43
0.15
 10
53.31730410217489
 20
65.38880982269689
 10
53.97752287407491
 20
65.5175235993969
  0
LWPOLYLINE
  5
1EB
330
50
100
AcDbEntity
  8
0
  6
Continuous
 62
     3
100
AcDbPolyline
 90
        2
 70
     0
 43
0.15
 10
52.62511264117489
 20
65.40479065229687
 10
53.31730410217489
 20
65.38880982269689
  0
LWPOLYLINE
  5
1EC
330
50
100
AcDbEntity
  8
0
  6
Continuous
 62
     3
100
AcDbPolyline
 90
        2
 70
     0
 43
0.15
 10
51.91384270857492
 20
65.56516839559686
 10
52.62511264117489
 20
65.40479065229687
  0
LWPOLYLINE
  5
1ED
330
50
100
AcDbEntity
  8
0
  6
Continuous
 62
     3
100
AcDbPolyline
 90
        2
 70
     0
 43
0.15
 10
51.19674391737493
 20
65.86695551859691
 10
51.91384270857492
 20
65.56516839559686
  0
LWPOLYLINE
  5
1EE
330
50
100
AcDbEntity
  8
0
  6
Continuous
 62
     3
100
AcDbPolyline
 90
        2
 70
     0
 43
0.15
 10
50.4871744611749
 20
66.30453029829687
 10
51.19674391737493
 20
65.86695551859691
  0
LWPOLYLINE
  5
1EF
330
50
100
AcDbEntity
  8
0
  6
Continuous
 62
     3
100
AcDbPolyline
 90
        2
 70
     0
 43
0.15
 10
49.79835227637494
 20
66.86974154449689
 10
50.4871744611749
 20
66.30453029829687
  0
LWPOLYLINE
  5
1F0
330
50
100
AcDbEntity
  8
0
  6
Continuous
 62
     3
100
AcDbPolyline
 90
        2
 70
     0
 43
0.15
 10
49.14310881707496
 20
67.55206044099685
 10
49.79835227637494
 20
66.86974154449689
  0
LWPOLYLINE
  5
1F1
330
50
100
AcDbEntity
  8
0
  6
Continuous
 62
     3
100
AcDbPolyline
 90
        2
 70
     0
 43
0.15
 10
48.53365002917491
 20
68.33877667789687
 10
49.14310881707496
 20
67.55206044099685
  0
LWPOLYLINE
  5
1F2
330
50
100
AcDbEntity
  8
0
  6
Continuous
 62
     3
100
AcDbPolyline
 90
        2
 70
     0
 43
0.15
 10
47.98132897667489
 20
69.21523521999688
 10
48.53365002917491
 20
68.33877667789687
  0
LWPOLYLINE
  5
1F3
330
50
100
AcDbEntity
  8
0
  6
Continuous
 62
     3
100
AcDbPolyline
 90
        2
 70
     0
 43
0.15
 10
47.49643435567492
 20
70.16510930319686
 10
47.98132897667489
 20
69.21523521999688
  0
LWPOLYLINE
  5
1F4
330
50
100
AcDbEntity
  8
0
  6
Continuous
 62
     3
100
AcDbPolyline
 90
        2
 70
     0
 43
0.15
 10
47.08799883567491
 20
71.17070457049687
 10
47.49643435567492
 20
70.16510930319686
  0
LWPOLYLINE
  5
1F5
330
50
100
AcDbEntity
  8
0
  6
Continuous
 62
     3
100
AcDbPolyline
 90
        2
 70
     0
 43
0.15
 10
46.76363079757488
 20
72.21328868459688
 10
47.08799883567491
 20
71.17070457049687
  0
LWPOLYLINE
  5
1F6
330
50
100
AcDbEntity
  8
0
  6
Continuous
 62
     3
100
AcDbPolyline
 90
        2
 70
     0
 43
0.15
 10
46.52937260407492
 20
73.27344027629687
 10
46.76363079757488
 20
72.21328868459688
  0
LWPOLYLINE
  5
1F7
330
50
100
AcDbEntity
  8
0
  6
Continuous
 62
     3
100
AcDbPolyline
 90
        2
 70
     0
 43
0.15
 10
46.38958804227491
 20
74.33141072719684
 10
46.52937260407492
 20
73.27344027629687
  0
LWPOLYLINE
  5
1F8
330
50
100
AcDbEntity
  8
0
  6
Continuous
 62
     3
100
AcDbPolyline
 90
        2
 70
     0
 43
0.15
 10
46.34688103397491
 20
75.36749204969686
 10
46.38958804227491
 20
74.33141072719684
  0
LWPOLYLINE
  5
1F9
330
50
100
AcDbEntity
  8
0
  6
Continuous
 62
     3
100
AcDbPolyline
 90
        2
 70
     0
 43
0.15
 10
99.61684985757489
 20
58.57289403319686
 10
99.34786096407487
 20
58.47110632399688
  0
LWPOLYLINE
  5
1FA
330
50
100
AcDbEntity
  8
0
  6
Continuous
 62
     3
100
AcDbPolyline
 90
        2
 70
     0
 43
0.15
 10
99.82502406167492
 20
58.69201331989689
 10
99.61684985757489
 20
58.57289403319686
  0
LWPOLYLINE
  5
1FB
330
50
100
AcDbEntity
  8
0
  6
Continuous
 62
     3
100
AcDbPolyline
 90
        2
 70
     0
 43
0.15
 10
99.96438355837489
 20
58.8238864966969
 10
99.82502406167492
 20
58.69201331989689
  0
LWPOLYLINE
  5
1FC
330
50
100
AcDbEntity
  8
0
  6
Continuous
 62
     3
100
AcDbPolyline
 90
        2
 70
     0
 43
0.15
 10
100.0295728403749
 20
58.9634457511969
 10
99.96438355837489
 20
58.8238864966969
  0
LWPOLYLINE
  5
1FD
330
50
100
AcDbEntity
  8
0
  6
Continuous
 62
     3
100
AcDbPolyline
 90
        2
 70
     0
 43
0.15
 10
100.0343095734749
 20
59.01162258999688
 10
100.0295728403749
 20
58.9634457511969
  0
LWPOLYLINE
  5
1FE
330
50
100
AcDbEntity
  8
0
  6
Continuous
 62
     3
100
AcDbPolyline
 90
        2
 70
     0
 43
0.15
 10
31.26844828317491
 20
58.34018255209685
 10
30.2209346186749
 20
58.3597038128969
  0
LWPOLYLINE
  5
1FF
330
50
100
AcDbEntity
  8
0
  6
Continuous
 62
     3
100
AcDbPolyline
 90
        2
 70
     0
 43
0.15
 10
31.37537066627493
 20
58.34117372229684
 10
31.26844828317491
 20
58.34018255209685
  0
LWPOLYLINE
  5
200
330
50
100
AcDbEntity
  8
0
  6
Continuous
 62
     3
100
AcDbPolyline
 90
        2
 70
     0
 43
0.15
 10
91.82062684947488
 20
56.50574434539686
 10
91.56479320807495
 20
56.52475083119686
  0
LWPOLYLINE
  5
201
330
50
100
AcDbEntity
  8
0
  6
Continuous
 62
     3
100
AcDbPolyline
 90
        2
 70
     0
 43
0.15
 10
92.86350633387491
 20
56.4619368019969
 10
91.82062684947488
 20
56.50574434539686
  0
LWPOLYLINE
  5
202
330
50
100
AcDbEntity
  8
0
  6
Continuous
 62
     3
100
AcDbPolyline
 90
        2
 70
     0
 43
0.15
 10
89.3756579360749
 20
63.05638130409687
 10
89.84475803447486
 20
62.81815202479686
  0
LWPOLYLINE
  5
203
330
50
100
AcDbEntity
  8
0
  6
Continuous
 62
     3
100
AcDbPolyline
 90
        2
 70
     0
 43
0.15
 10
89.03423749367488
 20
63.32110963609688
 10
89.3756579360749
 20
63.05638130409687
  0
LWPOLYLINE
  5
204
330
50
100
AcDbEntity
  8
0
  6
Continuous
 62
     3
100
AcDbPolyline
 90
        2
 70
     0
 43
0.15
 10
88.83212337077492
 20
63.60332201509687
 10
89.03423749367488
 20
63.32110963609688
  0
LWPOLYLINE
  5
205
330
50
100
AcDbEntity
  8
0
  6
Continuous
 62
     3
100
AcDbPolyline
 90
        2
 70
     0
 43
0.15
 10
88.77619832167494
 20
63.89340803679687
 10
88.83212337077492
 20
63.60332201509687
  0
LWPOLYLINE
  5
206
330
50
100
AcDbEntity
  8
0
  6
Continuous
 62
     3
100
AcDbPolyline
 90
        2
 70
     0
 43
0.15
 10
88.8683668065749
 20
64.18148916979686
 10
88.77619832167494
 20
63.89340803679687
  0
LWPOLYLINE
  5
207
330
50
100
AcDbEntity
  8
0
  6
Continuous
 62
     3
100
AcDbPolyline
 90
        2
 70
     0
 43
0.15
 10
89.10549013837493
 20
64.45775515659687
 10
88.8683668065749
 20
64.18148916979686
  0
LWPOLYLINE
  5
208
330
50
100
AcDbEntity
  8
0
  6
Continuous
 62
     3
100
AcDbPolyline
 90
        2
 70
     0
 43
0.15
 10
89.47949336647486
 20
64.71279809039686
 10
89.10549013837493
 20
64.45775515659687
  0
LWPOLYLINE
  5
209
330
50
100
AcDbEntity
  8
0
  6
Continuous
 62
     3
100
AcDbPolyline
 90
        2
 70
     0
 43
0.15
 10
89.97764025947487
 20
64.93793278989688
 10
89.47949336647486
 20
64.71279809039686
  0
LWPOLYLINE
  5
20A
330
50
100
AcDbEntity
  8
0
  6
Continuous
 62
     3
100
AcDbPolyline
 90
        2
 70
     0
 43
0.15
 10
90.58296702237493
 20
65.12549256289685
 10
89.97764025947487
 20
64.93793278989688
  0
LWPOLYLINE
  5
20B
330
50
100
AcDbEntity
  8
0
  6
Continuous
 62
     3
100
AcDbPolyline
 90
        2
 70
     0
 43
0.15
 10
91.2748599781749
 20
65.26909028639687
 10
90.58296702237493
 20
65.12549256289685
  0
LWPOLYLINE
  5
20C
330
50
100
AcDbEntity
  8
0
  6
Continuous
 62
     3
100
AcDbPolyline
 90
        2
 70
     0
 43
0.15
 10
92.02975754227492
 20
65.36383591209687
 10
91.2748599781749
 20
65.26909028639687
  0
LWPOLYLINE
  5
20D
330
50
100
AcDbEntity
  8
0
  6
Continuous
 62
     3
100
AcDbPolyline
 90
        2
 70
     0
 43
0.15
 10
92.82195258347491
 20
65.40650299129686
 10
92.02975754227492
 20
65.36383591209687
  0
LWPOLYLINE
  5
20E
330
50
100
AcDbEntity
  8
0
  6
Continuous
 62
     3
100
AcDbPolyline
 90
        2
 70
     0
 43
0.15
 10
93.62446784977493
 20
65.39563854789685
 10
92.82195258347491
 20
65.40650299129686
  0
LWPOLYLINE
  5
20F
330
50
100
AcDbEntity
  8
0
  6
Continuous
 62
     3
100
AcDbPolyline
 90
        2
 70
     0
 43
0.15
 10
94.40997464617493
 20
65.33161255739685
 10
93.62446784977493
 20
65.39563854789685
  0
LWPOLYLINE
  5
210
330
50
100
AcDbEntity
  8
0
  6
Continuous
 62
     3
100
AcDbPolyline
 90
        2
 70
     0
 43
0.15
 10
95.15172348107495
 20
65.21660534809689
 10
94.40997464617493
 20
65.33161255739685
  0
LWPOLYLINE
  5
211
330
50
100
AcDbEntity
  8
0
  6
Continuous
 62
     3
100
AcDbPolyline
 90
        2
 70
     0
 43
0.15
 10
95.82445498727492
 20
65.05453335269686
 10
95.15172348107495
 20
65.21660534809689
  0
LWPOLYLINE
  5
212
330
50
100
AcDbEntity
  8
0
  6
Continuous
 62
     3
100
AcDbPolyline
 90
        2
 70
     0
 43
0.15
 10
96.40526010037496
 20
64.8509157384969
 10
95.82445498727492
 20
65.05453335269686
  0
LWPOLYLINE
  5
213
330
50
100
AcDbEntity
  8
0
  6
Continuous
 62
     3
100
AcDbPolyline
 90
        2
 70
     0
 43
0.15
 10
96.87436019877492
 20
64.61268645919688
 10
96.40526010037496
 20
64.8509157384969
  0
LWPOLYLINE
  5
214
330
50
100
AcDbEntity
  8
0
  6
Continuous
 62
     3
100
AcDbPolyline
 90
        2
 70
     0
 43
0.15
 10
97.21578064117494
 20
64.34795812709689
 10
96.87436019877492
 20
64.61268645919688
  0
LWPOLYLINE
  5
215
330
50
100
AcDbEntity
  8
0
  6
Continuous
 62
     3
100
AcDbPolyline
 90
        2
 70
     0
 43
0.15
 10
97.4178947640749
 20
64.06574574819689
 10
97.21578064117494
 20
64.34795812709689
  0
LWPOLYLINE
  5
216
330
50
100
AcDbEntity
  8
0
  6
Continuous
 62
     3
100
AcDbPolyline
 90
        2
 70
     0
 43
0.15
 10
97.47381981327493
 20
63.7756597263969
 10
97.4178947640749
 20
64.06574574819689
  0
LWPOLYLINE
  5
217
330
50
100
AcDbEntity
  8
0
  6
Continuous
 62
     3
100
AcDbPolyline
 90
        2
 70
     0
 43
0.15
 10
97.38165132827493
 20
63.48757859339685
 10
97.47381981327493
 20
63.7756597263969
  0
LWPOLYLINE
  5
218
330
50
100
AcDbEntity
  8
0
  6
Continuous
 62
     3
100
AcDbPolyline
 90
        2
 70
     0
 43
0.15
 10
97.14452799647489
 20
63.21131260659689
 10
97.38165132827493
 20
63.48757859339685
  0
LWPOLYLINE
  5
219
330
50
100
AcDbEntity
  8
0
  6
Continuous
 62
     3
100
AcDbPolyline
 90
        2
 70
     0
 43
0.15
 10
96.77052476837486
 20
62.95626967289689
 10
97.14452799647489
 20
63.21131260659689
  0
LWPOLYLINE
  5
21A
330
50
100
AcDbEntity
  8
0
  6
Continuous
 62
     3
100
AcDbPolyline
 90
        2
 70
     0
 43
0.15
 10
96.27237787537496
 20
62.73113497339688
 10
96.77052476837486
 20
62.95626967289689
  0
LWPOLYLINE
  5
21B
330
50
100
AcDbEntity
  8
0
  6
Continuous
 62
     3
100
AcDbPolyline
 90
        2
 70
     0
 43
0.15
 10
95.66705111257494
 20
62.54357520039685
 10
96.27237787537496
 20
62.73113497339688
  0
LWPOLYLINE
  5
21C
330
50
100
AcDbEntity
  8
0
  6
Continuous
 62
     3
100
AcDbPolyline
 90
        2
 70
     0
 43
0.15
 10
94.97515815667492
 20
62.39997747689688
 10
95.66705111257494
 20
62.54357520039685
  0
LWPOLYLINE
  5
21D
330
50
100
AcDbEntity
  8
0
  6
Continuous
 62
     3
100
AcDbPolyline
 90
        2
 70
     0
 43
0.15
 10
94.2202605925749
 20
62.30523185119688
 10
94.97515815667492
 20
62.39997747689688
  0
LWPOLYLINE
  5
21E
330
50
100
AcDbEntity
  8
0
  6
Continuous
 62
     3
100
AcDbPolyline
 90
        2
 70
     0
 43
0.15
 10
93.42806555137491
 20
62.26256477199689
 10
94.2202605925749
 20
62.30523185119688
  0
LWPOLYLINE
  5
21F
330
50
100
AcDbEntity
  8
0
  6
Continuous
 62
     3
100
AcDbPolyline
 90
        2
 70
     0
 43
0.15
 10
92.6255502850749
 20
62.27342921539685
 10
93.42806555137491
 20
62.26256477199689
  0
LWPOLYLINE
  5
220
330
50
100
AcDbEntity
  8
0
  6
Continuous
 62
     3
100
AcDbPolyline
 90
        2
 70
     0
 43
0.15
 10
91.8400434886749
 20
62.33745520589685
 10
92.6255502850749
 20
62.27342921539685
  0
LWPOLYLINE
  5
221
330
50
100
AcDbEntity
  8
0
  6
Continuous
 62
     3
100
AcDbPolyline
 90
        2
 70
     0
 43
0.15
 10
91.09829465377487
 20
62.45246241519686
 10
91.8400434886749
 20
62.33745520589685
  0
LWPOLYLINE
  5
222
330
50
100
AcDbEntity
  8
0
  6
Continuous
 62
     3
100
AcDbPolyline
 90
        2
 70
     0
 43
0.15
 10
90.4255631475749
 20
62.61453441059689
 10
91.09829465377487
 20
62.45246241519686
  0
LWPOLYLINE
  5
223
330
50
100
AcDbEntity
  8
0
  6
Continuous
 62
     3
100
AcDbPolyline
 90
        2
 70
     0
 43
0.15
 10
89.84475803447486
 20
62.81815202479686
 10
90.4255631475749
 20
62.61453441059689
  0
LWPOLYLINE
  5
224
330
50
100
AcDbEntity
  8
0
  6
Continuous
 62
     3
100
AcDbPolyline
 90
        2
 70
     0
 43
0.15
 10
27.29880455877492
 20
64.93700978479689
 10
27.76790465707489
 20
64.69878050549687
  0
LWPOLYLINE
  5
225
330
50
100
AcDbEntity
  8
0
  6
Continuous
 62
     3
100
AcDbPolyline
 90
        2
 70
     0
 43
0.15
 10
26.95738411627491
 20
65.20173811689688
 10
27.29880455877492
 20
64.93700978479689
  0
LWPOLYLINE
  5
226
330
50
100
AcDbEntity
  8
0
  6
Continuous
 62
     3
100
AcDbPolyline
 90
        2
 70
     0
 43
0.15
 10
26.75526999347488
 20
65.48395049579688
 10
26.95738411627491
 20
65.20173811689688
  0
LWPOLYLINE
  5
227
330
50
100
AcDbEntity
  8
0
  6
Continuous
 62
     3
100
AcDbPolyline
 90
        2
 70
     0
 43
0.15
 10
26.69934494427491
 20
65.77403651759687
 10
26.75526999347488
 20
65.48395049579688
  0
LWPOLYLINE
  5
228
330
50
100
AcDbEntity
  8
0
  6
Continuous
 62
     3
100
AcDbPolyline
 90
        2
 70
     0
 43
0.15
 10
26.79151342917493
 20
66.06211765059686
 10
26.69934494427491
 20
65.77403651759687
  0
LWPOLYLINE
  5
229
330
50
100
AcDbEntity
  8
0
  6
Continuous
 62
     3
100
AcDbPolyline
 90
        2
 70
     0
 43
0.15
 10
27.02863676097491
 20
66.33838363739687
 10
26.79151342917493
 20
66.06211765059686
  0
LWPOLYLINE
  5
22A
330
50
100
AcDbEntity
  8
0
  6
Continuous
 62
     3
100
AcDbPolyline
 90
        2
 70
     0
 43
0.15
 10
27.40263998907489
 20
66.59342657109687
 10
27.02863676097491
 20
66.33838363739687
  0
LWPOLYLINE
  5
22B
330
50
100
AcDbEntity
  8
0
  6
Continuous
 62
     3
100
AcDbPolyline
 90
        2
 70
     0
 43
0.15
 10
27.9007868820749
 20
66.81856127059689
 10
27.40263998907489
 20
66.59342657109687
  0
LWPOLYLINE
  5
22C
330
50
100
AcDbEntity
  8
0
  6
Continuous
 62
     3
100
AcDbPolyline
 90
        2
 70
     0
 43
0.15
 10
28.50611364497496
 20
67.00612104359686
 10
27.9007868820749
 20
66.81856127059689
  0
LWPOLYLINE
  5
22D
330
50
100
AcDbEntity
  8
0
  6
Continuous
 62
     3
100
AcDbPolyline
 90
        2
 70
     0
 43
0.15
 10
29.19800660077493
 20
67.14971876709689
 10
28.50611364497496
 20
67.00612104359686
  0
LWPOLYLINE
  5
22E
330
50
100
AcDbEntity
  8
0
  6
Continuous
 62
     3
100
AcDbPolyline
 90
        2
 70
     0
 43
0.15
 10
29.95290416487495
 20
67.24446439279689
 10
29.19800660077493
 20
67.14971876709689
  0
LWPOLYLINE
  5
22F
330
50
100
AcDbEntity
  8
0
  6
Continuous
 62
     3
100
AcDbPolyline
 90
        2
 70
     0
 43
0.15
 10
30.74509920607494
 20
67.28713147199687
 10
29.95290416487495
 20
67.24446439279689
  0
LWPOLYLINE
  5
230
330
50
100
AcDbEntity
  8
0
  6
Continuous
 62
     3
100
AcDbPolyline
 90
        2
 70
     0
 43
0.15
 10
31.54761447237496
 20
67.27626702859686
 10
30.74509920607494
 20
67.28713147199687
  0
LWPOLYLINE
  5
231
330
50
100
AcDbEntity
  8
0
  6
Continuous
 62
     3
100
AcDbPolyline
 90
        2
 70
     0
 43
0.15
 10
32.33312126877496
 20
67.21224103809686
 10
31.54761447237496
 20
67.27626702859686
  0
LWPOLYLINE
  5
232
330
50
100
AcDbEntity
  8
0
  6
Continuous
 62
     3
100
AcDbPolyline
 90
        2
 70
     0
 43
0.15
 10
33.07487010367493
 20
67.09723382889689
 10
32.33312126877496
 20
67.21224103809686
  0
LWPOLYLINE
  5
233
330
50
100
AcDbEntity
  8
0
  6
Continuous
 62
     3
100
AcDbPolyline
 90
        2
 70
     0
 43
0.15
 10
33.74760160987495
 20
66.93516183339688
 10
33.07487010367493
 20
67.09723382889689
  0
LWPOLYLINE
  5
234
330
50
100
AcDbEntity
  8
0
  6
Continuous
 62
     3
100
AcDbPolyline
 90
        2
 70
     0
 43
0.15
 10
34.32840672297488
 20
66.73154421919685
 10
33.74760160987495
 20
66.93516183339688
  0
LWPOLYLINE
  5
235
330
50
100
AcDbEntity
  8
0
  6
Continuous
 62
     3
100
AcDbPolyline
 90
        2
 70
     0
 43
0.15
 10
34.79750682137495
 20
66.49331493989689
 10
34.32840672297488
 20
66.73154421919685
  0
LWPOLYLINE
  5
236
330
50
100
AcDbEntity
  8
0
  6
Continuous
 62
     3
100
AcDbPolyline
 90
        2
 70
     0
 43
0.15
 10
35.13892726377492
 20
66.22858660789689
 10
34.79750682137495
 20
66.49331493989689
  0
LWPOLYLINE
  5
237
330
50
100
AcDbEntity
  8
0
  6
Continuous
 62
     3
100
AcDbPolyline
 90
        2
 70
     0
 43
0.15
 10
35.34104138667493
 20
65.94637422889684
 10
35.13892726377492
 20
66.22858660789689
  0
LWPOLYLINE
  5
238
330
50
100
AcDbEntity
  8
0
  6
Continuous
 62
     3
100
AcDbPolyline
 90
        2
 70
     0
 43
0.15
 10
35.39696643587496
 20
65.6562882071969
 10
35.34104138667493
 20
65.94637422889684
  0
LWPOLYLINE
  5
239
330
50
100
AcDbEntity
  8
0
  6
Continuous
 62
     3
100
AcDbPolyline
 90
        2
 70
     0
 43
0.15
 10
35.30479795087496
 20
65.3682070741969
 10
35.39696643587496
 20
65.6562882071969
  0
LWPOLYLINE
  5
23A
330
50
100
AcDbEntity
  8
0
  6
Continuous
 62
     3
100
AcDbPolyline
 90
        2
 70
     0
 43
0.15
 10
35.06767461907492
 20
65.09194108739689
 10
35.30479795087496
 20
65.3682070741969
  0
LWPOLYLINE
  5
23B
330
50
100
AcDbEntity
  8
0
  6
Continuous
 62
     3
100
AcDbPolyline
 90
        2
 70
     0
 43
0.15
 10
34.69367139097489
 20
64.83689815359685
 10
35.06767461907492
 20
65.09194108739689
  0
LWPOLYLINE
  5
23C
330
50
100
AcDbEntity
  8
0
  6
Continuous
 62
     3
100
AcDbPolyline
 90
        2
 70
     0
 43
0.15
 10
34.19552449797487
 20
64.61176345419688
 10
34.69367139097489
 20
64.83689815359685
  0
LWPOLYLINE
  5
23D
330
50
100
AcDbEntity
  8
0
  6
Continuous
 62
     3
100
AcDbPolyline
 90
        2
 70
     0
 43
0.15
 10
33.59019773517491
 20
64.42420368109686
 10
34.19552449797487
 20
64.61176345419688
  0
LWPOLYLINE
  5
23E
330
50
100
AcDbEntity
  8
0
  6
Continuous
 62
     3
100
AcDbPolyline
 90
        2
 70
     0
 43
0.15
 10
32.89830477927495
 20
64.28060595759689
 10
33.59019773517491
 20
64.42420368109686
  0
LWPOLYLINE
  5
23F
330
50
100
AcDbEntity
  8
0
  6
Continuous
 62
     3
100
AcDbPolyline
 90
        2
 70
     0
 43
0.15
 10
32.14340721517493
 20
64.18586033199688
 10
32.89830477927495
 20
64.28060595759689
  0
LWPOLYLINE
  5
240
330
50
100
AcDbEntity
  8
0
  6
Continuous
 62
     3
100
AcDbPolyline
 90
        2
 70
     0
 43
0.15
 10
31.35121217397494
 20
64.14319325269685
 10
32.14340721517493
 20
64.18586033199688
  0
LWPOLYLINE
  5
241
330
50
100
AcDbEntity
  8
0
  6
Continuous
 62
     3
100
AcDbPolyline
 90
        2
 70
     0
 43
0.15
 10
30.54869690767492
 20
64.1540576961969
 10
31.35121217397494
 20
64.14319325269685
  0
LWPOLYLINE
  5
242
330
50
100
AcDbEntity
  8
0
  6
Continuous
 62
     3
100
AcDbPolyline
 90
        2
 70
     0
 43
0.15
 10
29.76319011127492
 20
64.2180836866969
 10
30.54869690767492
 20
64.1540576961969
  0
LWPOLYLINE
  5
243
330
50
100
AcDbEntity
  8
0
  6
Continuous
 62
     3
100
AcDbPolyline
 90
        2
 70
     0
 43
0.15
 10
29.02144127647495
 20
64.33309089589687
 10
29.76319011127492
 20
64.2180836866969
  0
LWPOLYLINE
  5
244
330
50
100
AcDbEntity
  8
0
  6
Continuous
 62
     3
100
AcDbPolyline
 90
        2
 70
     0
 43
0.15
 10
28.34870977017494
 20
64.4951628912969
 10
29.02144127647495
 20
64.33309089589687
  0
LWPOLYLINE
  5
245
330
50
100
AcDbEntity
  8
0
  6
Continuous
 62
     3
100
AcDbPolyline
 90
        2
 70
     0
 43
0.15
 10
27.76790465707489
 20
64.69878050549687
 10
28.34870977017494
 20
64.4951628912969
  0
LWPOLYLINE
  5
246
330
50
100
AcDbEntity
  8
0
  6
Continuous
 62
     3
100
AcDbPolyline
 90
        2
 70
     0
 43
0.15
 10
56.19610725817489
 20
52.77573723469686
 10
56.66520735657491
 20
52.5375079553969
  0
LWPOLYLINE
  5
247
330
50
100
AcDbEntity
  8
0
  6
Continuous
 62
     3
100
AcDbPolyline
 90
        2
 70
     0
 43
0.15
 10
55.85468681577493
 20
53.04046556679685
 10
56.19610725817489
 20
52.77573723469686
  0
LWPOLYLINE
  5
248
330
50
100
AcDbEntity
  8
0
  6
Continuous
 62
     3
100
AcDbPolyline
 90
        2
 70
     0
 43
0.15
 10
55.65257269287491
 20
53.32267794569691
 10
55.85468681577493
 20
53.04046556679685
  0
LWPOLYLINE
  5
249
330
50
100
AcDbEntity
  8
0
  6
Continuous
 62
     3
100
AcDbPolyline
 90
        2
 70
     0
 43
0.15
 10
55.59664764367489
 20
53.6127639674969
 10
55.65257269287491
 20
53.32267794569691
  0
LWPOLYLINE
  5
24A
330
50
100
AcDbEntity
  8
0
  6
Continuous
 62
     3
100
AcDbPolyline
 90
        2
 70
     0
 43
0.15
 10
55.68881612867489
 20
53.9008451004969
 10
55.59664764367489
 20
53.6127639674969
  0
LWPOLYLINE
  5
24B
330
50
100
AcDbEntity
  8
0
  6
Continuous
 62
     3
100
AcDbPolyline
 90
        2
 70
     0
 43
0.15
 10
55.92593946047492
 20
54.17711108729691
 10
55.68881612867489
 20
53.9008451004969
  0
LWPOLYLINE
  5
24C
330
50
100
AcDbEntity
  8
0
  6
Continuous
 62
     3
100
AcDbPolyline
 90
        2
 70
     0
 43
0.15
 10
56.29994268857496
 20
54.4321540209969
 10
55.92593946047492
 20
54.17711108729691
  0
LWPOLYLINE
  5
24D
330
50
100
AcDbEntity
  8
0
  6
Continuous
 62
     3
100
AcDbPolyline
 90
        2
 70
     0
 43
0.15
 10
56.79808958157491
 20
54.65728872049687
 10
56.29994268857496
 20
54.4321540209969
  0
LWPOLYLINE
  5
24E
330
50
100
AcDbEntity
  8
0
  6
Continuous
 62
     3
100
AcDbPolyline
 90
        2
 70
     0
 43
0.15
 10
57.40341634437488
 20
54.8448484934969
 10
56.79808958157491
 20
54.65728872049687
  0
LWPOLYLINE
  5
24F
330
50
100
AcDbEntity
  8
0
  6
Continuous
 62
     3
100
AcDbPolyline
 90
        2
 70
     0
 43
0.15
 10
58.09530930027489
 20
54.98844621699686
 10
57.40341634437488
 20
54.8448484934969
  0
LWPOLYLINE
  5
250
330
50
100
AcDbEntity
  8
0
  6
Continuous
 62
     3
100
AcDbPolyline
 90
        2
 70
     0
 43
0.15
 10
58.85020686437491
 20
55.08319184269686
 10
58.09530930027489
 20
54.98844621699686
  0
LWPOLYLINE
  5
251
330
50
100
AcDbEntity
  8
0
  6
Continuous
 62
     3
100
AcDbPolyline
 90
        2
 70
     0
 43
0.15
 10
59.6424019055749
 20
55.12585892189691
 10
58.85020686437491
 20
55.08319184269686
  0
LWPOLYLINE
  5
252
330
50
100
AcDbEntity
  8
0
  6
Continuous
 62
     3
100
AcDbPolyline
 90
        2
 70
     0
 43
0.15
 10
60.44491717187492
 20
55.1149944784969
 10
59.6424019055749
 20
55.12585892189691
  0
LWPOLYLINE
  5
253
330
50
100
AcDbEntity
  8
0
  6
Continuous
 62
     3
100
AcDbPolyline
 90
        2
 70
     0
 43
0.15
 10
61.23042396827492
 20
55.0509684879969
 10
60.44491717187492
 20
55.1149944784969
  0
LWPOLYLINE
  5
254
330
50
100
AcDbEntity
  8
0
  6
Continuous
 62
     3
100
AcDbPolyline
 90
        2
 70
     0
 43
0.15
 10
61.9721728030749
 20
54.93596127879687
 10
61.23042396827492
 20
55.0509684879969
  0
LWPOLYLINE
  5
255
330
50
100
AcDbEntity
  8
0
  6
Continuous
 62
     3
100
AcDbPolyline
 90
        2
 70
     0
 43
0.15
 10
62.64490430937491
 20
54.77388928329685
 10
61.9721728030749
 20
54.93596127879687
  0
LWPOLYLINE
  5
256
330
50
100
AcDbEntity
  8
0
  6
Continuous
 62
     3
100
AcDbPolyline
 90
        2
 70
     0
 43
0.15
 10
63.22570942247495
 20
54.57027166919687
 10
62.64490430937491
 20
54.77388928329685
  0
LWPOLYLINE
  5
257
330
50
100
AcDbEntity
  8
0
  6
Continuous
 62
     3
100
AcDbPolyline
 90
        2
 70
     0
 43
0.15
 10
63.69480952077487
 20
54.33204238979687
 10
63.22570942247495
 20
54.57027166919687
  0
LWPOLYLINE
  5
258
330
50
100
AcDbEntity
  8
0
  6
Continuous
 62
     3
100
AcDbPolyline
 90
        2
 70
     0
 43
0.15
 10
64.03622996327493
 20
54.06731405779686
 10
63.69480952077487
 20
54.33204238979687
  0
LWPOLYLINE
  5
259
330
50
100
AcDbEntity
  8
0
  6
Continuous
 62
     3
100
AcDbPolyline
 90
        2
 70
     0
 43
0.15
 10
64.23834408607496
 20
53.78510167889687
 10
64.03622996327493
 20
54.06731405779686
  0
LWPOLYLINE
  5
25A
330
50
100
AcDbEntity
  8
0
  6
Continuous
 62
     3
100
AcDbPolyline
 90
        2
 70
     0
 43
0.15
 10
64.29426913527487
 20
53.49501565709687
 10
64.23834408607496
 20
53.78510167889687
  0
LWPOLYLINE
  5
25B
330
50
100
AcDbEntity
  8
0
  6
Continuous
 62
     3
100
AcDbPolyline
 90
        2
 70
     0
 43
0.15
 10
64.20210065037492
 20
53.20693452409688
 10
64.29426913527487
 20
53.49501565709687
  0
LWPOLYLINE
  5
25C
330
50
100
AcDbEntity
  8
0
  6
Continuous
 62
     3
100
AcDbPolyline
 90
        2
 70
     0
 43
0.15
 10
63.96497731857488
 20
52.93066853729687
 10
64.20210065037492
 20
53.20693452409688
  0
LWPOLYLINE
  5
25D
330
50
100
AcDbEntity
  8
0
  6
Continuous
 62
     3
100
AcDbPolyline
 90
        2
 70
     0
 43
0.15
 10
63.59097409047496
 20
52.67562560359687
 10
63.96497731857488
 20
52.93066853729687
  0
LWPOLYLINE
  5
25E
330
50
100
AcDbEntity
  8
0
  6
Continuous
 62
     3
100
AcDbPolyline
 90
        2
 70
     0
 43
0.15
 10
63.09282719747495
 20
52.45049090409691
 10
63.59097409047496
 20
52.67562560359687
  0
LWPOLYLINE
  5
25F
330
50
100
AcDbEntity
  8
0
  6
Continuous
 62
     3
100
AcDbPolyline
 90
        2
 70
     0
 43
0.15
 10
62.48750043457488
 20
52.26293113099689
 10
63.09282719747495
 20
52.45049090409691
  0
LWPOLYLINE
  5
260
330
50
100
AcDbEntity
  8
0
  6
Continuous
 62
     3
100
AcDbPolyline
 90
        2
 70
     0
 43
0.15
 10
61.79560747877491
 20
52.11933340759686
 10
62.48750043457488
 20
52.26293113099689
  0
LWPOLYLINE
  5
261
330
50
100
AcDbEntity
  8
0
  6
Continuous
 62
     3
100
AcDbPolyline
 90
        2
 70
     0
 43
0.15
 10
61.04070991467489
 20
52.02458778189686
 10
61.79560747877491
 20
52.11933340759686
  0
LWPOLYLINE
  5
262
330
50
100
AcDbEntity
  8
0
  6
Continuous
 62
     3
100
AcDbPolyline
 90
        2
 70
     0
 43
0.15
 10
60.2485148734749
 20
51.98192070259688
 10
61.04070991467489
 20
52.02458778189686
  0
LWPOLYLINE
  5
263
330
50
100
AcDbEntity
  8
0
  6
Continuous
 62
     3
100
AcDbPolyline
 90
        2
 70
     0
 43
0.15
 10
59.44599960717488
 20
51.99278514609688
 10
60.2485148734749
 20
51.98192070259688
  0
LWPOLYLINE
  5
264
330
50
100
AcDbEntity
  8
0
  6
Continuous
 62
     3
100
AcDbPolyline
 90
        2
 70
     0
 43
0.15
 10
58.66049281077488
 20
52.05681113659688
 10
59.44599960717488
 20
51.99278514609688
  0
LWPOLYLINE
  5
265
330
50
100
AcDbEntity
  8
0
  6
Continuous
 62
     3
100
AcDbPolyline
 90
        2
 70
     0
 43
0.15
 10
57.91874397587486
 20
52.17181834579685
 10
58.66049281077488
 20
52.05681113659688
  0
LWPOLYLINE
  5
266
330
50
100
AcDbEntity
  8
0
  6
Continuous
 62
     3
100
AcDbPolyline
 90
        2
 70
     0
 43
0.15
 10
57.2460124696749
 20
52.33389034129687
 10
57.91874397587486
 20
52.17181834579685
  0
LWPOLYLINE
  5
267
330
50
100
AcDbEntity
  8
0
  6
Continuous
 62
     3
100
AcDbPolyline
 90
        2
 70
     0
 43
0.15
 10
56.66520735657491
 20
52.5375079553969
 10
57.2460124696749
 20
52.33389034129687
  0
LWPOLYLINE
  5
268
330
50
100
AcDbEntity
  8
0
  6
Continuous
 62
     3
100
AcDbPolyline
 90
        2
 70
     0
 43
0.15
 10
63.29359474707491
 20
70.34804503889688
 10
63.34974592847487
 20
71.51793945789689
  0
LWPOLYLINE
  5
269
330
50
100
AcDbEntity
  8
0
  6
Continuous
 62
     3
100
AcDbPolyline
 90
        2
 70
     0
 43
0.15
 10
63.14050630247488
 20
69.23508652219687
 10
63.29359474707491
 20
70.34804503889688
  0
LWPOLYLINE
  5
26A
330
50
100
AcDbEntity
  8
0
  6
Continuous
 62
     3
100
AcDbPolyline
 90
        2
 70
     0
 43
0.15
 10
62.89255085337487
 20
68.19411476239691
 10
63.14050630247488
 20
69.23508652219687
  0
LWPOLYLINE
  5
26B
330
50
100
AcDbEntity
  8
0
  6
Continuous
 62
     3
100
AcDbPolyline
 90
        2
 70
     0
 43
0.15
 10
62.55308157177495
 20
67.23920711689686
 10
62.89255085337487
 20
68.19411476239691
  0
LWPOLYLINE
  5
26C
330
50
100
AcDbEntity
  8
0
  6
Continuous
 62
     3
100
AcDbPolyline
 90
        2
 70
     0
 43
0.15
 10
62.12668919747495
 20
66.38327707329688
 10
62.55308157177495
 20
67.23920711689686
  0
LWPOLYLINE
  5
26D
330
50
100
AcDbEntity
  8
0
  6
Continuous
 62
     3
100
AcDbPolyline
 90
        2
 70
     0
 43
0.15
 10
61.61913995577487
 20
65.63789961729685
 10
62.12668919747495
 20
66.38327707329688
  0
LWPOLYLINE
  5
26E
330
50
100
AcDbEntity
  8
0
  6
Continuous
 62
     3
100
AcDbPolyline
 90
        2
 70
     0
 43
0.15
 10
61.03729757947491
 20
65.01315470019688
 10
61.61913995577487
 20
65.63789961729685
  0
LWPOLYLINE
  5
26F
330
50
100
AcDbEntity
  8
0
  6
Continuous
 62
     3
100
AcDbPolyline
 90
        2
 70
     0
 43
0.15
 10
60.38903048857486
 20
64.5174909252969
 10
61.03729757947491
 20
65.01315470019688
  0
LWPOLYLINE
  5
270
330
50
100
AcDbEntity
  8
0
  6
Continuous
 62
     3
100
AcDbPolyline
 90
        2
 70
     0
 43
0.15
 10
59.68310538337488
 20
64.15761129479688
 10
60.38903048857486
 20
64.5174909252969
  0
LWPOLYLINE
  5
271
330
50
100
AcDbEntity
  8
0
  6
Continuous
 62
     3
100
AcDbPolyline
 90
        2
 70
     0
 43
0.15
 10
59.38105733747494
 20
64.05107780359685
 10
59.68310538337488
 20
64.15761129479688
  0
LWPOLYLINE
  5
272
330
50
100
AcDbEntity
  8
0
  6
Continuous
 62
     3
100
AcDbPolyline
 90
        2
 70
     0
 43
0.15
 10
51.43528791167495
 20
70.0884982592969
 10
51.08071030127491
 20
69.85968563109691
  0
LWPOLYLINE
  5
273
330
50
100
AcDbEntity
  8
0
  6
Continuous
 62
     3
100
AcDbPolyline
 90
        2
 70
     0
 43
0.15
 10
51.72254630257493
 20
70.44771338979689
 10
51.43528791167495
 20
70.0884982592969
  0
LWPOLYLINE
  5
274
330
50
100
AcDbEntity
  8
0
  6
Continuous
 62
     3
100
AcDbPolyline
 90
        2
 70
     0
 43
0.15
 10
51.92808113887492
 20
70.91931847599687
 10
51.72254630257493
 20
70.44771338979689
  0
LWPOLYLINE
  5
275
330
50
100
AcDbEntity
  8
0
  6
Continuous
 62
     3
100
AcDbPolyline
 90
        2
 70
     0
 43
0.15
 10
52.04158604547496
 20
71.47966526969685
 10
51.92808113887492
 20
70.91931847599687
  0
LWPOLYLINE
  5
276
330
50
100
AcDbEntity
  8
0
  6
Continuous
 62
     3
100
AcDbPolyline
 90
        2
 70
     0
 43
0.15
 10
52.05736941237495
 20
72.10065564279688
 10
52.04158604547496
 20
71.47966526969685
  0
LWPOLYLINE
  5
277
330
50
100
AcDbEntity
  8
0
  6
Continuous
 62
     3
100
AcDbPolyline
 90
        2
 70
     0
 43
0.15
 10
51.97463979587491
 20
72.7511505449969
 10
52.05736941237495
 20
72.10065564279688
  0
LWPOLYLINE
  5
278
330
50
100
AcDbEntity
  8
0
  6
Continuous
 62
     3
100
AcDbPolyline
 90
        2
 70
     0
 43
0.15
 10
51.79754560427494
 20
73.39853144559686
 10
51.97463979587491
 20
72.7511505449969
  0
LWPOLYLINE
  5
279
330
50
100
AcDbEntity
  8
0
  6
Continuous
 62
     3
100
AcDbPolyline
 90
        2
 70
     0
 43
0.15
 10
51.53496707977496
 20
74.01033596309685
 10
51.79754560427494
 20
73.39853144559686
  0
LWPOLYLINE
  5
27A
330
50
100
AcDbEntity
  8
0
  6
Continuous
 62
     3
100
AcDbPolyline
 90
        2
 70
     0
 43
0.15
 10
51.20007100607489
 20
74.55588566419686
 10
51.53496707977496
 20
74.01033596309685
  0
LWPOLYLINE
  5
27B
330
50
100
AcDbEntity
  8
0
  6
Continuous
 62
     3
100
AcDbPolyline
 90
        2
 70
     0
 43
0.15
 10
50.80965047067491
 20
75.00782440909688
 10
51.20007100607489
 20
74.55588566419686
  0
LWPOLYLINE
  5
27C
330
50
100
AcDbEntity
  8
0
  6
Continuous
 62
     3
100
AcDbPolyline
 90
        2
 70
     0
 43
0.15
 10
50.38328278947489
 20
75.34349010169689
 10
50.80965047067491
 20
75.00782440909688
  0
LWPOLYLINE
  5
27D
330
50
100
AcDbEntity
  8
0
  6
Continuous
 62
     3
100
AcDbPolyline
 90
        2
 70
     0
 43
0.15
 10
49.94234781847496
 20
75.54605106279689
 10
50.38328278947489
 20
75.34349010169689
  0
LWPOLYLINE
  5
27E
330
50
100
AcDbEntity
  8
0
  6
Continuous
 62
     3
100
AcDbPolyline
 90
        2
 70
     0
 43
0.15
 10
49.50895587817496
 20
75.60535003989685
 10
49.94234781847496
 20
75.54605106279689
  0
LWPOLYLINE
  5
27F
330
50
100
AcDbEntity
  8
0
  6
Continuous
 62
     3
100
AcDbPolyline
 90
        2
 70
     0
 43
0.15
 10
49.10483905027496
 20
75.5184135345969
 10
49.50895587817496
 20
75.60535003989685
  0
LWPOLYLINE
  5
280
330
50
100
AcDbEntity
  8
0
  6
Continuous
 62
     3
100
AcDbPolyline
 90
        2
 70
     0
 43
0.15
 10
48.75026143987492
 20
75.28960090639686
 10
49.10483905027496
 20
75.5184135345969
  0
LWPOLYLINE
  5
281
330
50
100
AcDbEntity
  8
0
  6
Continuous
 62
     3
100
AcDbPolyline
 90
        2
 70
     0
 43
0.15
 10
48.46300304897494
 20
74.93038577589687
 10
48.75026143987492
 20
75.28960090639686
  0
LWPOLYLINE
  5
282
330
50
100
AcDbEntity
  8
0
  6
Continuous
 62
     3
100
AcDbPolyline
 90
        2
 70
     0
 43
0.15
 10
48.25746821267495
 20
74.45878068969688
 10
48.46300304897494
 20
74.93038577589687
  0
LWPOLYLINE
  5
283
330
50
100
AcDbEntity
  8
0
  6
Continuous
 62
     3
100
AcDbPolyline
 90
        2
 70
     0
 43
0.15
 10
48.14396330607491
 20
73.89843389599685
 10
48.25746821267495
 20
74.45878068969688
  0
LWPOLYLINE
  5
284
330
50
100
AcDbEntity
  8
0
  6
Continuous
 62
     3
100
AcDbPolyline
 90
        2
 70
     0
 43
0.15
 10
48.12817993917491
 20
73.27744352289687
 10
48.14396330607491
 20
73.89843389599685
  0
LWPOLYLINE
  5
285
330
50
100
AcDbEntity
  8
0
  6
Continuous
 62
     3
100
AcDbPolyline
 90
        2
 70
     0
 43
0.15
 10
48.21090955567496
 20
72.62694862069691
 10
48.12817993917491
 20
73.27744352289687
  0
LWPOLYLINE
  5
286
330
50
100
AcDbEntity
  8
0
  6
Continuous
 62
     3
100
AcDbPolyline
 90
        2
 70
     0
 43
0.15
 10
48.38800374727492
 20
71.9795677200969
 10
48.21090955567496
 20
72.62694862069691
  0
LWPOLYLINE
  5
287
330
50
100
AcDbEntity
  8
0
  6
Continuous
 62
     3
100
AcDbPolyline
 90
        2
 70
     0
 43
0.15
 10
48.65058227177491
 20
71.36776320259685
 10
48.38800374727492
 20
71.9795677200969
  0
LWPOLYLINE
  5
288
330
50
100
AcDbEntity
  8
0
  6
Continuous
 62
     3
100
AcDbPolyline
 90
        2
 70
     0
 43
0.15
 10
48.9854783455749
 20
70.82221350149689
 10
48.65058227177491
 20
71.36776320259685
  0
LWPOLYLINE
  5
289
330
50
100
AcDbEntity
  8
0
  6
Continuous
 62
     3
100
AcDbPolyline
 90
        2
 70
     0
 43
0.15
 10
49.3758988808749
 20
70.37027475659687
 10
48.9854783455749
 20
70.82221350149689
  0
LWPOLYLINE
  5
28A
330
50
100
AcDbEntity
  8
0
  6
Continuous
 62
     3
100
AcDbPolyline
 90
        2
 70
     0
 43
0.15
 10
49.80226656207492
 20
70.03460906399687
 10
49.3758988808749
 20
70.37027475659687
  0
LWPOLYLINE
  5
28B
330
50
100
AcDbEntity
  8
0
  6
Continuous
 62
     3
100
AcDbPolyline
 90
        2
 70
     0
 43
0.15
 10
50.24320153307491
 20
69.83204810289686
 10
49.80226656207492
 20
70.03460906399687
  0
LWPOLYLINE
  5
28C
330
50
100
AcDbEntity
  8
0
  6
Continuous
 62
     3
100
AcDbPolyline
 90
        2
 70
     0
 43
0.15
 10
50.67659347337491
 20
69.77274912579685
 10
50.24320153307491
 20
69.83204810289686
  0
LWPOLYLINE
  5
28D
330
50
100
AcDbEntity
  8
0
  6
Continuous
 62
     3
100
AcDbPolyline
 90
        2
 70
     0
 43
0.15
 10
51.08071030127491
 20
69.85968563109691
 10
50.67659347337491
 20
69.77274912579685
  0
LWPOLYLINE
  5
28E
330
50
100
AcDbEntity
  8
0
  6
Continuous
 62
     3
100
AcDbPolyline
 90
        2
 70
     0
 43
0.15
 10
40.32893956317491
 20
96.20302740519685
 10
41.5781102534749
 20
95.63782153409687
  0
LWPOLYLINE
  5
28F
330
50
100
AcDbEntity
  8
0
  6
Continuous
 62
     3
100
AcDbPolyline
 90
        2
 70
     0
 43
0.15
 10
39.19439572907493
 20
96.79878562829686
 10
40.32893956317491
 20
96.20302740519685
  0
LWPOLYLINE
  5
290
330
50
100
AcDbEntity
  8
0
  6
Continuous
 62
     3
100
AcDbPolyline
 90
        2
 70
     0
 43
0.15
 10
38.18039373757489
 20
97.42199019589691
 10
39.19439572907493
 20
96.79878562829686
  0
LWPOLYLINE
  5
291
330
50
100
AcDbEntity
  8
0
  6
Continuous
 62
     3
100
AcDbPolyline
 90
        2
 70
     0
 43
0.15
 10
37.29222012527492
 20
98.06939200779686
 10
38.18039373757489
 20
97.42199019589691
  0
LWPOLYLINE
  5
292
330
50
100
AcDbEntity
  8
0
  6
Continuous
 62
     3
100
AcDbPolyline
 90
        2
 70
     0
 43
0.15
 10
36.53450541837492
 20
98.73761581089684
 10
37.29222012527492
 20
98.06939200779686
  0
LWPOLYLINE
  5
293
330
50
100
AcDbEntity
  8
0
  6
Continuous
 62
     3
100
AcDbPolyline
 90
        2
 70
     0
 43
0.15
 10
35.91119999037488
 20
99.42317779559687
 10
36.53450541837492
 20
98.73761581089684
  0
LWPOLYLINE
  5
294
330
50
100
AcDbEntity
  8
0
  6
Continuous
 62
     3
100
AcDbPolyline
 90
        2
 70
     0
 43
0.15
 10
35.42555346717489
 20
100.1225037591969
 10
35.91119999037488
 20
99.42317779559687
  0
LWPOLYLINE
  5
295
330
50
100
AcDbEntity
  8
0
  6
Continuous
 62
     3
100
AcDbPolyline
 90
        2
 70
     0
 43
0.15
 10
35.08009778487491
 20
100.8319477398969
 10
35.42555346717489
 20
100.1225037591969
  0
LWPOLYLINE
  5
296
330
50
100
AcDbEntity
  8
0
  6
Continuous
 62
     3
100
AcDbPolyline
 90
        2
 70
     0
 43
0.15
 10
34.87663398957494
 20
101.5478110252969
 10
35.08009778487491
 20
100.8319477398969
  0
LWPOLYLINE
  5
297
330
50
100
AcDbEntity
  8
0
  6
Continuous
 62
     3
100
AcDbPolyline
 90
        2
 70
     0
 43
0.15
 10
34.81584686067492
 20
102.2319207639969
 10
34.87663398957494
 20
101.5478110252969
  0
LWPOLYLINE
  5
298
330
50
100
AcDbEntity
  8
0
  6
Continuous
 62
     3
100
AcDbPolyline
 90
        2
 70
     0
 43
0.15
 10
89.79086920527487
 20
101.5009745128969
 10
89.81481199377487
 20
101.8945273907968
  0
LWPOLYLINE
  5
299
330
50
100
AcDbEntity
  8
0
  6
Continuous
 62
     3
100
AcDbPolyline
 90
        2
 70
     0
 43
0.15
 10
89.63634444767496
 20
100.7854165568969
 10
89.79086920527487
 20
101.5009745128969
  0
LWPOLYLINE
  5
29A
330
50
100
AcDbEntity
  8
0
  6
Continuous
 62
     3
100
AcDbPolyline
 90
        2
 70
     0
 43
0.15
 10
89.3393805683749
 20
100.0765204977969
 10
89.63634444767496
 20
100.7854165568969
  0
LWPOLYLINE
  5
29B
330
50
100
AcDbEntity
  8
0
  6
Continuous
 62
     3
100
AcDbPolyline
 90
        2
 70
     0
 43
0.15
 10
88.90152579957493
 20
99.3779821911969
 10
89.3393805683749
 20
100.0765204977969
  0
LWPOLYLINE
  5
29C
330
50
100
AcDbEntity
  8
0
  6
Continuous
 62
     3
100
AcDbPolyline
 90
        2
 70
     0
 43
0.15
 10
88.32506291317492
 20
98.69344349239691
 10
88.90152579957493
 20
99.3779821911969
  0
LWPOLYLINE
  5
29D
330
50
100
AcDbEntity
  8
0
  6
Continuous
 62
     3
100
AcDbPolyline
 90
        2
 70
     0
 43
0.15
 10
87.61299731987486
 20
98.02647326919691
 10
88.32506291317492
 20
98.69344349239691
  0
LWPOLYLINE
  5
29E
330
50
100
AcDbEntity
  8
0
  6
Continuous
 62
     3
100
AcDbPolyline
 90
        2
 70
     0
 43
0.15
 10
86.76904139987488
 20
97.38054879559684
 10
87.61299731987486
 20
98.02647326919691
  0
LWPOLYLINE
  5
29F
330
50
100
AcDbEntity
  8
0
  6
Continuous
 62
     3
100
AcDbPolyline
 90
        2
 70
     0
 43
0.15
 10
85.79759514857489
 20
96.75903762269684
 10
86.76904139987488
 20
97.38054879559684
  0
LWPOLYLINE
  5
2A0
330
50
100
AcDbEntity
  8
0
  6
Continuous
 62
     3
100
AcDbPolyline
 90
        2
 70
     0
 43
0.15
 10
84.7037232369749
 20
96.16518002189684
 10
85.79759514857489
 20
96.75903762269684
  0
LWPOLYLINE
  5
2A1
330
50
100
AcDbEntity
  8
0
  6
Continuous
 62
     3
100
AcDbPolyline
 90
        2
 70
     0
 43
0.15
 10
83.49312860667493
 20
95.60207209179691
 10
84.7037232369749
 20
96.16518002189684
  0
LWPOLYLINE
  5
2A2
330
50
100
AcDbEntity
  8
0
  6
Continuous
 62
     3
100
AcDbPolyline
 90
        2
 70
     0
 43
0.15
 10
82.17212273757485
 20
95.07264961649685
 10
83.49312860667493
 20
95.60207209179691
  0
LWPOLYLINE
  5
2A3
330
50
100
AcDbEntity
  8
0
  6
Continuous
 62
     3
100
AcDbPolyline
 90
        2
 70
     0
 43
0.15
 10
80.74759274247486
 20
94.57967275939689
 10
82.17212273757485
 20
95.07264961649685
  0
LWPOLYLINE
  5
2A4
330
50
100
AcDbEntity
  8
0
  6
Continuous
 62
     3
100
AcDbPolyline
 90
        2
 70
     0
 43
0.15
 10
79.22696546127492
 20
94.1257116737969
 10
80.74759274247486
 20
94.57967275939689
  0
LWPOLYLINE
  5
2A5
330
50
100
AcDbEntity
  8
0
  6
Continuous
 62
     3
100
AcDbPolyline
 90
        2
 70
     0
 43
0.15
 10
77.61816874057496
 20
93.71313310259688
 10
79.22696546127492
 20
94.1257116737969
  0
LWPOLYLINE
  5
2A6
330
50
100
AcDbEntity
  8
0
  6
Continuous
 62
     3
100
AcDbPolyline
 90
        2
 70
     0
 43
0.15
 10
75.92959010137491
 20
93.34408803919689
 10
77.61816874057496
 20
93.71313310259688
  0
LWPOLYLINE
  5
2A7
330
50
100
AcDbEntity
  8
0
  6
Continuous
 62
     3
100
AcDbPolyline
 90
        2
 70
     0
 43
0.15
 10
74.17003301087487
 20
93.02050051389688
 10
75.92959010137491
 20
93.34408803919689
  0
LWPOLYLINE
  5
2A8
330
50
100
AcDbEntity
  8
0
  6
Continuous
 62
     3
100
AcDbPolyline
 90
        2
 70
     0
 43
0.15
 10
72.34867098507488
 20
92.74405756219687
 10
74.17003301087487
 20
93.02050051389688
  0
LWPOLYLINE
  5
2A9
330
50
100
AcDbEntity
  8
0
  6
Continuous
 62
     3
100
AcDbPolyline
 90
        2
 70
     0
 43
0.15
 10
70.47499976227488
 20
92.51620042949685
 10
72.34867098507488
 20
92.74405756219687
  0
LWPOLYLINE
  5
2AA
330
50
100
AcDbEntity
  8
0
  6
Continuous
 62
     3
100
AcDbPolyline
 90
        2
 70
     0
 43
0.15
 10
68.55878779647486
 20
92.33811705759689
 10
70.47499976227488
 20
92.51620042949685
  0
LWPOLYLINE
  5
2AB
330
50
100
AcDbEntity
  8
0
  6
Continuous
 62
     3
100
AcDbPolyline
 90
        2
 70
     0
 43
0.15
 10
66.6100253296749
 20
92.21073589059688
 10
68.55878779647486
 20
92.33811705759689
  0
LWPOLYLINE
  5
2AC
330
50
100
AcDbEntity
  8
0
  6
Continuous
 62
     3
100
AcDbPolyline
 90
        2
 70
     0
 43
0.15
 10
64.6388723070749
 20
92.13472103489687
 10
66.6100253296749
 20
92.21073589059688
  0
LWPOLYLINE
  5
2AD
330
50
100
AcDbEntity
  8
0
  6
Continuous
 62
     3
100
AcDbPolyline
 90
        2
 70
     0
 43
0.15
 10
62.65560540777489
 20
92.11046879679691
 10
64.6388723070749
 20
92.13472103489687
  0
LWPOLYLINE
  5
2AE
330
50
100
AcDbEntity
  8
0
  6
Continuous
 62
     3
100
AcDbPolyline
 90
        2
 70
     0
 43
0.15
 10
60.67056446707494
 20
92.13810561629685
 10
62.65560540777489
 20
92.11046879679691
  0
LWPOLYLINE
  5
2AF
330
50
100
AcDbEntity
  8
0
  6
Continuous
 62
     3
100
AcDbPolyline
 90
        2
 70
     0
 43
0.15
 10
58.69409856937494
 20
92.21748740769686
 10
60.67056446707494
 20
92.13810561629685
  0
LWPOLYLINE
  5
2B0
330
50
100
AcDbEntity
  8
0
  6
Continuous
 62
     3
100
AcDbPolyline
 90
        2
 70
     0
 43
0.15
 10
56.73651209247493
 20
92.34820031119688
 10
58.69409856937494
 20
92.21748740769686
  0
LWPOLYLINE
  5
2B1
330
50
100
AcDbEntity
  8
0
  6
Continuous
 62
     3
100
AcDbPolyline
 90
        2
 70
     0
 43
0.15
 10
54.80801098607492
 20
92.52956285029688
 10
56.73651209247493
 20
92.34820031119688
  0
LWPOLYLINE
  5
2B2
330
50
100
AcDbEntity
  8
0
  6
Continuous
 62
     3
100
AcDbPolyline
 90
        2
 70
     0
 43
0.15
 10
52.91864956177489
 20
92.76062948449686
 10
54.80801098607492
 20
92.52956285029688
  0
LWPOLYLINE
  5
2B3
330
50
100
AcDbEntity
  8
0
  6
Continuous
 62
     3
100
AcDbPolyline
 90
        2
 70
     0
 43
0.15
 10
51.07827807537495
 20
93.04019553949689
 10
52.91864956177489
 20
92.76062948449686
  0
LWPOLYLINE
  5
2B4
330
50
100
AcDbEntity
  8
0
  6
Continuous
 62
     3
100
AcDbPolyline
 90
        2
 70
     0
 43
0.15
 10
49.29649137147493
 20
93.36680348729686
 10
51.07827807537495
 20
93.04019553949689
  0
LWPOLYLINE
  5
2B5
330
50
100
AcDbEntity
  8
0
  6
Continuous
 62
     3
100
AcDbPolyline
 90
        2
 70
     0
 43
0.15
 10
47.58257886107492
 20
93.7387505453969
 10
49.29649137147493
 20
93.36680348729686
  0
LWPOLYLINE
  5
2B6
330
50
100
AcDbEntity
  8
0
  6
Continuous
 62
     3
100
AcDbPolyline
 90
        2
 70
     0
 43
0.15
 10
45.94547609027489
 20
94.15409755379687
 10
47.58257886107492
 20
93.7387505453969
  0
LWPOLYLINE
  5
2B7
330
50
100
AcDbEntity
  8
0
  6
Continuous
 62
     3
100
AcDbPolyline
 90
        2
 70
     0
 43
0.15
 10
44.39371815497492
 20
94.61067908579685
 10
45.94547609027489
 20
94.15409755379687
  0
LWPOLYLINE
  5
2B8
330
50
100
AcDbEntity
  8
0
  6
Continuous
 62
     3
100
AcDbPolyline
 90
        2
 70
     0
 43
0.15
 10
42.93539520257491
 20
95.10611473659685
 10
44.39371815497492
 20
94.61067908579685
  0
LWPOLYLINE
  5
2B9
330
50
100
AcDbEntity
  8
0
  6
Continuous
 62
     3
100
AcDbPolyline
 90
        2
 70
     0
 43
0.15
 10
41.5781102534749
 20
95.63782153409687
 10
42.93539520257491
 20
95.10611473659685
  0
LWPOLYLINE
  5
2BA
330
50
100
AcDbEntity
  8
0
  6
Continuous
 62
     3
100
AcDbPolyline
 90
        2
 70
     0
 43
0.15
 10
40.35753294427491
 20
100.8640743995969
 10
41.6067036345749
 20
100.2988685284969
  0
LWPOLYLINE
  5
2BB
330
50
100
AcDbEntity
  8
0
  6
Continuous
 62
     3
100
AcDbPolyline
 90
        2
 70
     0
 43
0.15
 10
39.22298911017492
 20
101.4598326226969
 10
40.35753294427491
 20
100.8640743995969
  0
LWPOLYLINE
  5
2BC
330
50
100
AcDbEntity
  8
0
  6
Continuous
 62
     3
100
AcDbPolyline
 90
        2
 70
     0
 43
0.15
 10
38.20898711857495
 20
102.0830371902969
 10
39.22298911017492
 20
101.4598326226969
  0
LWPOLYLINE
  5
2BD
330
50
100
AcDbEntity
  8
0
  6
Continuous
 62
     3
100
AcDbPolyline
 90
        2
 70
     0
 43
0.15
 10
37.32081350637492
 20
102.7304390022969
 10
38.20898711857495
 20
102.0830371902969
  0
LWPOLYLINE
  5
2BE
330
50
100
AcDbEntity
  8
0
  6
Continuous
 62
     3
100
AcDbPolyline
 90
        2
 70
     0
 43
0.15
 10
36.56309879937493
 20
103.3986628052969
 10
37.32081350637492
 20
102.7304390022969
  0
LWPOLYLINE
  5
2BF
330
50
100
AcDbEntity
  8
0
  6
Continuous
 62
     3
100
AcDbPolyline
 90
        2
 70
     0
 43
0.15
 10
35.93979337137495
 20
104.0842247899969
 10
36.56309879937493
 20
103.3986628052969
  0
LWPOLYLINE
  5
2C0
330
50
100
AcDbEntity
  8
0
  6
Continuous
 62
     3
100
AcDbPolyline
 90
        2
 70
     0
 43
0.15
 10
35.45414684817496
 20
104.7835507535968
 10
35.93979337137495
 20
104.0842247899969
  0
LWPOLYLINE
  5
2C1
330
50
100
AcDbEntity
  8
0
  6
Continuous
 62
     3
100
AcDbPolyline
 90
        2
 70
     0
 43
0.15
 10
35.1086911659749
 20
105.4929947342969
 10
35.45414684817496
 20
104.7835507535968
  0
LWPOLYLINE
  5
2C2
330
50
100
AcDbEntity
  8
0
  6
Continuous
 62
     3
100
AcDbPolyline
 90
        2
 70
     0
 43
0.15
 10
34.90522737057489
 20
106.2088580196969
 10
35.1086911659749
 20
105.4929947342969
  0
LWPOLYLINE
  5
2C3
330
50
100
AcDbEntity
  8
0
  6
Continuous
 62
     3
100
AcDbPolyline
 90
        2
 70
     0
 43
0.15
 10
34.84481622817492
 20
106.9274084300969
 10
34.90522737057489
 20
106.2088580196969
  0
LWPOLYLINE
  5
2C4
330
50
100
AcDbEntity
  8
0
  6
Continuous
 62
     3
100
AcDbPolyline
 90
        2
 70
     0
 43
0.15
 10
34.92777269427489
 20
107.6448997763969
 10
34.84481622817492
 20
106.9274084300969
  0
LWPOLYLINE
  5
2C5
330
50
100
AcDbEntity
  8
0
  6
Continuous
 62
     3
100
AcDbPolyline
 90
        2
 70
     0
 43
0.15
 10
35.15366427257487
 20
108.3575913908969
 10
34.92777269427489
 20
107.6448997763969
  0
LWPOLYLINE
  5
2C6
330
50
100
AcDbEntity
  8
0
  6
Continuous
 62
     3
100
AcDbPolyline
 90
        2
 70
     0
 43
0.15
 10
35.52131326867487
 20
109.0617676294969
 10
35.15366427257487
 20
108.3575913908969
  0
LWPOLYLINE
  5
2C7
330
50
100
AcDbEntity
  8
0
  6
Continuous
 62
     3
100
AcDbPolyline
 90
        2
 70
     0
 43
0.15
 10
36.02880293117488
 20
109.7537572434969
 10
35.52131326867487
 20
109.0617676294969
  0
LWPOLYLINE
  5
2C8
330
50
100
AcDbEntity
  8
0
  6
Continuous
 62
     3
100
AcDbPolyline
 90
        2
 70
     0
 43
0.15
 10
36.67348744377495
 20
110.4299525191969
 10
36.02880293117488
 20
109.7537572434969
  0
LWPOLYLINE
  5
2C9
330
50
100
AcDbEntity
  8
0
  6
Continuous
 62
     3
100
AcDbPolyline
 90
        2
 70
     0
 43
0.15
 10
37.45200572007491
 20
111.0868280877969
 10
36.67348744377495
 20
110.4299525191969
  0
LWPOLYLINE
  5
2CA
330
50
100
AcDbEntity
  8
0
  6
Continuous
 62
     3
100
AcDbPolyline
 90
        2
 70
     0
 43
0.15
 10
38.36029892627488
 20
111.7209593040969
 10
37.45200572007491
 20
111.0868280877969
  0
LWPOLYLINE
  5
2CB
330
50
100
AcDbEntity
  8
0
  6
Continuous
 62
     3
100
AcDbPolyline
 90
        2
 70
     0
 43
0.15
 10
39.39363164207492
 20
112.3290401016969
 10
38.36029892627488
 20
111.7209593040969
  0
LWPOLYLINE
  5
2CC
330
50
100
AcDbEntity
  8
0
  6
Continuous
 62
     3
100
AcDbPolyline
 90
        2
 70
     0
 43
0.15
 10
40.54661654917487
 20
112.9079002286969
 10
39.39363164207492
 20
112.3290401016969
  0
LWPOLYLINE
  5
2CD
330
50
100
AcDbEntity
  8
0
  6
Continuous
 62
     3
100
AcDbPolyline
 90
        2
 70
     0
 43
0.15
 10
41.81324251827488
 20
113.4545217764969
 10
40.54661654917487
 20
112.9079002286969
  0
LWPOLYLINE
  5
2CE
330
50
100
AcDbEntity
  8
0
  6
Continuous
 62
     3
100
AcDbPolyline
 90
        2
 70
     0
 43
0.15
 10
43.18690594787489
 20
113.9660549134969
 10
41.81324251827488
 20
113.4545217764969
  0
LWPOLYLINE
  5
2CF
330
50
100
AcDbEntity
  8
0
  6
Continuous
 62
     3
100
AcDbPolyline
 90
        2
 70
     0
 43
0.15
 10
44.66044519297492
 20
114.4398327427969
 10
43.18690594787489
 20
113.9660549134969
  0
LWPOLYLINE
  5
2D0
330
50
100
AcDbEntity
  8
0
  6
Continuous
 62
     3
100
AcDbPolyline
 90
        2
 70
     0
 43
0.15
 10
46.2261779023749
 20
114.8733852060969
 10
44.66044519297492
 20
114.4398327427969
  0
LWPOLYLINE
  5
2D1
330
50
100
AcDbEntity
  8
0
  6
Continuous
 62
     3
100
AcDbPolyline
 90
        2
 70
     0
 43
0.15
 10
47.87594107057493
 20
115.2644519615969
 10
46.2261779023749
 20
114.8733852060969
  0
LWPOLYLINE
  5
2D2
330
50
100
AcDbEntity
  8
0
  6
Continuous
 62
     3
100
AcDbPolyline
 90
        2
 70
     0
 43
0.15
 10
49.60113359627491
 20
115.6109941683969
 10
47.87594107057493
 20
115.2644519615969
  0
LWPOLYLINE
  5
2D3
330
50
100
AcDbEntity
  8
0
  6
Continuous
 62
     3
100
AcDbPolyline
 90
        2
 70
     0
 43
0.15
 10
51.39276112467491
 20
115.9112051157969
 10
49.60113359627491
 20
115.6109941683969
  0
LWPOLYLINE
  5
2D4
330
50
100
AcDbEntity
  8
0
  6
Continuous
 62
     3
100
AcDbPolyline
 90
        2
 70
     0
 43
0.15
 10
53.24148293927493
 20
116.1635196429969
 10
51.39276112467491
 20
115.9112051157969
  0
LWPOLYLINE
  5
2D5
330
50
100
AcDbEntity
  8
0
  6
Continuous
 62
     3
100
AcDbPolyline
 90
        2
 70
     0
 43
0.15
 10
55.13766066057491
 20
116.3666222988969
 10
53.24148293927493
 20
116.1635196429969
  0
LWPOLYLINE
  5
2D6
330
50
100
AcDbEntity
  8
0
  6
Continuous
 62
     3
100
AcDbPolyline
 90
        2
 70
     0
 43
0.15
 10
57.07140849597494
 20
116.5194542001968
 10
55.13766066057491
 20
116.3666222988969
  0
LWPOLYLINE
  5
2D7
330
50
100
AcDbEntity
  8
0
  6
Continuous
 62
     3
100
AcDbPolyline
 90
        2
 70
     0
 43
0.15
 10
59.03264477967497
 20
116.6212185521969
 10
57.07140849597494
 20
116.5194542001968
  0
LWPOLYLINE
  5
2D8
330
50
100
AcDbEntity
  8
0
  6
Continuous
 62
     3
100
AcDbPolyline
 90
        2
 70
     0
 43
0.15
 10
61.01114453367489
 20
116.6713848026969
 10
59.03264477967497
 20
116.6212185521969
  0
LWPOLYLINE
  5
2D9
330
50
100
AcDbEntity
  8
0
  6
Continuous
 62
     3
100
AcDbPolyline
 90
        2
 70
     0
 43
0.15
 10
62.99659277657491
 20
116.6696914079969
 10
61.01114453367489
 20
116.6713848026969
  0
LWPOLYLINE
  5
2DA
330
50
100
AcDbEntity
  8
0
  6
Continuous
 62
     3
100
AcDbPolyline
 90
        2
 70
     0
 43
0.15
 10
64.97863830037494
 20
116.6161471968969
 10
62.99659277657491
 20
116.6696914079969
  0
LWPOLYLINE
  5
2DB
330
50
100
AcDbEntity
  8
0
  6
Continuous
 62
     3
100
AcDbPolyline
 90
        2
 70
     0
 43
0.15
 10
66.9469476376749
 20
116.5110313238969
 10
64.97863830037494
 20
116.6161471968969
  0
LWPOLYLINE
  5
2DC
330
50
100
AcDbEntity
  8
0
  6
Continuous
 62
     3
100
AcDbPolyline
 90
        2
 70
     0
 43
0.15
 10
68.89125893477495
 20
116.3548918144969
 10
66.9469476376749
 20
116.5110313238969
  0
LWPOLYLINE
  5
2DD
330
50
100
AcDbEntity
  8
0
  6
Continuous
 62
     3
100
AcDbPolyline
 90
        2
 70
     0
 43
0.15
 10
70.80143545307493
 20
116.1485427079969
 10
68.89125893477495
 20
116.3548918144969
  0
LWPOLYLINE
  5
2DE
330
50
100
AcDbEntity
  8
0
  6
Continuous
 62
     3
100
AcDbPolyline
 90
        2
 70
     0
 43
0.15
 10
72.66751841647493
 20
115.8930598128969
 10
70.80143545307493
 20
116.1485427079969
  0
LWPOLYLINE
  5
2DF
330
50
100
AcDbEntity
  8
0
  6
Continuous
 62
     3
100
AcDbPolyline
 90
        2
 70
     0
 43
0.15
 10
74.47977893267495
 20
115.5897750986969
 10
72.66751841647493
 20
115.8930598128969
  0
LWPOLYLINE
  5
2E0
330
50
100
AcDbEntity
  8
0
  6
Continuous
 62
     3
100
AcDbPolyline
 90
        2
 70
     0
 43
0.15
 10
76.22876871427496
 20
115.2402697516969
 10
74.47977893267495
 20
115.5897750986969
  0
LWPOLYLINE
  5
2E1
330
50
100
AcDbEntity
  8
0
  6
Continuous
 62
     3
100
AcDbPolyline
 90
        2
 70
     0
 43
0.15
 10
77.90536933857487
 20
114.8463659306968
 10
76.22876871427496
 20
115.2402697516969
  0
LWPOLYLINE
  5
2E2
330
50
100
AcDbEntity
  8
0
  6
Continuous
 62
     3
100
AcDbPolyline
 90
        2
 70
     0
 43
0.15
 10
79.50083978607489
 20
114.4101172678969
 10
77.90536933857487
 20
114.8463659306968
  0
LWPOLYLINE
  5
2E3
330
50
100
AcDbEntity
  8
0
  6
Continuous
 62
     3
100
AcDbPolyline
 90
        2
 70
     0
 43
0.15
 10
81.00686201277489
 20
113.9337981619968
 10
79.50083978607489
 20
114.4101172678969
  0
LWPOLYLINE
  5
2E4
330
50
100
AcDbEntity
  8
0
  6
Continuous
 62
     3
100
AcDbPolyline
 90
        2
 70
     0
 43
0.15
 10
82.41558431617494
 20
113.4198919199969
 10
81.00686201277489
 20
113.9337981619968
  0
LWPOLYLINE
  5
2E5
330
50
100
AcDbEntity
  8
0
  6
Continuous
 62
     3
100
AcDbPolyline
 90
        2
 70
     0
 43
0.15
 10
83.71966227027491
 20
112.8710778111969
 10
82.41558431617494
 20
113.4198919199969
  0
LWPOLYLINE
  5
2E6
330
50
100
AcDbEntity
  8
0
  6
Continuous
 62
     3
100
AcDbPolyline
 90
        2
 70
     0
 43
0.15
 10
84.91229701647495
 20
112.2902170982969
 10
83.71966227027491
 20
112.8710778111969
  0
LWPOLYLINE
  5
2E7
330
50
100
AcDbEntity
  8
0
  6
Continuous
 62
     3
100
AcDbPolyline
 90
        2
 70
     0
 43
0.15
 10
85.98727070967487
 20
111.6803381200969
 10
84.91229701647495
 20
112.2902170982969
  0
LWPOLYLINE
  5
2E8
330
50
100
AcDbEntity
  8
0
  6
Continuous
 62
     3
100
AcDbPolyline
 90
        2
 70
     0
 43
0.15
 10
86.93897893457489
 20
111.0446205030969
 10
85.98727070967487
 20
111.6803381200969
  0
LWPOLYLINE
  5
2E9
330
50
100
AcDbEntity
  8
0
  6
Continuous
 62
     3
100
AcDbPolyline
 90
        2
 70
     0
 43
0.15
 10
87.76245992517494
 20
110.3863785845969
 10
86.93897893457489
 20
111.0446205030969
  0
LWPOLYLINE
  5
2EA
330
50
100
AcDbEntity
  8
0
  6
Continuous
 62
     3
100
AcDbPolyline
 90
        2
 70
     0
 43
0.15
 10
88.45342043297495
 20
109.7090441332969
 10
87.76245992517494
 20
110.3863785845969
  0
LWPOLYLINE
  5
2EB
330
50
100
AcDbEntity
  8
0
  6
Continuous
 62
     3
100
AcDbPolyline
 90
        2
 70
     0
 43
0.15
 10
89.00825810987493
 20
109.0161484571969
 10
88.45342043297495
 20
109.7090441332969
  0
LWPOLYLINE
  5
2EC
330
50
100
AcDbEntity
  8
0
  6
Continuous
 62
     3
100
AcDbPolyline
 90
        2
 70
     0
 43
0.15
 10
89.42408028897495
 20
108.3113039936969
 10
89.00825810987493
 20
109.0161484571969
  0
LWPOLYLINE
  5
2ED
330
50
100
AcDbEntity
  8
0
  6
Continuous
 62
     3
100
AcDbPolyline
 90
        2
 70
     0
 43
0.15
 10
89.69871906607494
 20
107.5981854753969
 10
89.42408028897495
 20
108.3113039936969
  0
LWPOLYLINE
  5
2EE
330
50
100
AcDbEntity
  8
0
  6
Continuous
 62
     3
100
AcDbPolyline
 90
        2
 70
     0
 43
0.15
 10
89.8307426016749
 20
106.8805107720968
 10
89.69871906607494
 20
107.5981854753969
  0
LWPOLYLINE
  5
2EF
330
50
100
AcDbEntity
  8
0
  6
Continuous
 62
     3
100
AcDbPolyline
 90
        2
 70
     0
 43
0.15
 10
89.81946258637487
 20
106.1620215072969
 10
89.8307426016749
 20
106.8805107720968
  0
LWPOLYLINE
  5
2F0
330
50
100
AcDbEntity
  8
0
  6
Continuous
 62
     3
100
AcDbPolyline
 90
        2
 70
     0
 43
0.15
 10
89.66493782877495
 20
105.4464635513969
 10
89.81946258637487
 20
106.1620215072969
  0
LWPOLYLINE
  5
2F1
330
50
100
AcDbEntity
  8
0
  6
Continuous
 62
     3
100
AcDbPolyline
 90
        2
 70
     0
 43
0.15
 10
89.3679739494749
 20
104.7375674921969
 10
89.66493782877495
 20
105.4464635513969
  0
LWPOLYLINE
  5
2F2
330
50
100
AcDbEntity
  8
0
  6
Continuous
 62
     3
100
AcDbPolyline
 90
        2
 70
     0
 43
0.15
 10
88.93011918057488
 20
104.0390291855969
 10
89.3679739494749
 20
104.7375674921969
  0
LWPOLYLINE
  5
2F3
330
50
100
AcDbEntity
  8
0
  6
Continuous
 62
     3
100
AcDbPolyline
 90
        2
 70
     0
 43
0.15
 10
88.35365629427491
 20
103.3544904867969
 10
88.93011918057488
 20
104.0390291855969
  0
LWPOLYLINE
  5
2F4
330
50
100
AcDbEntity
  8
0
  6
Continuous
 62
     3
100
AcDbPolyline
 90
        2
 70
     0
 43
0.15
 10
87.64159070087493
 20
102.6875202635969
 10
88.35365629427491
 20
103.3544904867969
  0
LWPOLYLINE
  5
2F5
330
50
100
AcDbEntity
  8
0
  6
Continuous
 62
     3
100
AcDbPolyline
 90
        2
 70
     0
 43
0.15
 10
86.79763478087494
 20
102.0415957899969
 10
87.64159070087493
 20
102.6875202635969
  0
LWPOLYLINE
  5
2F6
330
50
100
AcDbEntity
  8
0
  6
Continuous
 62
     3
100
AcDbPolyline
 90
        2
 70
     0
 43
0.15
 10
85.82618852967488
 20
101.4200846170969
 10
86.79763478087494
 20
102.0415957899969
  0
LWPOLYLINE
  5
2F7
330
50
100
AcDbEntity
  8
0
  6
Continuous
 62
     3
100
AcDbPolyline
 90
        2
 70
     0
 43
0.15
 10
84.73231661807489
 20
100.8262270162969
 10
85.82618852967488
 20
101.4200846170969
  0
LWPOLYLINE
  5
2F8
330
50
100
AcDbEntity
  8
0
  6
Continuous
 62
     3
100
AcDbPolyline
 90
        2
 70
     0
 43
0.15
 10
83.52172198777492
 20
100.2631190862969
 10
84.73231661807489
 20
100.8262270162969
  0
LWPOLYLINE
  5
2F9
330
50
100
AcDbEntity
  8
0
  6
Continuous
 62
     3
100
AcDbPolyline
 90
        2
 70
     0
 43
0.15
 10
82.20071611857492
 20
99.73369661089691
 10
83.52172198777492
 20
100.2631190862969
  0
LWPOLYLINE
  5
2FA
330
50
100
AcDbEntity
  8
0
  6
Continuous
 62
     3
100
AcDbPolyline
 90
        2
 70
     0
 43
0.15
 10
80.77618612357486
 20
99.24071975389688
 10
82.20071611857492
 20
99.73369661089691
  0
LWPOLYLINE
  5
2FB
330
50
100
AcDbEntity
  8
0
  6
Continuous
 62
     3
100
AcDbPolyline
 90
        2
 70
     0
 43
0.15
 10
79.25555884237491
 20
98.7867586682969
 10
80.77618612357486
 20
99.24071975389688
  0
LWPOLYLINE
  5
2FC
330
50
100
AcDbEntity
  8
0
  6
Continuous
 62
     3
100
AcDbPolyline
 90
        2
 70
     0
 43
0.15
 10
77.64676212157491
 20
98.37418009699684
 10
79.25555884237491
 20
98.7867586682969
  0
LWPOLYLINE
  5
2FD
330
50
100
AcDbEntity
  8
0
  6
Continuous
 62
     3
100
AcDbPolyline
 90
        2
 70
     0
 43
0.15
 10
75.95818348237486
 20
98.00513503369689
 10
77.64676212157491
 20
98.37418009699684
  0
LWPOLYLINE
  5
2FE
330
50
100
AcDbEntity
  8
0
  6
Continuous
 62
     3
100
AcDbPolyline
 90
        2
 70
     0
 43
0.15
 10
74.19862639197487
 20
97.68154750839687
 10
75.95818348237486
 20
98.00513503369689
  0
LWPOLYLINE
  5
2FF
330
50
100
AcDbEntity
  8
0
  6
Continuous
 62
     3
100
AcDbPolyline
 90
        2
 70
     0
 43
0.15
 10
72.37726436617487
 20
97.40510455659688
 10
74.19862639197487
 20
97.68154750839687
  0
LWPOLYLINE
  5
300
330
50
100
AcDbEntity
  8
0
  6
Continuous
 62
     3
100
AcDbPolyline
 90
        2
 70
     0
 43
0.15
 10
70.50359314327494
 20
97.17724742399685
 10
72.37726436617487
 20
97.40510455659688
  0
LWPOLYLINE
  5
301
330
50
100
AcDbEntity
  8
0
  6
Continuous
 62
     3
100
AcDbPolyline
 90
        2
 70
     0
 43
0.15
 10
68.58738117757485
 20
96.9991640519969
 10
70.50359314327494
 20
97.17724742399685
  0
LWPOLYLINE
  5
302
330
50
100
AcDbEntity
  8
0
  6
Continuous
 62
     3
100
AcDbPolyline
 90
        2
 70
     0
 43
0.15
 10
66.63861871077489
 20
96.87178288499683
 10
68.58738117757485
 20
96.9991640519969
  0
LWPOLYLINE
  5
303
330
50
100
AcDbEntity
  8
0
  6
Continuous
 62
     3
100
AcDbPolyline
 90
        2
 70
     0
 43
0.15
 10
64.6674656881749
 20
96.79576802929688
 10
66.63861871077489
 20
96.87178288499683
  0
LWPOLYLINE
  5
304
330
50
100
AcDbEntity
  8
0
  6
Continuous
 62
     3
100
AcDbPolyline
 90
        2
 70
     0
 43
0.15
 10
62.68419878887488
 20
96.77151579119686
 10
64.6674656881749
 20
96.79576802929688
  0
LWPOLYLINE
  5
305
330
50
100
AcDbEntity
  8
0
  6
Continuous
 62
     3
100
AcDbPolyline
 90
        2
 70
     0
 43
0.15
 10
60.69915784817493
 20
96.79915261069686
 10
62.68419878887488
 20
96.77151579119686
  0
LWPOLYLINE
  5
306
330
50
100
AcDbEntity
  8
0
  6
Continuous
 62
     3
100
AcDbPolyline
 90
        2
 70
     0
 43
0.15
 10
58.7226919503749
 20
96.87853440209688
 10
60.69915784817493
 20
96.79915261069686
  0
LWPOLYLINE
  5
307
330
50
100
AcDbEntity
  8
0
  6
Continuous
 62
     3
100
AcDbPolyline
 90
        2
 70
     0
 43
0.15
 10
56.76510547357492
 20
97.00924730569687
 10
58.7226919503749
 20
96.87853440209688
  0
LWPOLYLINE
  5
308
330
50
100
AcDbEntity
  8
0
  6
Continuous
 62
     3
100
AcDbPolyline
 90
        2
 70
     0
 43
0.15
 10
54.83660436707493
 20
97.19060984469684
 10
56.76510547357492
 20
97.00924730569687
  0
LWPOLYLINE
  5
309
330
50
100
AcDbEntity
  8
0
  6
Continuous
 62
     3
100
AcDbPolyline
 90
        2
 70
     0
 43
0.15
 10
52.94724294287488
 20
97.42167647889687
 10
54.83660436707493
 20
97.19060984469684
  0
LWPOLYLINE
  5
30A
330
50
100
AcDbEntity
  8
0
  6
Continuous
 62
     3
100
AcDbPolyline
 90
        2
 70
     0
 43
0.15
 10
51.1068714563749
 20
97.7012425338969
 10
52.94724294287488
 20
97.42167647889687
  0
LWPOLYLINE
  5
30B
330
50
100
AcDbEntity
  8
0
  6
Continuous
 62
     3
100
AcDbPolyline
 90
        2
 70
     0
 43
0.15
 10
49.32508475257492
 20
98.02785048179686
 10
51.1068714563749
 20
97.7012425338969
  0
LWPOLYLINE
  5
30C
330
50
100
AcDbEntity
  8
0
  6
Continuous
 62
     3
100
AcDbPolyline
 90
        2
 70
     0
 43
0.15
 10
47.61117224207493
 20
98.39979753979685
 10
49.32508475257492
 20
98.02785048179686
  0
LWPOLYLINE
  5
30D
330
50
100
AcDbEntity
  8
0
  6
Continuous
 62
     3
100
AcDbPolyline
 90
        2
 70
     0
 43
0.15
 10
45.97406947137489
 20
98.81514454829687
 10
47.61117224207493
 20
98.39979753979685
  0
LWPOLYLINE
  5
30E
330
50
100
AcDbEntity
  8
0
  6
Continuous
 62
     3
100
AcDbPolyline
 90
        2
 70
     0
 43
0.15
 10
44.42231153607492
 20
99.27172608019691
 10
45.97406947137489
 20
98.81514454829687
  0
LWPOLYLINE
  5
30F
330
50
100
AcDbEntity
  8
0
  6
Continuous
 62
     3
100
AcDbPolyline
 90
        2
 70
     0
 43
0.15
 10
42.96398858357492
 20
99.76716173099686
 10
44.42231153607492
 20
99.27172608019691
  0
LWPOLYLINE
  5
310
330
50
100
AcDbEntity
  8
0
  6
Continuous
 62
     3
100
AcDbPolyline
 90
        2
 70
     0
 43
0.15
 10
41.6067036345749
 20
100.2988685284969
 10
42.96398858357492
 20
99.76716173099686
  0
LWPOLYLINE
  5
311
330
50
100
AcDbEntity
  8
0
  6
Continuous
 62
     3
100
AcDbPolyline
 90
        2
 70
     0
 43
0.15
 10
49.85662788947491
 20
75.75541203389685
 10
49.80813821067494
 20
75.74156487279686
  0
LWPOLYLINE
  5
312
330
50
100
AcDbEntity
  8
0
  6
Continuous
 62
     3
100
AcDbPolyline
 90
        2
 70
     0
 43
0.15
 10
50.27433866207491
 20
75.78699066339686
 10
49.85662788947491
 20
75.75541203389685
  0
LWPOLYLINE
  5
313
330
50
100
AcDbEntity
  8
0
  6
Continuous
 62
     3
100
AcDbPolyline
 90
        2
 70
     0
 43
0.15
 10
50.71319526217491
 20
75.67259858079689
 10
50.27433866207491
 20
75.78699066339686
  0
LWPOLYLINE
  5
314
330
50
100
AcDbEntity
  8
0
  6
Continuous
 62
     3
100
AcDbPolyline
 90
        2
 70
     0
 43
0.15
 10
51.15119158737491
 20
75.41797188259687
 10
50.71319526217491
 20
75.67259858079689
  0
LWPOLYLINE
  5
315
330
50
100
AcDbEntity
  8
0
  6
Continuous
 62
     3
100
AcDbPolyline
 90
        2
 70
     0
 43
0.15
 10
51.56636467297489
 20
75.03587861489689
 10
51.15119158737491
 20
75.41797188259687
  0
LWPOLYLINE
  5
316
330
50
100
AcDbEntity
  8
0
  6
Continuous
 62
     3
100
AcDbPolyline
 90
        2
 70
     0
 43
0.15
 10
51.93789600697488
 20
74.54547852939686
 10
51.56636467297489
 20
75.03587861489689
  0
LWPOLYLINE
  5
317
330
50
100
AcDbEntity
  8
0
  6
Continuous
 62
     3
100
AcDbPolyline
 90
        2
 70
     0
 43
0.15
 10
52.24715545667488
 20
73.97136233429688
 10
51.93789600697488
 20
74.54547852939686
  0
LWPOLYLINE
  5
318
330
50
100
AcDbEntity
  8
0
  6
Continuous
 62
     3
100
AcDbPolyline
 90
        2
 70
     0
 43
0.15
 10
52.47863546217491
 20
73.34231861289686
 10
52.24715545667488
 20
73.97136233429688
  0
LWPOLYLINE
  5
319
330
50
100
AcDbEntity
  8
0
  6
Continuous
 62
     3
100
AcDbPolyline
 90
        2
 70
     0
 43
0.15
 10
52.62072864917491
 20
72.68989024389685
 10
52.47863546217491
 20
73.34231861289686
  0
LWPOLYLINE
  5
31A
330
50
100
AcDbEntity
  8
0
  6
Continuous
 62
     3
100
AcDbPolyline
 90
        2
 70
     0
 43
0.15
 10
52.66630987217491
 20
72.04679271019688
 10
52.62072864917491
 20
72.68989024389685
  0
LWPOLYLINE
  5
31B
330
50
100
AcDbEntity
  8
0
  6
Continuous
 62
     3
100
AcDbPolyline
 90
        2
 70
     0
 43
0.15
 10
52.61309349817492
 20
71.44527360749686
 10
52.66630987217491
 20
72.04679271019688
  0
LWPOLYLINE
  5
31C
330
50
100
AcDbEntity
  8
0
  6
Continuous
 62
     3
100
AcDbPolyline
 90
        2
 70
     0
 43
0.15
 10
52.46374801837493
 20
70.91549561509686
 10
52.61309349817492
 20
71.44527360749686
  0
LWPOLYLINE
  5
31D
330
50
100
AcDbEntity
  8
0
  6
Continuous
 62
     3
100
AcDbPolyline
 90
        2
 70
     0
 43
0.15
 10
52.22576223887489
 20
70.48402401389689
 10
52.46374801837493
 20
70.91549561509686
  0
LWPOLYLINE
  5
31E
330
50
100
AcDbEntity
  8
0
  6
Continuous
 62
     3
100
AcDbPolyline
 90
        2
 70
     0
 43
0.15
 10
51.91106976027493
 20
70.17249459159689
 10
52.22576223887489
 20
70.48402401389689
  0
LWPOLYLINE
  5
31F
330
50
100
AcDbEntity
  8
0
  6
Continuous
 62
     3
100
AcDbPolyline
 90
        2
 70
     0
 43
0.15
 10
51.58394025647493
 20
70.01037589539686
 10
51.91106976027493
 20
70.17249459159689
  0
LWPOLYLINE
  5
320
330
50
100
AcDbEntity
  8
0
  6
Continuous
 62
     3
100
AcDbPolyline
 90
        2
 70
     0
 43
0.15
 10
68.74254188057176
 20
58.43637904564929
 10
79.70378226933502
 20
61.83270626199868
  0
LWPOLYLINE
  5
321
330
50
100
AcDbEntity
  8
0
  6
Continuous
 62
     3
100
AcDbPolyline
 90
        2
 70
     0
 43
0.15
 10
79.12826687057492
 20
62.86188438149691
 10
73.15290551087486
 20
80.33043984739686
  0
LWPOLYLINE
  5
322
330
50
100
AcDbEntity
  8
0
  6
Continuous
 62
     3
100
AcDbPolyline
 90
        2
 70
     0
 43
0.15
 10
73.15290551087486
 20
80.33043984739686
 10
63.38524038557495
 20
77.3039404979969
  0
LWPOLYLINE
  5
323
330
50
100
AcDbEntity
  8
0
  6
Continuous
 62
     3
100
AcDbPolyline
 90
        2
 70
     0
 43
0.15
 10
63.36985747927491
 20
74.79635145219686
 10
68.57113710937489
 20
59.59077035939686
  0
LWPOLYLINE
  5
324
330
50
100
AcDbEntity
  8
0
  6
Continuous
 62
     3
100
AcDbPolyline
 90
        2
 70
     0
 43
0.15
 10
57.17627174967493
 20
63.36792762789685
 10
67.24542893227493
 20
59.13037763499688
  0
LWPOLYLINE
  5
325
330
50
100
AcDbEntity
  8
0
  6
Continuous
 62
     3
100
AcDbPolyline
 90
        2
 70
     0
 43
0.15
 10
44.87388202197491
 20
68.54532138159686
 10
48.59519382777495
 20
66.97922756359685
  0
LWPOLYLINE
  5
326
330
50
100
AcDbEntity
  8
0
  6
Continuous
 62
     3
100
AcDbPolyline
 90
        2
 70
     0
 43
0.15
 10
67.24542893227493
 20
59.13037763499688
 10
63.31559270127497
 20
70.6189819285969
  0
LWPOLYLINE
  5
327
330
50
100
AcDbEntity
  8
0
  6
Continuous
 62
     3
100
AcDbPolyline
 90
        2
 70
     0
 43
0.15
 10
46.33203633277492
 20
71.47238611769689
 10
44.87388202197491
 20
68.54532138159686
  0
LWPOLYLINE
  5
328
330
50
100
AcDbEntity
  8
0
  6
Continuous
 62
     3
100
AcDbPolyline
 90
        2
 70
     0
 43
0.15
 10
24.59748783597496
 20
64.6516882873969
 10
24.57346939587495
 20
60.7364088120969
  0
LWPOLYLINE
  5
329
330
50
100
AcDbEntity
  8
0
  6
Continuous
 62
     3
100
AcDbPolyline
 90
        2
 70
     0
 43
0.15
 10
99.34786096407487
 20
58.47110632399688
 10
99.37187940421887
 20
62.38638579925009
  0
LWPOLYLINE
  5
32A
330
50
100
AcDbEntity
  8
0
  6
Continuous
 62
     3
100
AcDbPolyline
 90
        2
 70
     0
 43
0.15
 10
58.09208869214803
 20
50.5556678317148
 10
24.59748783597496
 20
64.6516882873969
  0
LWPOLYLINE
  5
32B
330
50
100
AcDbEntity
  8
0
  6
Continuous
 62
     3
100
AcDbPolyline
 90
        2
 70
     0
 43
0.15
 10
99.37187940421887
 20
62.38638579925009
 10
60.91376384571839
 20
50.47018471895007
  0
LWPOLYLINE
  5
32C
330
50
100
AcDbEntity
  8
0
  6
Continuous
 62
     3
100
AcDbPolyline
 90
        2
 70
     0
 43
0.15
 10
98.96783742277495
 20
63.96531963619691
 10
77.99161081087487
 20
72.79305042999687
  0
LWPOLYLINE
  5
32D
330
50
100
AcDbEntity
  8
0
  6
Continuous
 62
     3
100
AcDbPolyline
 90
        2
 70
     0
 43
0.15
 10
46.02133313637495
 20
72.61005656289689
 10
25.32211591597491
 20
66.19642887929689
  0
LWPOLYLINE
  5
32E
330
50
100
AcDbEntity
  8
0
  6
Continuous
 62
     3
100
AcDbPolyline
 90
        2
 70
     0
 43
0.15
 10
25.20532733467491
 20
65.58437660779686
 10
58.69992819087867
 20
51.48835615200738
  0
LWPOLYLINE
  5
32F
330
50
100
AcDbEntity
  8
0
  6
Continuous
 62
     3
100
AcDbPolyline
 90
        2
 70
     0
 43
0.15
 10
60.39293328298908
 20
51.4370662843512
 10
98.85104884147489
 20
63.35326736479686
  0
LWPOLYLINE
  5
330
330
50
100
AcDbEntity
  8
0
  6
Continuous
 62
     3
100
AcDbPolyline
 90
        2
 70
     0
 43
0.15
 10
79.91519460727494
 20
62.23078953479688
 10
81.57579715367496
 20
61.53193399199688
  0
LWPOLYLINE
  5
331
330
50
100
AcDbEntity
  8
0
  6
Continuous
 62
     3
100
AcDbPolyline
 90
        2
 70
     0
 43
0.15
 10
81.57579715367496
 20
61.53193399199688
 10
68.00234460357495
 20
57.32621596359689
  0
LWPOLYLINE
  5
332
330
50
100
AcDbEntity
  8
0
  6
Continuous
 62
     3
100
AcDbPolyline
 90
        2
 70
     0
 43
0.15
 10
51.39238246367489
 20
64.31642812039689
 10
42.5973676037749
 20
68.01776225209687
  0
LWPOLYLINE
  5
333
330
50
100
AcDbEntity
  8
0
  6
Continuous
 62
     3
100
AcDbPolyline
 90
        2
 70
     0
 43
0.15
 10
68.00234460357495
 20
57.32621596359689
 10
53.98688998457493
 20
63.22454375249686
  0
LWPOLYLINE
  5
334
330
50
100
AcDbEntity
  8
0
  6
Continuous
 62
     3
100
AcDbPolyline
 90
        2
 70
     0
 43
0.15
 10
42.5973676037749
 20
68.01776225209687
 10
44.17642896057492
 20
68.50703252369686
  0
LWPOLYLINE
  5
335
330
50
100
AcDbEntity
  8
0
  6
Continuous
 62
     3
100
AcDbPolyline
 90
        2
 70
     0
 43
0.15
 10
60.91376384571839
 20
50.47018471895007
 10
60.88974540556529
 20
46.55490524355406
  0
LWPOLYLINE
  5
336
330
50
100
AcDbEntity
  8
0
  6
Continuous
 62
     3
100
AcDbPolyline
 90
        2
 70
     0
 43
0.15
 10
58.0680702520479
 20
46.64038835631459
 10
58.09208869214803
 20
50.5556678317148
  0
LWPOLYLINE
  5
337
330
50
100
AcDbEntity
  8
0
  6
Continuous
 62
     3
100
AcDbPolyline
 90
        2
 70
     0
 43
0.15
 10
46.46128338037494
 20
94.01637837399687
 10
46.34688103397491
 20
75.36749204969686
  0
LWPOLYLINE
  5
338
330
50
100
AcDbEntity
  8
0
  6
Continuous
 62
     3
100
AcDbPolyline
 90
        2
 70
     0
 43
0.15
 10
75.41503708407487
 20
75.2563554831969
 10
77.67727917577491
 20
75.95730848789685
  0
LWPOLYLINE
  5
339
330
50
100
AcDbEntity
  8
0
  6
Continuous
 62
     3
100
AcDbPolyline
 90
        2
 70
     0
 43
0.15
 10
77.67727917577491
 20
75.95730848789685
 10
77.78644970877491
 20
93.75334960389688
  0
LWPOLYLINE
  5
33A
330
50
100
AcDbEntity
  8
0
  6
Continuous
 62
     3
100
AcDbPolyline
 90
        2
 70
     0
 43
0.15
 10
61.08750383677494
 20
70.81698645319688
 10
63.34974592847487
 20
71.51793945789689
  0
LWPOLYLINE
  5
33B
330
50
100
AcDbEntity
  8
0
  6
Continuous
 62
     3
100
AcDbPolyline
 90
        2
 70
     0
 43
0.15
 10
56.85499110648453
 20
70.94521112232388
 10
56.98080198318451
 20
91.45381789782391
  0
LWPOLYLINE
  5
33C
330
50
100
AcDbEntity
  8
0
  6
Continuous
 62
     3
100
AcDbPolyline
 90
        2
 70
     0
 43
0.15
 10
61.21331471346042
 20
91.32559322868286
 10
61.08750383677494
 20
70.81698645319688
  0
LWPOLYLINE
  5
33D
330
50
100
AcDbEntity
  8
0
  6
Continuous
 62
     3
100
AcDbPolyline
 90
        2
 70
     0
 43
0.15
 10
30.22379395677496
 20
58.82580851229687
 10
52.42346436737495
 20
49.48319805509686
  0
LWPOLYLINE
  5
33E
330
50
100
AcDbEntity
  8
0
  6
Continuous
 62
     3
100
AcDbPolyline
 90
        2
 70
     0
 43
0.15
 10
24.57346939587495
 20
60.7364088120969
 10
30.2209346186749
 20
58.3597038128969
  0
LWPOLYLINE
  5
33F
330
50
100
AcDbEntity
  8
0
  6
Continuous
 62
     3
100
AcDbPolyline
 90
        2
 70
     0
 43
0.15
 10
30.2209346186749
 20
58.3597038128969
 10
30.22379395677496
 20
58.82580851229687
  0
LWPOLYLINE
  5
340
330
50
100
AcDbEntity
  8
0
  6
Continuous
 62
     3
100
AcDbPolyline
 90
        2
 70
     0
 43
0.15
 10
52.4206050292749
 20
49.0170933555969
 10
58.0680702520479
 20
46.64038835631459
  0
LWPOLYLINE
  5
341
330
50
100
AcDbEntity
  8
0
  6
Continuous
 62
     3
100
AcDbPolyline
 90
        2
 70
     0
 43
0.15
 10
67.41672389027491
 20
48.84683463059685
 10
67.37410003587496
 20
48.56407476549686
  0
LWPOLYLINE
  5
342
330
50
100
AcDbEntity
  8
0
  6
Continuous
 62
     3
100
AcDbPolyline
 90
        2
 70
     0
 43
0.15
 10
52.4206050292749
 20
49.0170933555969
 10
52.42346436737495
 20
49.48319805509686
  0
LWPOLYLINE
  5
343
330
50
100
AcDbEntity
  8
0
  6
Continuous
 62
     3
100
AcDbPolyline
 90
        2
 70
     0
 43
0.15
 10
60.88974540556529
 20
46.55490524355406
 10
67.37410003587496
 20
48.56407476549686
  0
LWPOLYLINE
  5
344
330
50
100
AcDbEntity
  8
0
  6
Continuous
 62
     3
100
AcDbPolyline
 90
        2
 70
     0
 43
0.15
 10
67.37410003587496
 20
48.56407476549686
 10
67.3769593739749
 20
49.03017946499688
  0
LWPOLYLINE
  5
345
330
50
100
AcDbEntity
  8
0
  6
Continuous
 62
     3
100
AcDbPolyline
 90
        2
 70
     0
 43
0.15
 10
92.86350633387491
 20
56.4619368019969
 10
92.86636567197496
 20
56.92804150149686
  0
LWPOLYLINE
  5
346
330
50
100
AcDbEntity
  8
0
  6
Continuous
 62
     3
100
AcDbPolyline
 90
        2
 70
     0
 43
0.15
 10
92.86350633387491
 20
56.4619368019969
 10
99.34786096407487
 20
58.47110632399688
  0
LWPOLYLINE
  5
347
330
50
100
AcDbEntity
  8
0
  6
Continuous
 62
     3
100
AcDbPolyline
 90
        2
 70
     0
 43
0.15
 10
75.40921861637486
 20
74.92614212509687
 10
75.41503708407487
 20
75.2563554831969
  0
LWPOLYLINE
  5
348
330
50
100
AcDbEntity
  8
0
  6
Continuous
 62
     3
100
AcDbPolyline
 90
        2
 70
     0
 43
0.15
 10
49.71496264107492
 20
78.66986440489688
 10
49.67939618577492
 20
78.59846913749686
  0
LWPOLYLINE
  5
349
330
50
100
AcDbEntity
  8
0
  6
Continuous
 62
     3
100
AcDbPolyline
 90
        2
 70
     0
 43
0.15
 10
53.54466812907492
 20
77.05815369579688
 10
49.71496264107492
 20
78.66986440489688
  0
LWPOLYLINE
  5
34A
330
50
100
AcDbEntity
  8
0
  6
Continuous
 62
     3
100
AcDbPolyline
 90
        2
 70
     0
 43
0.15
 10
55.43064155827489
 20
71.54464087679685
 10
53.54466812907492
 20
77.05815369579688
  0
LWPOLYLINE
  5
34B
330
50
100
AcDbEntity
  8
0
  6
Continuous
 62
     3
100
AcDbPolyline
 90
        2
 70
     0
 43
0.15
 10
53.48690949937492
 20
67.64283876709686
 10
55.43064155827489
 20
71.54464087679685
  0
LWPOLYLINE
  5
34C
330
50
100
AcDbEntity
  8
0
  6
Continuous
 62
     3
100
AcDbPolyline
 90
        2
 70
     0
 43
0.15
 10
53.40428243967489
 20
67.67761191539688
 10
53.48690949937492
 20
67.64283876709686
  0
LWPOLYLINE
  5
34D
330
50
100
AcDbEntity
  8
0
  6
Continuous
 62
     3
100
AcDbPolyline
 90
        2
 70
     0
 43
0.15
 10
63.34974592847487
 20
71.51793945789689
 10
63.4240887191749
 20
83.6366616433969
  0
LWPOLYLINE
  5
34E
330
50
100
AcDbEntity
  8
0
  6
Continuous
 62
     3
100
AcDbPolyline
 90
        2
 70
     0
 43
0.15
 10
75.4893798747749
 20
87.37507766869686
 10
63.4240887191749
 20
83.6366616433969
  0
LWPOLYLINE
  5
34F
330
50
100
AcDbEntity
  8
0
  6
Continuous
 62
     3
100
AcDbPolyline
 90
        2
 70
     0
 43
0.15
 10
75.41503708407487
 20
75.2563554831969
 10
75.4893798747749
 20
87.37507766869686
  0
LWPOLYLINE
  5
350
330
50
100
AcDbEntity
  8
0
  6
Continuous
 62
     3
100
AcDbPolyline
 90
        2
 70
     0
 43
0.15
 10
61.21331471346042
 20
91.32559322868286
 10
63.76972947587495
 20
92.11769528339687
  0
LWPOLYLINE
  5
351
330
50
100
AcDbEntity
  8
0
  6
Continuous
 62
     3
100
AcDbPolyline
 90
        2
 70
     0
 43
0.15
 10
56.98080198318451
 20
91.45381789782391
 10
54.28577547027493
 20
92.58800513639687
  0
LWPOLYLINE
  5
352
330
50
100
AcDbEntity
  8
0
  6
Continuous
 62
     3
100
AcDbPolyline
 90
        2
 70
     0
 43
0.15
 10
49.79758970077495
 20
78.63509125659687
 10
49.16549766507779
 20
78.43923829586089
  0
LWPOLYLINE
  5
353
330
50
100
AcDbEntity
  8
0
  6
Continuous
 62
     3
100
AcDbPolyline
 90
        2
 70
     0
 43
0.15
 10
53.52247595467492
 20
67.71423403449688
 10
52.90009851487491
 20
67.52139112959685
  0
LWPOLYLINE
  5
354
330
50
100
AcDbEntity
  8
0
  6
Continuous
 62
     3
100
AcDbPolyline
 90
        2
 70
     0
 43
0.15
 10
53.55477201977493
 20
77.02861567069687
 10
52.95728527698583
 20
76.8434851184789
  0
LWPOLYLINE
  5
355
330
50
100
AcDbEntity
  8
0
  6
Continuous
 62
     3
100
AcDbPolyline
 90
        2
 70
     0
 43
0.15
 10
55.42207244467494
 20
71.56969208759688
 10
54.82458570187492
 20
71.38456153539687
  0
LWPOLYLINE
  5
356
330
50
100
AcDbEntity
  8
0
  6
Continuous
 62
     3
100
AcDbPolyline
 90
        2
 70
     0
 43
0.15
 10
46.0007154774749
 20
72.69684077559685
 10
25.080767368875
 20
66.21481989046208
  0
LWPOLYLINE
  5
357
330
50
100
AcDbEntity
  8
0
  6
Continuous
 62
     3
100
AcDbPolyline
 90
        2
 70
     0
 43
0.15
 10
24.1056868619749
 20
65.13125914049687
 10
24.0816684218749
 20
61.21597966519687
  0
LWPOLYLINE
  5
358
330
50
100
AcDbEntity
  8
0
  6
Continuous
 62
     3
100
AcDbPolyline
 90
        2
 70
     0
 43
0.15
 10
99.2735777546165
 20
63.95691527825397
 10
78.03149554497492
 20
72.89652995329686
  0
LWPOLYLINE
  5
359
330
50
100
AcDbEntity
  8
0
  6
Continuous
 62
     3
100
AcDbPolyline
 90
        2
 70
     0
 43
0.15
 10
100.0343095734749
 20
59.01162258999688
 10
100.0583280135749
 20
62.92690206529687
  0
LWPOLYLINE
  5
35A
330
50
100
AcDbEntity
  8
0
  6
Continuous
 62
     3
100
AcDbPolyline
 90
        2
 70
     0
 43
0.15
 10
46.14982366537493
 20
72.06921196689689
 10
44.73287866097491
 20
69.22486982499686
  0
LWPOLYLINE
  5
35B
330
50
100
AcDbEntity
  8
0
  6
Continuous
 62
     3
100
AcDbPolyline
 90
        2
 70
     0
 43
0.15
 10
79.50281537517486
 20
62.95879525989687
 10
73.52745401547492
 20
80.42735072589687
  0
LWPOLYLINE
  5
35C
330
50
100
AcDbEntity
  8
0
  6
Continuous
 62
     3
100
AcDbPolyline
 90
        2
 70
     0
 43
0.15
 10
67.41672389027491
 20
48.84683463059685
 10
67.41792649597488
 20
49.04287307869686
  0
LWPOLYLINE
  5
35D
330
50
100
AcDbEntity
  8
0
  6
Continuous
 62
     3
100
AcDbPolyline
 90
        2
 70
     0
 43
0.15
 10
78.70695208987496
 20
76.76808288689688
 10
78.81274346267486
 20
94.01328237149687
  0
LWPOLYLINE
  5
35E
330
50
100
AcDbEntity
  8
0
  6
Continuous
 62
     3
100
AcDbPolyline
 90
        2
 70
     0
 43
0.15
 10
45.72039535727492
 20
94.2162887176969
 10
45.60917957292071
 20
76.0868483292789
  0
LWPOLYLINE
  5
35F
330
50
100
AcDbEntity
  8
0
  6
Continuous
 62
     3
100
AcDbPolyline
 90
        2
 70
     0
 43
0.15
 10
57.1188152457749
 20
63.3501247988969
 10
59.38105733747494
 20
64.05107780359685
  0
LWPOLYLINE
  5
360
330
50
100
AcDbEntity
  8
0
  6
Continuous
 62
     3
100
AcDbPolyline
 90
        2
 70
     0
 43
0.15
 10
50.98067569867493
 20
69.8234550941969
 10
51.58394025647493
 20
70.01037589539686
  0
LWPOLYLINE
  5
361
330
50
100
AcDbEntity
  8
0
  6
Continuous
 62
     3
100
AcDbPolyline
 90
        2
 70
     0
 43
0.15
 10
49.80813821067494
 20
75.74156487279686
 10
49.20487365287494
 20
75.55464407149691
  0
LWPOLYLINE
  5
362
330
50
100
AcDbEntity
  8
0
  6
Continuous
 62
     3
100
AcDbPolyline
 90
        2
 70
     0
 43
0.15
 10
34.84444024167493
 20
106.8929677583969
 10
34.81584686067492
 20
102.2319207639969
  0
LWPOLYLINE
  5
363
330
50
100
AcDbEntity
  8
0
  6
Continuous
 62
     3
100
AcDbPolyline
 90
        2
 70
     0
 43
0.15
 10
89.81481199377487
 20
101.8945273907968
 10
89.84340537477493
 20
106.5555743851969
  0
LWPOLYLINE
  5
364
330
50
100
AcDbEntity
  8
0
  6
Continuous
 62
     3
100
AcDbPolyline
 90
        2
 70
     0
 43
0.15
 10
67.3769593739749
 20
49.03017946499688
 10
92.86636567197496
 20
56.92804150149686
  0
LWPOLYLINE
  5
365
330
50
100
AcDbEntity
  8
0
  6
Continuous
 62
     3
100
AcDbPolyline
 90
        2
 70
     0
 43
0.15
 10
25.32211591597491
 20
66.19642887929689
 42
0.18128472397611
 10
25.08096039109313
 20
66.21487962724206
 42
0.18128472397611
  0
LWPOLYLINE
  5
366
330
50
100
AcDbEntity
  8
0
  6
Continuous
 62
     3
100
AcDbPolyline
 90
        2
 70
     0
 43
0.15
 10
24.10571804228613
 20
65.13400138967125
 42
0.29694578168771
 10
24.59748783597496
 20
64.6516882873969
 42
0.29694578168771
  0
LWPOLYLINE
  5
367
330
50
100
AcDbEntity
  8
0
  6
Continuous
 62
     3
100
AcDbPolyline
 90
        2
 70
     0
 43
0.15
 10
99.27338480786437
 20
63.95699641851928
 42
0.17908673907308
 10
98.96783742277495
 20
63.96531963619691
 42
0.17908673907308
  0
LWPOLYLINE
  5
368
330
50
100
AcDbEntity
  8
0
  6
Continuous
 62
     3
100
AcDbPolyline
 90
        2
 70
     0
 43
0.15
 10
44.73287866097491
 20
69.22486982499686
 42
0.28826806733619
 10
44.87388202197491
 20
68.54532138159686
 42
0.28826806733619
  0
LWPOLYLINE
  5
369
330
50
100
AcDbEntity
  8
0
  6
Continuous
 62
     3
100
AcDbPolyline
 90
        2
 70
     0
 43
0.15
 10
73.52745401547492
 20
80.42735072589687
 42
0.05414857984371
 10
73.15290551087486
 20
80.33043984739686
 42
0.05414857984371
  0
LWPOLYLINE
  5
36A
330
50
100
AcDbEntity
  8
0
  6
Continuous
 62
     3
100
AcDbPolyline
 90
        2
 70
     0
 43
0.15
 10
79.50281537517486
 20
62.95879525989687
 42
0.05414857983875
 10
79.12826687057492
 20
62.86188438149691
 42
0.05414857983875
  0
LWPOLYLINE
  5
36B
330
50
100
AcDbEntity
  8
0
  6
Continuous
 62
     3
100
AcDbPolyline
 90
        2
 70
     0
 43
0.15
 10
73.15290551087486
 20
80.33043984739686
 42
0.11378647309602
 10
69.95926947784807
 20
85.66157958047387
 42
0.11378647309602
  0
LWPOLYLINE
  5
36C
330
50
100
AcDbEntity
  8
0
  6
Continuous
 62
     3
100
AcDbPolyline
 90
        2
 70
     0
 43
0.15
 10
68.74254188057176
 20
58.43637904564929
 42
0.10770062715441
 10
67.52072069846162
 20
58.47339431920176
 42
0.10770062715441
  0
LWPOLYLINE
  5
36D
330
50
100
AcDbEntity
  8
0
  6
Continuous
 62
     3
100
AcDbPolyline
 90
        2
 70
     0
 43
0.15
 10
68.57113710937489
 20
59.59077035939686
 42
0.01625847973929
 10
67.24542893227493
 20
59.13037763499688
 42
0.01625847973929
  0
LWPOLYLINE
  5
36E
330
50
100
AcDbEntity
  8
0
  6
Continuous
 62
     3
100
AcDbPolyline
 90
        2
 70
     0
 43
0.15
 10
25.20532733467491
 20
65.58437660779686
 42
0.3047281793416
 10
24.59748783597496
 20
64.6516882873969
 42
0.3047281793416
  0
LWPOLYLINE
  5
36F
330
50
100
AcDbEntity
  8
0
  6
Continuous
 62
     3
100
AcDbPolyline
 90
        2
 70
     0
 43
0.15
 10
99.37187940421887
 20
62.38638579925009
 42
0.275550078508
 10
98.85104884147489
 20
63.35326736479686
 42
0.275550078508
  0
LWPOLYLINE
  5
370
330
50
100
AcDbEntity
  8
0
  6
Continuous
 62
     3
100
AcDbPolyline
 90
        2
 70
     0
 43
0.15
 10
58.69992819087867
 20
51.48835615200738
 42
0.30472817931131
 10
58.09208869214803
 20
50.5556678317148
 42
0.30472817931131
  0
LWPOLYLINE
  5
371
330
50
100
AcDbEntity
  8
0
  6
Continuous
 62
     3
100
AcDbPolyline
 90
        2
 70
     0
 43
0.15
 10
58.09208869214803
 20
50.5556678317148
 42
0.15443991672529
 10
60.91376384571839
 20
50.47018471895007
 42
0.15443991672529
  0
LWPOLYLINE
  5
372
330
50
100
AcDbEntity
  8
0
  6
Continuous
 62
     3
100
AcDbPolyline
 90
        2
 70
     0
 43
0.15
 10
60.91376384571839
 20
50.47018471895007
 42
0.27555007848619
 10
60.39293328298908
 20
51.4370662843512
 42
0.27555007848619
  0
LWPOLYLINE
  5
373
330
50
100
AcDbEntity
  8
0
  6
Continuous
 62
     3
100
AcDbPolyline
 90
        2
 70
     0
 43
0.15
 10
58.69992819087867
 20
51.48835615200738
 42
0.15443991672255
 10
60.39293328298908
 20
51.4370662843512
 42
0.15443991672255
  0
LWPOLYLINE
  5
374
330
50
100
AcDbEntity
  8
0
  6
Continuous
 62
     3
100
AcDbPolyline
 90
        2
 70
     0
 43
0.15
 10
76.67381261242286
 20
71.22918908203985
 42
0.11371724581109
 10
77.67727917577491
 20
75.95730848789685
 42
0.11371724581109
  0
LWPOLYLINE
  5
375
330
50
100
AcDbEntity
  8
0
  6
Continuous
 62
     3
100
AcDbPolyline
 90
        2
 70
     0
 43
0.15
 10
45.60918277228478
 20
76.0873231005449
 42
0.29484686761557
 10
46.34688103397491
 20
75.36749204969686
 42
0.29484686761557
  0
LWPOLYLINE
  5
376
330
50
100
AcDbEntity
  8
0
  6
Continuous
 62
     3
100
AcDbPolyline
 90
        2
 70
     0
 43
0.15
 10
56.85499110648453
 20
70.94521112232388
 42
0.15443991672321
 10
61.08750383677494
 20
70.81698645319688
 42
0.15443991672321
  0
LWPOLYLINE
  5
377
330
50
100
AcDbEntity
  8
0
  6
Continuous
 62
     3
100
AcDbPolyline
 90
        2
 70
     0
 43
0.15
 10
24.0816684218749
 20
61.21597966519687
 42
0.29457364942936
 10
24.57346939587495
 20
60.7364088120969
 42
0.29457364942936
  0
LWPOLYLINE
  5
378
330
50
100
AcDbEntity
  8
0
  6
Continuous
 62
     3
100
AcDbPolyline
 90
        2
 70
     0
 43
0.15
 10
32.78139336582132
 20
64.26210264560768
 42
0.17926090099192
 10
29.29722142559928
 20
64.28347643910826
 42
0.17926090099192
  0
LWPOLYLINE
  5
379
330
50
100
AcDbEntity
  8
0
  6
Continuous
 62
     3
100
AcDbPolyline
 90
        2
 70
     0
 43
0.15
 10
94.85824674322163
 20
62.38147416480837
 42
0.17926090099192
 10
91.37407480299902
 20
62.40284795830905
 42
0.17926090099192
  0
LWPOLYLINE
  5
37A
330
50
100
AcDbEntity
  8
0
  6
Continuous
 62
     3
100
AcDbPolyline
 90
        2
 70
     0
 43
0.15
 10
61.67869606532116
 20
52.10083009550738
 42
0.17926090099191
 10
58.19452412509946
 20
52.12220388900806
 42
0.17926090099191
  0
LWPOLYLINE
  5
37B
330
50
100
AcDbEntity
  8
0
  6
Continuous
 62
     3
100
AcDbPolyline
 90
        2
 70
     0
 43
0.15
 10
58.0680702520479
 20
46.64038835631459
 42
0.15443991672256
 10
60.88974540556529
 20
46.55490524355406
 42
0.15443991672256
  0
LWPOLYLINE
  5
37C
330
50
100
AcDbEntity
  8
0
  6
Continuous
 62
     3
100
AcDbPolyline
 90
        2
 70
     0
 43
0.15
 10
56.98080198318451
 20
91.45381789782391
 42
0.15443991672256
 10
61.21331471346042
 20
91.32559322868286
 42
0.15443991672256
  0
LWPOLYLINE
  5
37D
330
50
100
AcDbEntity
  8
0
  6
Continuous
 62
     3
100
AcDbPolyline
 90
        2
 70
     0
 43
0.15
 10
47.83790183414186
 20
71.74226176993989
 42
0.20351991931353
 10
50.66744585246789
 20
68.21492338973087
 42
0.20351991931353
  0
LWPOLYLINE
  5
37E
330
50
100
AcDbEntity
  8
0
  6
Continuous
 62
     3
100
AcDbPolyline
 90
        2
 70
     0
 43
0.15
 10
50.66744585246789
 20
68.21492338973087
 42
0.42786711488566
 10
53.52558325195088
 20
69.3486320038329
 42
0.42786711488566
  0
LWPOLYLINE
  5
37F
330
50
100
AcDbEntity
  8
0
  6
Continuous
 62
     3
100
AcDbPolyline
 90
        2
 70
     0
 43
0.15
 10
53.52558325195088
 20
69.3486320038329
 42
0.19132088114643
 10
53.55417663301734
 20
74.0096789982839
 42
0.19132088114643
  0
LWPOLYLINE
  5
380
330
50
100
AcDbEntity
  8
0
  6
Continuous
 62
     3
100
AcDbPolyline
 90
        2
 70
     0
 43
0.15
 10
53.55417663301734
 20
74.0096789982839
 42
0.2035199193179
 10
50.72463261458194
 20
77.5370173785629
 42
0.2035199193179
  0
LWPOLYLINE
  5
381
330
50
100
AcDbEntity
  8
0
  6
Continuous
 62
     3
100
AcDbPolyline
 90
        2
 70
     0
 43
0.15
 10
50.72463261458194
 20
77.5370173785629
 42
0.42786711489334
 10
47.866495215199
 20
76.40330876436087
 42
0.42786711489334
  0
LWPOLYLINE
  5
382
330
50
100
AcDbEntity
  8
0
  6
Continuous
 62
     3
100
AcDbPolyline
 90
        2
 70
     0
 43
0.15
 10
47.866495215199
 20
76.40330876436087
 42
0.19132088114542
 10
47.83790183414186
 20
71.74226176993989
 42
0.19132088114542
  0
SPLINE
  5
383
330
50
100
AcDbEntity
  8
0
  6
Continuous
 62
     3
100
AcDbSpline
210
0.0
220
0.0
230
1.0
 70
     8
 71
     3
 72
     9
 73
     5
 74
     3
 42
0.0000000001
 43
0.0000000001
 44
0.00000001
 40
0.0
 40
0.0
 40
0.0
 40
0.0
 40
0.5031753989186655
 40
1.00625615159389
 40
1.00625615159389
 40
1.00625615159389
 40
1.00625615159389
 10
42.5973676037749
 20
68.01776225209687
 30
0.0
 10
42.76433493325762
 20
68.03644654393104
 30
0.0
 10
43.09823818601649
 20
68.073811613123
 30
0.0
 10
43.42226332738581
 20
68.16266628198525
 30
0.0
 10
43.58426065952392
 20
68.20708943767886
 30
0.0
 11
42.5973676037749
 21
68.01776225209687
 31
0.0
 11
43.09579959979708
 21
68.08668994913012
 31
0.0
 11
43.58426065952392
 21
68.20708943767886
 31
0.0
  0
SPLINE
  5
384
330
50
100
AcDbEntity
  8
0
  6
Continuous
 62
     3
100
AcDbSpline
210
0.0
220
0.0
230
1.0
 70
     8
 71
     3
 72
     9
 73
     5
 74
     3
 42
0.0000000001
 43
0.0000000001
 44
0.00000001
 40
0.0
 40
0.0
 40
0.0
 40
0.0
 40
0.5362121768485794
 40
1.072499438717341
 40
1.072499438717341
 40
1.072499438717341
 40
1.072499438717341
 10
80.54356809729774
 20
61.81606044141637
 30
0.0
 10
80.71138234723304
 20
61.75340786456083
 30
0.0
 10
81.0470343458918
 20
61.62809393769948
 30
0.0
 10
81.39953465829885
 20
61.5639888031406
 30
0.0
 10
81.57579715366643
 20
61.53193399188081
 30
0.0
 11
80.54356809729774
 21
61.81606044141637
 31
0.0
 11
81.05122233579138
 21
61.64340276640558
 31
0.0
 11
81.57579715366643
 21
61.53193399188081
 31
0.0
  0
SPLINE
  5
385
330
50
100
AcDbEntity
  8
0
  6
Continuous
 62
     3
100
AcDbSpline
210
0.0
220
0.0
230
1.0
 70
     8
 71
     3
 72
    15
 73
    11
 74
     9
 42
0.0000000001
 43
0.0000000001
 44
0.00000001
 40
0.0
 40
0.0
 40
0.0
 40
0.0
 40
0.2625838177534349
 40
0.5252895058414025
 40
0.6831302718038712
 40
0.8409225658972221
 40
1.012835542719286
 40
1.184767720738279
 40
1.555122331363472
 40
1.925482161608632
 40
1.925482161608632
 40
1.925482161608632
 40
1.925482161608632
 10
79.70378226933502
 20
61.83270626199868
 30
0.0
 10
79.78014143895888
 20
61.78946620771357
 30
0.0
 10
79.93289521800492
 20
61.70296603058039
 30
0.0
 10
80.15136541193553
 20
61.63427260994693
 30
0.0
 10
80.33861470084157
 20
61.58876005511123
 30
0.0
 10
80.49855643858238
 20
61.55933824673892
 30
0.0
 10
80.66431721790897
 20
61.53691283891983
 30
0.0
 10
80.9015004336874
 20
61.51597442438042
 30
0.0
 10
81.2061161959232
 20
61.50707527382765
 30
0.0
 10
81.45256958885459
 20
61.52364771360254
 30
0.0
 10
81.57579715366643
 20
61.53193399188081
 30
0.0
 11
79.70378226933502
 21
61.83270626199868
 31
0.0
 11
79.93666744876691
 21
61.71140187400325
 31
0.0
 11
80.18555242724236
 21
61.62731533499105
 31
0.0
 11
80.3389685162859
 21
61.59020454111378
 31
0.0
 11
80.49410417401026
 21
61.56137164709196
 31
0.0
 11
80.66445330012606
 21
61.53823624496862
 31
0.0
 11
80.83569637368467
 21
61.52285822180068
 31
0.0
 11
81.20592039501102
 21
61.51302401393814
 31
0.0
 11
81.57579715366643
 21
61.53193399188081
 31
0.0
  0
SPLINE
  5
386
330
50
100
AcDbEntity
  8
0
  6
Continuous
 62
     3
100
AcDbSpline
210
0.0
220
0.0
230
1.0
 70
     8
 71
     3
 72
    15
 73
    11
 74
     9
 42
0.0000000001
 43
0.0000000001
 44
0.00000001
 40
0.0
 40
0.0
 40
0.0
 40
0.0
 40
0.2132052242699069
 40
0.4264238135901461
 40
0.5414074981416542
 40
0.6563848286024133
 40
0.773318980220309
 40
0.8902576340639633
 40
1.118546852781398
 40
1.34683147980225
 40
1.34683147980225
 40
1.34683147980225
 40
1.34683147980225
 10
68.00234460357495
 20
57.32621596359689
 30
0.0
 10
68.05433631342672
 20
57.37474988589378
 30
0.0
 10
68.15832299229906
 20
57.4718207729004
 30
0.0
 10
68.2746815567699
 20
57.61027843334043
 30
0.0
 10
68.36382752472727
 20
57.72807212450414
 30
0.0
 10
68.42978233095738
 20
57.82309440167376
 30
0.0
 10
68.49245369977358
 20
57.92108319633524
 30
0.0
 10
68.57026938768455
 20
58.0540469448684
 30
0.0
 10
68.65863638336108
 20
58.22393609385938
 30
0.0
 10
68.71457356901891
 20
58.36556520316708
 30
0.0
 10
68.74254188057176
 20
58.43637904564929
 30
0.0
 11
68.00234460357495
 21
57.32621596359689
 31
0.0
 11
68.15523486356732
 21
57.47481285473344
 31
0.0
 11
68.29388697615286
 21
57.63679358972152
 31
0.0
 11
68.36319511296375
 21
57.72854123211545
 31
0.0
 11
68.42881301835267
 21
57.82295562197342
 31
0.0
 11
68.49179350666068
 21
57.9214800042708
 31
0.0
 11
68.55095479265536
 21
58.02234918193287
 31
0.0
 11
68.65503405249522
 21
58.22553253522197
 31
0.0
 11
68.74254188057176
 21
58.43637904564929
 31
0.0
  0
SPLINE
  5
387
330
50
100
AcDbEntity
  8
0
  6
Continuous
 62
     3
100
AcDbSpline
210
0.0
220
0.0
230
1.0
 70
     8
 71
     3
 72
    15
 73
    11
 74
     9
 42
0.0000000001
 43
0.0000000001
 44
0.00000001
 40
0.0
 40
0.0
 40
0.0
 40
0.0
 40
0.2206745394927819
 40
0.4413501873723936
 40
0.5514978781555852
 40
0.6616425033090251
 40
0.7676622889113429
 40
0.8736880599617596
 40
1.062405461699787
 40
1.251109013930065
 40
1.251109013930065
 40
1.251109013930065
 40
1.251109013930065
 10
67.52072069846162
 20
58.47339431920176
 30
0.0
 10
67.53840472829374
 20
58.40197311526751
 30
0.0
 10
67.57377287677993
 20
58.25913034867015
 30
0.0
 10
67.63091622281355
 20
58.08423390360768
 30
0.0
 10
67.6817515716924
 20
57.94630923249923
 30
0.0
 10
67.72238240081992
 20
57.84539409904352
 30
0.0
 10
67.76536017447341
 20
57.74694748457375
 30
0.0
 10
67.82273704925798
 20
57.62631709300103
 30
0.0
 10
67.89770570534017
 20
57.48339262726414
 30
0.0
 10
67.96746582411538
 20
57.37860690311103
 30
0.0
 10
68.00234460357495
 20
57.32621596359689
 30
0.0
 11
67.52072069846162
 21
58.47339431920176
 31
0.0
 11
67.57636334141128
 21
58.25985006461755
 31
0.0
 11
67.64408587904123
 21
58.04982292479022
 31
0.0
 11
67.68226048208177
 21
57.94650200015457
 31
0.0
 11
67.72339422997976
 21
57.84432640016094
 31
0.0
 11
67.76587761504574
 21
57.74719063469581
 31
0.0
 11
67.81135210594685
 21
57.65141206295808
 31
0.0
 11
67.90051631023962
 21
57.48508707267824
 31
0.0
 11
68.00234460357495
 21
57.32621596359689
 31
0.0
  0
SPLINE
  5
388
330
50
100
AcDbEntity
  8
0
  6
Continuous
 62
     3
100
AcDbSpline
210
0.0
220
0.0
230
1.0
 70
     8
 71
     3
 72
     9
 73
     5
 74
     3
 42
0.0000000001
 43
0.0000000001
 44
0.00000001
 40
0.0
 40
0.0
 40
0.0
 40
0.0
 40
0.3571462063220672
 40
0.7144841106366367
 40
0.7144841106366367
 40
0.7144841106366367
 40
0.7144841106366367
 10
67.52072069846162
 20
58.47339431920176
 30
0.0
 10
67.48763473309455
 20
58.58821851701072
 30
0.0
 10
67.42144504349018
 20
58.81792854444166
 30
0.0
 10
67.30411146298422
 20
59.02620931071678
 30
0.0
 10
67.24542893227493
 20
59.13037763499688
 30
0.0
 11
67.52072069846162
 21
58.47339431920176
 31
0.0
 11
67.4086836897358
 21
58.81251247171798
 31
0.0
 11
67.24542893227493
 21
59.13037763499688
 31
0.0
  0
SPLINE
  5
389
330
50
100
AcDbEntity
  8
0
  6
Continuous
 62
     3
100
AcDbSpline
210
0.0
220
0.0
230
1.0
 70
     8
 71
     3
 72
     9
 73
     5
 74
     3
 42
0.0000000001
 43
0.0000000001
 44
0.00000001
 40
0.0
 40
0.0
 40
0.0
 40
0.0
 40
0.2948750994401159
 40
0.58972205759408
 40
0.58972205759408
 40
0.58972205759408
 40
0.58972205759408
 10
44.39081626583499
 20
68.20748870118786
 30
0.0
 10
44.47376541682392
 20
68.26031597697673
 30
0.0
 10
44.63965580258304
 20
68.36596548700473
 30
0.0
 10
44.79580909936728
 20
68.48553798538242
 30
0.0
 10
44.87388202197491
 20
68.54532138159686
 30
0.0
 11
44.39081626583499
 21
68.20748870118786
 31
0.0
 11
44.63722921422766
 21
68.36945160784938
 31
0.0
 11
44.87388202197491
 21
68.54532138159686
 31
0.0
  0
SPLINE
  5
38A
330
50
100
AcDbEntity
  8
0
  6
Continuous
 62
     3
100
AcDbSpline
210
0.0
220
0.0
230
1.0
 70
     8
 71
     3
 72
    15
 73
    11
 74
     9
 42
0.0000000001
 43
0.0000000001
 44
0.00000001
 40
0.0
 40
0.0
 40
0.0
 40
0.0
 40
0.3550332607969728
 40
0.7100605479439588
 40
0.8739020587759277
 40
1.03772298841557
 40
1.187562254170349
 40
1.33745367265956
 40
1.586202069772636
 40
1.83481812709189
 40
1.83481812709189
 40
1.83481812709189
 40
1.83481812709189
 10
42.5973676037749
 20
68.01776225209687
 30
0.0
 10
42.71473973346971
 20
68.00220869570725
 30
0.0
 10
42.94948201800208
 20
67.97110184462608
 30
0.0
 10
43.24118873065416
 20
67.96183434486449
 30
0.0
 10
43.46869056418026
 20
67.96871424247998
 30
0.0
 10
43.62742122054065
 20
67.98129515438052
 30
0.0
 10
43.78076693842703
 20
68.00122359698086
 30
0.0
 10
43.96024566477686
 20
68.03559556139082
 30
0.0
 10
44.17012817239385
 20
68.09133929355048
 30
0.0
 10
44.31726661832501
 20
68.16877910042498
 30
0.0
 10
44.39081626583499
 20
68.20748870118786
 30
0.0
 11
42.5973676037749
 21
68.01776225209687
 31
0.0
 11
42.95005261949039
 21
67.97699589388458
 31
0.0
 11
43.3048714345037
 21
67.96483106213486
 31
0.0
 11
43.46862988736924
 21
67.97004736224011
 31
0.0
 11
43.63193098933227
 21
67.98308757257803
 31
0.0
 11
43.78048179846338
 21
68.00269529219108
 31
0.0
 11
43.92772961829058
 21
68.03072236647371
 31
0.0
 11
44.1666343287183
 21
68.10000659557218
 31
0.0
 11
44.39081626583499
 21
68.20748870118786
 31
0.0
  0
SPLINE
  5
38B
330
50
100
AcDbEntity
  8
0
  6
Continuous
 62
     3
100
AcDbSpline
210
0.0
220
0.0
230
1.0
 70
     8
 71
     3
 72
     9
 73
     5
 74
     3
 42
0.0000000001
 43
0.0000000001
 44
0.00000001
 40
0.0
 40
0.0
 40
0.0
 40
0.0
 40
0.5921772876073982
 40
1.184192215828198
 40
1.184192215828198
 40
1.184192215828198
 40
1.184192215828198
 10
79.12826687057492
 20
62.86188438149691
 30
0.0
 10
79.20040871113339
 20
62.67702713259799
 30
0.0
 10
79.34467261286125
 20
62.30736331777999
 30
0.0
 10
79.58408999233174
 20
61.99091081812229
 30
0.0
 10
79.70378226933502
 20
61.83270626199868
 30
0.0
 11
79.12826687057492
 21
62.86188438149691
 31
0.0
 11
79.36848728517057
 21
62.32061911162496
 31
0.0
 11
79.70378226933502
 21
61.83270626199868
 31
0.0
  0
SPLINE
  5
38C
330
50
100
AcDbEntity
  8
0
  6
Continuous
 62
     3
100
AcDbSpline
210
0.0
220
0.0
230
1.0
 70
     8
 71
     3
 72
     9
 73
     5
 74
     3
 42
0.0000000001
 43
0.0000000001
 44
0.00000001
 40
0.0
 40
0.0
 40
0.0
 40
0.0
 40
0.5860054292554251
 40
1.172232641044161
 40
1.172232641044161
 40
1.172232641044161
 40
1.172232641044161
 10
68.74254188057176
 20
58.43637904564929
 30
0.0
 10
68.74121246434996
 20
58.6327842199797
 30
0.0
 10
68.73855312876884
 20
59.02566890112093
 30
0.0
 10
68.62694948751931
 20
59.40237944917554
 30
0.0
 10
68.57113710937489
 20
59.59077035939686
 30
0.0
 11
68.74254188057176
 21
58.43637904564929
 31
0.0
 11
68.7113278604652
 21
59.02155256527028
 31
0.0
 11
68.57113710937489
 21
59.59077035939686
 31
0.0
  0
SPLINE
  5
38D
330
50
100
AcDbEntity
  8
0
  6
Continuous
 62
     3
100
AcDbSpline
210
0.0
220
0.0
230
1.0
 70
     8
 71
     3
 72
    11
 73
     7
 74
     5
 42
0.0000000001
 43
0.0000000001
 44
0.00000001
 40
0.0
 40
0.0
 40
0.0
 40
0.0
 40
0.4400508456991545
 40
0.9001491755189998
 40
1.406223768210195
 40
1.93667604356565
 40
1.93667604356565
 40
1.93667604356565
 40
1.93667604356565
 10
47.24101047806431
 20
74.57606789012789
 30
0.0
 10
47.27231273485563
 20
74.71937808577647
 30
0.0
 10
47.33634329159236
 20
75.0125272882319
 30
0.0
 10
47.46512630096347
 20
75.46394651574843
 30
0.0
 10
47.65134613317598
 20
75.92740307781341
 30
0.0
 10
47.79366315449144
 20
76.24220562821088
 30
0.0
 10
47.866495215199
 20
76.40330876436087
 30
0.0
 11
47.24101047806431
 21
74.57606789012789
 31
0.0
 11
47.33931601277943
 21
75.00499768466881
 31
0.0
 11
47.46811233461688
 21
75.44670118316543
 31
0.0
 11
47.65149421699047
 21
75.91838177274346
 31
0.0
 11
47.866495215199
 21
76.40330876436087
 31
0.0
  0
SPLINE
  5
38E
330
50
100
AcDbEntity
  8
0
  6
Continuous
 62
     3
100
AcDbSpline
210
0.0
220
0.0
230
1.0
 70
     8
 71
     3
 72
    13
 73
     9
 74
     7
 42
0.0000000001
 43
0.0000000001
 44
0.00000001
 40
0.0
 40
0.0
 40
0.0
 40
0.0
 40
0.1025087320584945
 40
0.2050129317481898
 40
0.8783749566337545
 40
1.548650458034397
 40
2.226405755701252
 40
2.9018860548977
 40
2.9018860548977
 40
2.9018860548977
 40
2.9018860548977
 10
47.83790183414186
 20
71.74226176993989
 30
0.0
 10
47.8270418448511
 20
71.77465970745162
 30
0.0
 10
47.80532234643816
 20
71.83945415001759
 30
0.0
 10
47.71360054055067
 20
72.11750741049576
 30
0.0
 10
47.57921005153202
 20
72.58081044990146
 30
0.0
 10
47.43176910724758
 20
73.2387436726643
 30
0.0
 10
47.32574353090371
 20
73.90515940834082
 30
0.0
 10
47.26922315584486
 20
74.35268251473298
 30
0.0
 10
47.24101047806431
 20
74.57606789012789
 30
0.0
 11
47.83790183414186
 21
71.74226176993989
 31
0.0
 11
47.80539977128223
 21
71.83948139788666
 31
0.0
 11
47.77336637148496
 21
71.93685168211883
 31
0.0
 11
47.58566896706601
 21
72.58352478418229
 31
0.0
 11
47.43916136531095
 21
73.23759264794404
 31
0.0
 11
47.32923265163348
 21
73.90637356978968
 31
0.0
 11
47.24101047806431
 21
74.57606789012789
 31
0.0
  0
SPLINE
  5
38F
330
50
100
AcDbEntity
  8
0
  6
Continuous
 62
     3
100
AcDbSpline
210
0.0
220
0.0
230
1.0
 70
     8
 71
     3
 72
    13
 73
     9
 74
     7
 42
0.0000000001
 43
0.0000000001
 44
0.00000001
 40
0.0
 40
0.0
 40
0.0
 40
0.0
 40
0.2063003602322393
 40
0.4166094425932462
 40
0.7322700422896824
 40
1.068430841670602
 40
1.431013034333193
 40
1.806600382959029
 40
1.806600382959029
 40
1.806600382959029
 40
1.806600382959029
 10
49.10831090295875
 20
69.11714430701386
 30
0.0
 10
49.1632790183679
 20
69.07582309898066
 30
0.0
 10
49.27428336123588
 20
68.99237775052552
 30
0.0
 10
49.47235998494941
 20
68.84968232883068
 30
0.0
 10
49.71323263882217
 20
68.69263965602606
 30
0.0
 10
50.00739538635676
 20
68.52541130810894
 30
0.0
 10
50.32940023459116
 20
68.36837868419968
 30
0.0
 10
50.5534482121546
 20
68.26667244529592
 30
0.0
 10
50.66744585246789
 20
68.21492338973087
 30
0.0
 11
49.10831090295875
 21
69.11714430701386
 31
0.0
 11
49.27362895447537
 21
68.99373531028064
 31
0.0
 11
49.44461080221036
 21
68.87128075598127
 31
0.0
 11
49.70912444092616
 21
68.69901889388161
 31
0.0
 11
50.00130878601327
 21
68.53278895817076
 31
0.0
 11
50.32617763198937
 21
68.37177318456403
 31
0.0
 11
50.66744585246789
 21
68.21492338973087
 31
0.0
  0
SPLINE
  5
390
330
50
100
AcDbEntity
  8
0
  6
Continuous
 62
     3
100
AcDbSpline
210
0.0
220
0.0
230
1.0
 70
     8
 71
     3
 72
    11
 73
     7
 74
     5
 42
0.0000000001
 43
0.0000000001
 44
0.00000001
 40
0.0
 40
0.0
 40
0.0
 40
0.0
 40
0.7221303396842671
 40
1.443898048092756
 40
2.181190721627619
 40
2.921634225209613
 40
2.921634225209613
 40
2.921634225209613
 40
2.921634225209613
 10
49.10831090295875
 20
69.11714430701386
 30
0.0
 10
48.98546435917946
 20
69.32414017496612
 30
0.0
 10
48.73983296131379
 20
69.73802796401844
 30
0.0
 10
48.39504431606405
 20
70.37884557626782
 30
0.0
 10
48.10318812045031
 20
71.0521207176003
 30
0.0
 10
47.92645620554633
 20
71.51188798047342
 30
0.0
 10
47.83790183414186
 20
71.74226176993989
 30
0.0
 11
49.10831090295875
 21
69.11714430701386
 31
0.0
 11
48.74412076840944
 21
69.74071288655381
 31
0.0
 11
48.40656080545533
 21
70.37867988907954
 31
0.0
 11
48.10842350176524
 21
71.05300520715427
 31
0.0
 11
47.83790183414186
 21
71.74226176993989
 31
0.0
  0
SPLINE
  5
391
330
50
100
AcDbEntity
  8
0
  6
Continuous
 62
     3
100
AcDbSpline
210
0.0
220
0.0
230
1.0
 70
     8
 71
     3
 72
    13
 73
     9
 74
     7
 42
0.0000000001
 43
0.0000000001
 44
0.00000001
 40
0.0
 40
0.0
 40
0.0
 40
0.0
 40
0.0771921609090876
 40
0.1547315607303014
 40
0.6809992765420196
 40
1.234050394080766
 40
1.819870164314751
 40
2.418079070032323
 40
2.418079070032323
 40
2.418079070032323
 40
2.418079070032323
 10
47.866495215199
 20
76.40330876436087
 30
0.0
 10
47.8781044487026
 20
76.42627172263325
 30
0.0
 10
47.9013751383392
 20
76.47230093506396
 30
0.0
 10
48.00472616929559
 20
76.67440900081716
 30
0.0
 10
48.19223190724946
 20
77.01163477761774
 30
0.0
 10
48.48678734503821
 20
77.4823352802722
 30
0.0
 10
48.81660126366317
 20
77.95840816783861
 30
0.0
 10
49.04839041930668
 20
78.27784743098482
 30
0.0
 10
49.16549766507779
 20
78.43923829586089
 30
0.0
 11
47.866495215199
 21
76.40330876436087
 31
0.0
 11
47.9013756677443
 21
76.47217082747294
 31
0.0
 11
47.9367282008873
 21
76.541182108616
 31
0.0
 11
48.19169203091997
 21
77.00156363961041
 31
0.0
 11
48.48447444540865
 21
77.470758691137
 31
0.0
 11
48.81595797519136
 21
77.95377367297482
 31
0.0
 11
49.16549766507779
 21
78.43923829586089
 31
0.0
  0
SPLINE
  5
392
330
50
100
AcDbEntity
  8
0
  6
Continuous
 62
     3
100
AcDbSpline
210
0.0
220
0.0
230
1.0
 70
     8
 71
     3
 72
    13
 73
     9
 74
     7
 42
0.0000000001
 43
0.0000000001
 44
0.00000001
 40
0.0
 40
0.0
 40
0.0
 40
0.0
 40
0.2878032508827356
 40
0.5814818130710957
 40
0.9967883824590074
 40
1.430189023291887
 40
1.881659285525682
 40
2.340349647628001
 40
2.340349647628001
 40
2.340349647628001
 40
2.340349647628001
 10
50.66744585246789
 20
68.21492338973087
 30
0.0
 10
50.75656986404938
 20
68.17942188537356
 30
0.0
 10
50.93663729443319
 20
68.10769413713884
 30
0.0
 10
51.24749586488269
 20
67.99025127025864
 30
0.0
 10
51.60878637903544
 20
67.86957468318444
 30
0.0
 10
52.02447972485049
 20
67.74674457192404
 30
0.0
 10
52.45746069664912
 20
67.63214345250032
 30
0.0
 10
52.75177433413232
 20
67.55850329417835
 30
0.0
 10
52.90009851487491
 20
67.52139112959685
 30
0.0
 11
50.66744585246789
 21
68.21492338973087
 31
0.0
 11
50.93512987878638
 21
68.10920691385037
 31
0.0
 11
51.21010012950918
 21
68.00606400761603
 31
0.0
 11
51.60376728460928
 21
67.87375483343621
 31
0.0
 11
52.01924235444006
 21
67.75039932353307
 31
0.0
 11
52.45538044819969
 21
67.63374187262158
 31
0.0
 11
52.90009851487491
 21
67.52139112959685
 31
0.0
  0
SPLINE
  5
393
330
50
100
AcDbEntity
  8
0
  6
Continuous
 62
     3
100
AcDbSpline
210
0.0
220
0.0
230
1.0
 70
     8
 71
     3
 72
    13
 73
     9
 74
     7
 42
0.0000000001
 43
0.0000000001
 44
0.00000001
 40
0.0
 40
0.0
 40
0.0
 40
0.0
 40
0.2063003602328118
 40
0.4166094425939054
 40
0.7322700422903297
 40
1.068430841671262
 40
1.431013034334083
 40
1.806600382960994
 40
1.806600382960994
 40
1.806600382960994
 40
1.806600382960994
 10
49.16549766507779
 20
78.43923829586089
 30
0.0
 10
49.22046578048692
 20
78.39791708782732
 30
0.0
 10
49.33147012335471
 20
78.3144717393716
 30
0.0
 10
49.52954674706854
 20
78.17177631767679
 30
0.0
 10
49.77041940094128
 20
78.01473364487211
 30
0.0
 10
50.06458214847585
 20
77.84750529695471
 30
0.0
 10
50.38658699671103
 20
77.69047267304626
 30
0.0
 10
50.61063497427052
 20
77.5887664341329
 30
0.0
 10
50.72463261458194
 20
77.5370173785629
 30
0.0
 11
49.16549766507779
 21
78.43923829586089
 31
0.0
 11
49.33081571659444
 21
78.31582929912676
 31
0.0
 11
49.50179756432947
 21
78.1933747448273
 31
0.0
 11
49.76631120304526
 21
78.02111288272764
 31
0.0
 11
50.05849554813237
 21
77.85488294701676
 31
0.0
 11
50.38336439410785
 21
77.69386717340828
 31
0.0
 11
50.72463261458194
 21
77.5370173785629
 31
0.0
  0
SPLINE
  5
394
330
50
100
AcDbEntity
  8
0
  6
Continuous
 62
     3
100
AcDbSpline
210
0.0
220
0.0
230
1.0
 70
     8
 71
     3
 72
    13
 73
     9
 74
     7
 42
0.0000000001
 43
0.0000000001
 44
0.00000001
 40
0.0
 40
0.0
 40
0.0
 40
0.0
 40
0.0762070285888464
 40
0.1520810369642071
 40
0.6345729163999507
 40
1.08718932338287
 40
1.519630760605016
 40
1.937084430141922
 40
1.937084430141922
 40
1.937084430141922
 40
1.937084430141922
 10
53.52558325195088
 20
69.3486320038329
 30
0.0
 10
53.5143925795555
 20
69.32582735310373
 30
0.0
 10
53.49206013734212
 20
69.28031770662204
 30
0.0
 10
53.39976835592978
 20
69.08999135767137
 30
0.0
 10
53.26339161066054
 20
68.78154300332909
 30
0.0
 10
53.10792070916424
 20
68.35254302926609
 30
0.0
 10
52.99294167820393
 20
67.93352172727393
 30
0.0
 10
52.93068024576701
 20
67.65714336571892
 30
0.0
 10
52.90009851487491
 20
67.52139112959685
 30
0.0
 11
53.52558325195088
 21
69.3486320038329
 31
0.0
 11
53.49206494343138
 21
69.28019199944707
 31
0.0
 11
53.45901524639213
 21
69.21189424931899
 31
0.0
 11
53.26464173948404
 21
68.77028655743207
 31
0.0
 11
53.11150887908283
 21
68.34436175311156
 31
0.0
 11
52.99492289987709
 21
67.92793252013266
 31
0.0
 11
52.90009851487491
 21
67.52139112959685
 31
0.0
  0
SPLINE
  5
395
330
50
100
AcDbEntity
  8
0
  6
Continuous
 62
     3
100
AcDbSpline
210
0.0
220
0.0
230
1.0
 70
     8
 71
     3
 72
    13
 73
     9
 74
     7
 42
0.0000000001
 43
0.0000000001
 44
0.00000001
 40
0.0
 40
0.0
 40
0.0
 40
0.0
 40
0.28780325088234
 40
0.58148181307065
 40
0.9967883824584666
 40
1.430189023291258
 40
1.881659285522904
 40
2.340349647610722
 40
2.340349647610722
 40
2.340349647610722
 40
2.340349647610722
 10
50.72463261458194
 20
77.5370173785629
 30
0.0
 10
50.81375662616524
 20
77.50151587421053
 30
0.0
 10
50.99382405655284
 20
77.42978812598577
 30
0.0
 10
51.30468262700163
 20
77.3123452591044
 30
0.0
 10
51.66597314115457
 20
77.19166867203087
 30
0.0
 10
52.0816664869691
 20
77.06883856077164
 30
0.0
 10
52.51464745876179
 20
76.95423744134686
 30
0.0
 10
52.80896109624513
 20
76.88059728304819
 30
0.0
 10
52.95728527698583
 20
76.8434851184789
 30
0.0
 11
50.72463261458194
 21
77.5370173785629
 31
0.0
 11
50.99231664090485
 21
77.43130090269464
 31
0.0
 11
51.26728689162828
 21
77.32815799646215
 31
0.0
 11
51.6609540467284
 21
77.19584882228267
 31
0.0
 11
52.0764291165592
 21
77.07249331237992
 31
0.0
 11
52.5125672103178
 21
76.95583586147292
 31
0.0
 11
52.95728527698583
 21
76.8434851184789
 31
0.0
  0
SPLINE
  5
396
330
50
100
AcDbEntity
  8
0
  6
Continuous
 62
     3
100
AcDbSpline
210
0.0
220
0.0
230
1.0
 70
     8
 71
     3
 72
    11
 73
     7
 74
     5
 42
0.0000000001
 43
0.0000000001
 44
0.00000001
 40
0.0
 40
0.0
 40
0.0
 40
0.0
 40
0.6335774641050474
 40
1.247894983352887
 40
1.84190376014137
 40
2.417764531500691
 40
2.417764531500691
 40
2.417764531500691
 40
2.417764531500691
 10
54.82458570187492
 20
71.38456153539687
 30
0.0
 10
54.70003802324334
 20
71.21401093166533
 30
0.0
 10
54.45472875617188
 20
70.8780942445006
 30
0.0
 10
54.10683705905382
 20
70.37183836475012
 30
0.0
 10
53.80312681441133
 20
69.86009259005245
 30
0.0
 10
53.61713602397893
 20
69.5173465437645
 30
0.0
 10
53.52558325195088
 20
69.3486320038329
 30
0.0
 11
54.82458570187492
 21
71.38456153539687
 31
0.0
 11
54.45342032701448
 21
70.87108644590714
 31
0.0
 11
54.10882689893829
 21
70.3625184722974
 31
0.0
 11
53.80342744715534
 21
69.85303088486035
 31
0.0
 11
53.52558325195088
 21
69.3486320038329
 31
0.0
  0
SPLINE
  5
397
330
50
100
AcDbEntity
  8
0
  6
Continuous
 62
     3
100
AcDbSpline
210
0.0
220
0.0
230
1.0
 70
     8
 71
     3
 72
    11
 73
     7
 74
     5
 42
0.0000000001
 43
0.0000000001
 44
0.00000001
 40
0.0
 40
0.0
 40
0.0
 40
0.0
 40
0.7139793287470058
 40
1.429251028970625
 40
2.162838512639546
 40
2.901368380742341
 40
2.901368380742341
 40
2.901368380742341
 40
2.901368380742341
 10
52.95728527698583
 20
76.8434851184789
 30
0.0
 10
52.98603502442997
 20
76.60724032141518
 30
0.0
 10
53.04358655913516
 20
76.13432310140989
 30
0.0
 10
53.16148905273441
 20
75.42243587893908
 30
0.0
 10
53.34198051881867
 20
74.7153237871514
 30
0.0
 10
53.48328645803954
 20
74.24541980222787
 30
0.0
 10
53.55417663301734
 20
74.0096789982839
 30
0.0
 11
52.95728527698583
 21
76.8434851184789
 31
0.0
 11
53.0486155713852
 21
76.13537124401876
 31
0.0
 11
53.17037842809985
 21
75.43053976638352
 31
0.0
 11
53.34649816238174
 21
74.71840745045327
 31
0.0
 11
53.55417663301734
 21
74.0096789982839
 31
0.0
  0
SPLINE
  5
398
330
50
100
AcDbEntity
  8
0
  6
Continuous
 62
     3
100
AcDbSpline
210
0.0
220
0.0
230
1.0
 70
     8
 71
     3
 72
    13
 73
     9
 74
     7
 42
0.0000000001
 43
0.0000000001
 44
0.00000001
 40
0.0
 40
0.0
 40
0.0
 40
0.0
 40
0.1025502507049482
 40
0.205124638536149
 40
0.8803314809692792
 40
1.554838446263631
 40
2.239054149318409
 40
2.922147548827445
 40
2.922147548827445
 40
2.922147548827445
 40
2.922147548827445
 10
53.55417663301734
 20
74.0096789982839
 30
0.0
 10
53.56543890991546
 20
73.97740404416707
 30
0.0
 10
53.58796611449997
 20
73.91284653941723
 30
0.0
 10
53.68597451763297
 20
73.63625434826947
 30
0.0
 10
53.86424034479316
 20
73.18579750972361
 30
0.0
 10
54.1520691327159
 20
72.57146163428678
 30
0.0
 10
54.47837376318878
 20
71.97385239505249
 30
0.0
 10
54.70924488956678
 20
71.58088430432385
 30
0.0
 10
54.82458570187492
 20
71.38456153539687
 30
0.0
 11
53.55417663301734
 21
74.0096789982839
 31
0.0
 11
53.58804083989448
 21
73.91288142903637
 31
0.0
 11
53.62237707579433
 21
73.81622467581563
 31
0.0
 11
53.87066480333797
 21
73.1883254128604
 31
0.0
 11
54.15682195918053
 21
72.57752779630422
 31
0.0
 11
54.4816482234333
 21
71.97533262332595
 31
0.0
 11
54.82458570187492
 21
71.38456153539687
 31
0.0
  0
SPLINE
  5
399
330
50
100
AcDbEntity
  8
0
  6
Continuous
 62
     3
100
AcDbSpline
210
0.0
220
0.0
230
1.0
 70
     8
 71
     3
 72
    13
 73
     9
 74
     7
 42
0.0000000001
 43
0.0000000001
 44
0.00000001
 40
0.0
 40
0.0
 40
0.0
 40
0.0
 40
0.0611984105223889
 40
0.1234208040399713
 40
0.3053609164906623
 40
0.4973744586320186
 40
0.6647738444229503
 40
0.8340079627409124
 40
0.8340079627409124
 40
0.8340079627409124
 40
0.8340079627409124
 10
44.29913479749183
 20
68.61426972117789
 30
0.0
 10
44.28476650309703
 20
68.5997885358361
 30
0.0
 10
44.25578950137833
 20
68.57058386331144
 30
0.0
 10
44.18167400057252
 20
68.5007589106729
 30
0.0
 10
44.064232782766
 20
68.41390705772602
 30
0.0
 10
43.90479570713626
 20
68.32807768181688
 30
0.0
 10
43.73970766441985
 20
68.26566057988236
 30
0.0
 10
43.63256877705541
 20
68.23231175987183
 30
0.0
 10
43.5787073671857
 20
68.21554647037289
 30
0.0
 11
44.29913479749183
 21
68.61426972117789
 31
0.0
 11
44.25578920662235
 21
68.57106780915258
 31
0.0
 11
44.21031042063062
 21
68.52860245527704
 31
0.0
 11
44.06470871294305
 21
68.41950457611784
 31
0.0
 11
43.89572375840466
 21
68.3283273557976
 31
0.0
 11
43.73978269150872
 21
68.26745915376617
 31
0.0
 11
43.5787073671857
 21
68.21554647037289
 31
0.0
  0
SPLINE
  5
39A
330
50
100
AcDbEntity
  8
0
  6
Continuous
 62
     3
100
AcDbSpline
210
0.0
220
0.0
230
1.0
 70
     8
 71
     3
 72
    13
 73
     9
 74
     7
 42
0.0000000001
 43
0.0000000001
 44
0.00000001
 40
0.0
 40
0.0
 40
0.0
 40
0.0
 40
0.0753967450920566
 40
0.1547106131037053
 40
0.3137603617350039
 40
0.4925339297233955
 40
0.6201653769646068
 40
0.7510733732797219
 40
0.7510733732797219
 40
0.7510733732797219
 40
0.7510733732797219
 10
44.73287866097491
 20
69.22486982499686
 30
0.0
 10
44.72109429800579
 20
69.20267126882773
 30
0.0
 10
44.69691333345931
 20
69.15712086435401
 30
0.0
 10
44.64548118193396
 20
69.06602875614807
 30
0.0
 10
44.56989656259542
 20
68.94917023359903
 30
0.0
 10
44.47729070321013
 20
68.82454443048015
 30
0.0
 10
44.38410030503258
 20
68.71241706125411
 30
0.0
 10
44.32769491423498
 20
68.64726074979339
 30
0.0
 10
44.29913479749183
 20
68.61426972117789
 30
0.0
 11
44.73287866097491
 21
69.22486982499686
 31
0.0
 11
44.69724544662286
 21
69.15842478601412
 31
0.0
 11
44.65809567589035
 21
69.08944663649878
 31
0.0
 11
44.57214063700991
 21
68.95562379154792
 31
0.0
 11
44.46564069813986
 21
68.81203496318034
 31
0.0
 11
44.38447897894614
 21
68.71353338115037
 31
0.0
 11
44.29913479749183
 21
68.61426972117789
 31
0.0
  0
SPLINE
  5
39B
330
50
100
AcDbEntity
  8
0
  6
Continuous
 62
     3
100
AcDbSpline
210
0.0
220
0.0
230
1.0
 70
     8
 71
     3
 72
    17
 73
    13
 74
    11
 42
0.0000000001
 43
0.0000000001
 44
0.00000001
 40
0.0
 40
0.0
 40
0.0
 40
0.0
 40
0.1201843643271358
 40
0.2392979710645811
 40
0.4263742890188468
 40
0.6125019321945954
 40
0.7687548816391088
 40
0.9283863152811606
 40
1.089191711618994
 40
1.25098671785019
 40
1.401844115270597
 40
1.555077469348151
 40
1.555077469348151
 40
1.555077469348151
 40
1.555077469348151
 10
25.080767368875
 20
66.21481989046208
 30
0.0
 10
25.04287776945657
 20
66.20180601570699
 30
0.0
 10
24.9674361401228
 20
66.1758942106064
 30
0.0
 10
24.83463189783767
 20
66.12511596658608
 30
0.0
 10
24.6869994840427
 20
66.05244757462593
 30
0.0
 10
24.53971733765082
 20
65.95422422642702
 30
0.0
 10
24.41316055161199
 20
65.84412720737035
 30
0.0
 10
24.30743331711612
 20
65.7248673707887
 30
0.0
 10
24.21802700937657
 20
65.5906178545899
 30
0.0
 10
24.15416305227188
 20
65.44493103894459
 30
0.0
 10
24.12407016048019
 20
65.29180516696948
 30
0.0
 10
24.11467626564164
 20
65.19089040955943
 30
0.0
 10
24.10994261949531
 20
65.14003879148919
 30
0.0
 11
25.080767368875
 21
66.21481989046208
 31
0.0
 11
24.96732727384197
 21
66.17512573135001
 31
0.0
 11
24.85633803653025
 21
66.13188870426714
 31
0.0
 11
24.68874960629166
 21
66.04875226947775
 31
0.0
 11
24.53404547541043
 21
65.94526250456138
 31
0.0
 11
24.41635452457605
 21
65.84248203802319
 31
0.0
 11
24.31058783045231
 21
65.72291782506316
 31
0.0
 11
24.22225938336852
 21
65.58854349370804
 31
0.0
 11
24.15857336910349
 21
65.43980978660576
 31
0.0
 11
24.12674579937057
 21
65.29234806221142
 31
0.0
 11
24.10994261949531
 21
65.14003879148919
 31
0.0
  0
SPLINE
  5
39C
330
50
100
AcDbEntity
  8
0
  6
Continuous
 62
     3
100
AcDbSpline
210
0.0
220
0.0
230
1.0
 70
     8
 71
     3
 72
    20
 73
    16
 74
    14
 42
0.0000000001
 43
0.0000000001
 44
0.00000001
 40
0.0
 40
0.0
 40
0.0
 40
0.0
 40
0.0131475806233446
 40
0.0262745053567294
 40
0.1407741280828445
 40
0.2573337666329271
 40
0.3748256426561762
 40
0.5281010643270294
 40
0.6767436418602503
 40
0.8225923903710106
 40
0.9669372141978385
 40
1.124892763076422
 40
1.282562713828164
 40
1.334977733119111
 40
1.387544585269759
 40
1.387544585269759
 40
1.387544585269759
 40
1.387544585269759
 10
100.0540722560309
 20
62.91812241430478
 30
0.0
 10
100.0548229868242
 20
62.92244022201569
 30
0.0
 10
100.0563232689532
 20
62.93106905381978
 30
0.0
 10
100.06358271201
 20
62.97743123156469
 30
0.0
 10
100.0625007832676
 20
63.05993097270878
 30
0.0
 10
100.0358063040969
 20
63.17352283622269
 30
0.0
 10
99.98960573719195
 20
63.29428602310857
 30
0.0
 10
99.92854933607471
 20
63.42033445615164
 30
0.0
 10
99.84664335780063
 20
63.54575290083245
 30
0.0
 10
99.74860166544276
 20
63.65499440719969
 30
0.0
 10
99.63551158132627
 20
63.75304331415465
 30
0.0
 10
99.50926760175787
 20
63.84059866107549
 30
0.0
 10
99.40118944459752
 20
63.89917609035798
 30
0.0
 10
99.32164050445675
 20
63.93574901438029
 30
0.0
 10
99.28961411090805
 20
63.94985305751196
 30
0.0
 10
99.2735777546165
 20
63.95691527825397
 30
0.0
 11
100.0540722560309
 21
62.91812241430478
 31
0.0
 11
100.0562880517736
 21
62.93108193302556
 31
0.0
 11
100.0582795154322
 21
62.94405691762871
 31
0.0
 11
100.0584158097242
 21
63.05855645923604
 31
0.0
 11
100.033399438804
 21
63.17239990667555
 31
0.0
 11
99.99253336755756
 21
63.28255572882009
 31
0.0
 11
99.92496901420688
 21
63.42013629810472
 31
0.0
 11
99.84309434734256
 21
63.54419739104516
 31
0.0
 11
99.7461445756708
 21
63.65315884851957
 31
0.0
 11
99.6374222193148
 21
63.74810555669841
 31
0.0
 11
99.50767169445993
 21
63.83818750117909
 31
0.0
 11
99.36919060790242
 21
63.91357186319078
 31
0.0
 11
99.32162898131217
 21
63.93559970746479
 31
0.0
 11
99.2735777546165
 21
63.95691527825397
 31
0.0
  0
SPLINE
  5
39D
330
50
100
AcDbEntity
  8
0
  6
Continuous
 62
     3
100
AcDbSpline
210
0.0
220
0.0
230
1.0
 70
     8
 71
     3
 72
    13
 73
     9
 74
     7
 42
0.0000000001
 43
0.0000000001
 44
0.00000001
 40
0.0
 40
0.0
 40
0.0
 40
0.0
 40
0.0935926348698393
 40
0.1880597711643706
 40
0.3980378832440522
 40
0.6120000352702291
 40
0.7128291387186166
 40
0.8135837875958314
 40
0.8135837875958314
 40
0.8135837875958314
 40
0.8135837875958314
 10
79.89587321746325
 20
62.25151404370308
 30
0.0
 10
79.87648937704898
 20
62.27595934175986
 30
0.0
 10
79.83754057944688
 20
62.32507834738456
 30
0.0
 10
79.75801344649591
 20
62.43132768264832
 30
0.0
 10
79.66635951014666
 20
62.57826834621393
 30
0.0
 10
79.58933665220903
 20
62.73567773896269
 30
0.0
 10
79.53792669396816
 20
62.86432891614329
 30
0.0
 10
79.51451626590712
 20
62.92731423314758
 30
0.0
 10
79.50281537517486
 20
62.95879525989687
 30
0.0
 11
79.89587321746325
 21
62.25151404370308
 31
0.0
 11
79.83806221963061
 21
62.32511750715063
 31
0.0
 11
79.78176644969324
 21
62.40097807745462
 31
0.0
 11
79.67018649105715
 21
62.57885646395314
 31
0.0
 11
79.57608488954135
 21
62.77101444867362
 31
0.0
 11
79.53829997604181
 21
62.86449604265895
 31
0.0
 11
79.50281537517486
 21
62.95879525989687
 31
0.0
  0
SPLINE
  5
39E
330
50
100
AcDbEntity
  8
0
  6
Continuous
 62
     3
100
AcDbSpline
210
0.0
220
0.0
230
1.0
 70
     8
 71
     3
 72
    13
 73
     9
 74
     7
 42
0.0000000001
 43
0.0000000001
 44
0.00000001
 40
0.0
 40
0.0
 40
0.0
 40
0.0
 40
0.1499964993185119
 40
0.2991738096606433
 40
0.4979171473181544
 40
0.6899688801325089
 40
0.739621402964352
 40
0.7888281152274595
 40
0.7888281152274595
 40
0.7888281152274595
 40
0.7888281152274595
 10
80.55029171689506
 20
61.827359514406
 30
0.0
 10
80.5037245489078
 20
61.84556277373733
 30
0.0
 10
80.41084453427315
 20
61.88186987735069
 30
0.0
 10
80.25979905872208
 20
61.95122554319246
 30
0.0
 10
80.1073040364162
 20
62.04819543086167
 30
0.0
 10
79.99566887077043
 20
62.14449289259491
 30
0.0
 10
79.9290001398259
 20
62.21492677450964
 30
0.0
 10
79.90688227772284
 20
62.23935500741
 30
0.0
 10
79.89587321746325
 20
62.25151404370308
 30
0.0
 11
80.55029171689506
 21
61.827359514406
 31
0.0
 11
80.4111241882383
 21
61.88331797020474
 31
0.0
 11
80.27617464556187
 21
61.94689855570324
 31
0.0
 11
80.1083407348217
 21
62.05334428210364
 31
0.0
 11
79.96328263646608
 21
62.17920935342387
 31
0.0
 11
79.92903367170426
 21
62.21515906046455
 31
0.0
 11
79.89587321746325
 21
62.25151404370308
 31
0.0
  0
SPLINE
  5
39F
330
50
100
AcDbEntity
  8
0
  6
Continuous
 62
     3
100
AcDbSpline
210
0.0
220
0.0
230
1.0
 70
     8
 71
     3
 72
    21
 73
    17
 74
    15
 42
0.0000000001
 43
0.0000000001
 44
0.00000001
 40
0.0
 40
0.0
 40
0.0
 40
0.0
 40
0.2996641654838664
 40
0.5990174064029598
 40
1.160163784222524
 40
1.718407249477554
 40
2.273375286699987
 40
2.823432556754158
 40
3.368768843759027
 40
3.906992690452108
 40
4.438480579062888
 40
4.963102953217036
 40
5.481995755693581
 40
5.987300092914024
 40
6.150221911019259
 40
6.312171714858626
 40
6.312171714858626
 40
6.312171714858626
 40
6.312171714858626
 10
73.52745401547492
 20
80.42735072589687
 30
0.0
 10
73.49403252929143
 20
80.52148177642893
 30
0.0
 10
73.4272242342808
 20
80.70964620930549
 30
0.0
 10
73.29366978636038
 20
81.07259359104683
 30
0.0
 10
73.11575134866044
 20
81.51092957906482
 30
0.0
 10
72.88570625080185
 20
82.01956489010226
 30
0.0
 10
72.63938418122126
 20
82.51639753467146
 30
0.0
 10
72.37693785613479
 20
83.00002783237278
 30
0.0
 10
72.0989049478842
 20
83.46840121958141
 30
0.0
 10
71.80531035704604
 20
83.91984574540075
 30
0.0
 10
71.49617458964269
 20
84.35232682600017
 30
0.0
 10
71.17456505251498
 20
84.76741224769741
 30
0.0
 10
70.84534093676263
 20
85.1652331316709
 30
0.0
 10
70.57438413525425
 20
85.45433666719539
 30
0.0
 10
70.3722700138448
 20
85.64339955527888
 30
0.0
 10
70.2919615435185
 20
85.71604517201402
 30
0.0
 10
70.25192744962584
 20
85.75225930272086
 30
0.0
 11
73.52745401547492
 21
80.42735072589687
 31
0.0
 11
73.42665181750209
 21
80.70955194658698
 31
0.0
 11
73.32273512495138
 21
80.99028969584434
 31
0.0
 11
73.11201525589304
 21
81.51036891492933
 31
0.0
 11
72.88226024023334
 21
82.0191403756847
 31
0.0
 11
72.63561099869331
 21
82.51628590164893
 31
0.0
 11
72.3731014948878
 21
82.99966128450498
 31
0.0
 11
72.09451285517093
 21
83.46846831916312
 31
0.0
 11
71.8008064985311
 21
83.91949102947653
 31
0.0
 11
71.49208852610852
 21
84.35212550480557
 31
0.0
 11
71.17118791557903
 21
84.76715735132453
 31
0.0
 11
70.83832967041633
 21
85.16522157866626
 31
0.0
 11
70.49042364456939
 21
85.5316828595585
 31
0.0
 11
70.37172768990987
 21
85.64328388626606
 31
0.0
 11
70.25192744962584
 21
85.75225930272086
 31
0.0
  0
SPLINE
  5
3A0
330
50
100
AcDbEntity
  8
0
  6
Continuous
 62
     3
100
AcDbSpline
210
0.0
220
0.0
230
1.0
 70
     8
 71
     3
 72
    21
 73
    17
 74
    15
 42
0.0000000001
 43
0.0000000001
 44
0.00000001
 40
0.0
 40
0.0
 40
0.0
 40
0.0
 40
0.4544859603882956
 40
0.9100365179337946
 40
1.389249554079748
 40
1.872839152210444
 40
2.373573645108871
 40
2.878856679364936
 40
3.400995785005107
 40
3.92907679827915
 40
4.471125581381335
 40
5.019518649143654
 40
5.578222916881487
 40
6.143284595286117
 40
6.294250117821756
 40
6.445448589608799
 40
6.445448589608799
 40
6.445448589608799
 40
6.445448589608799
 10
76.85038459291519
 20
70.71299311518186
 30
0.0
 10
76.93898476989494
 20
70.83587762631953
 30
0.0
 10
77.11639266271104
 20
71.08193449577308
 30
0.0
 10
77.37294042609628
 20
71.46780738421326
 30
0.0
 10
77.6040054508421
 20
71.8808135707066
 30
0.0
 10
77.81457366550197
 20
72.32113494354059
 30
0.0
 10
78.00547364979674
 20
72.77974795550425
 30
0.0
 10
78.1761739300994
 20
73.25993779827665
 30
0.0
 10
78.32341730280406
 20
73.7573483063799
 30
0.0
 10
78.44773614439406
 20
74.27356669874159
 30
0.0
 10
78.54813843255172
 20
74.8038635351644
 30
0.0
 10
78.62500580778537
 20
75.3483686838058
 30
0.0
 10
78.67829748892686
 20
75.903382633203
 30
0.0
 10
78.6993417658675
 20
76.32795264950691
 30
0.0
 10
78.7049637735742
 20
76.61697481585985
 30
0.0
 10
78.70628897722543
 20
76.71768764881831
 30
0.0
 10
78.70695208987496
 20
76.76808288689688
 30
0.0
 11
76.85038459291519
 21
70.71299311518186
 31
0.0
 11
77.11385191921734
 21
71.08332061370346
 31
0.0
 11
77.36374080031102
 21
71.46421673810717
 31
0.0
 11
77.59875239296213
 21
71.8818465805895
 31
0.0
 11
77.8083717218537
 21
72.3176431344713
 31
0.0
 11
78.00079051604611
 21
72.77993096690882
 31
0.0
 11
78.17005573524024
 21
73.2560194358704
 31
0.0
 11
78.31854999436673
 21
73.7565978020082
 31
0.0
 11
78.44246481152861
 21
74.26993460632704
 31
0.0
 11
78.54358921996393
 21
74.80246698776611
 31
0.0
 11
78.62052106905529
 21
75.34543701213684
 31
0.0
 11
78.67382797285794
 21
75.90159241559476
 31
0.0
 11
78.70170712684023
 21
76.46596592062019
 31
0.0
 11
78.70480409504289
 21
76.6168996735796
 31
0.0
 11
78.70695208987496
 21
76.76808288689688
 31
0.0
  0
SPLINE
  5
3A1
330
50
100
AcDbEntity
  8
0
  6
Continuous
 62
     3
100
AcDbSpline
210
0.0
220
0.0
230
1.0
 70
     8
 71
     3
 72
    45
 73
    41
 74
    39
 42
0.0000000001
 43
0.0000000001
 44
0.00000001
 40
0.0
 40
0.0
 40
0.0
 40
0.0
 40
0.3174250254999904
 40
0.6358006865171362
 40
1.215183827808607
 40
1.799886978964573
 40
2.386455109217665
 40
2.976068904509818
 40
3.567208446089154
 40
4.160002557078845
 40
4.753350662663109
 40
5.34651277796216
 40
5.93952359509861
 40
6.530619818862406
 40
7.120649759287359
 40
7.707121849965826
 40
8.29210192545071
 40
8.872116402004954
 40
9.450299999112529
 40
10.0224484585271
 40
10.59238929405658
 40
11.15568628372904
 40
11.71608384432121
 40
12.26980026718847
 40
12.81864176182694
 40
13.36139423069028
 40
13.89563749426515
 40
14.42498345300321
 40
14.9419042913751
 40
15.45531318174073
 40
15.90269596073253
 40
16.34846200372427
 40
16.82810413554264
 40
17.30638049334538
 40
17.76964091172092
 40
18.23309600128081
 40
18.68406732427203
 40
19.13366227490905
 40
19.37861133197707
 40
19.62390490095916
 40
19.62390490095916
 40
19.62390490095916
 40
19.62390490095916
 10
45.60917957292071
 20
76.0868483292789
 30
0.0
 10
45.61000919043254
 20
75.9810430867501
 30
0.0
 10
45.61167091002358
 20
75.76911573246872
 30
0.0
 10
45.62041425144874
 20
75.36411986623122
 30
0.0
 10
45.64991553486473
 20
74.87064665622324
 30
0.0
 10
45.70948413640653
 20
74.29000404646808
 30
0.0
 10
45.79084666066326
 20
73.70857575093906
 30
0.0
 10
45.89429181888548
 20
73.12847743476777
 30
0.0
 10
46.02024101400968
 20
72.55072240594453
 30
0.0
 10
46.16801681782613
 20
71.9768817320436
 30
0.0
 10
46.33706617007303
 20
71.4082420555343
 30
0.0
 10
46.5270171384819
 20
70.84616152543536
 30
0.0
 10
46.73746033947961
 20
70.29222874999535
 30
0.0
 10
46.96806095236978
 20
69.74751135391482
 30
0.0
 10
47.21819633269572
 20
69.21388503492042
 30
0.0
 10
47.48773411588106
 20
68.6920803625194
 30
0.0
 10
47.7759308393874
 20
68.18417137374202
 30
0.0
 10
48.08289614186717
 20
67.69062354228546
 30
0.0
 10
48.40767977337199
 20
67.21376754438532
 30
0.0
 10
48.75061951804536
 20
66.75396771521807
 30
0.0
 10
49.1105630883432
 20
66.31372521722156
 30
0.0
 10
49.48793064524418
 20
65.89355594291041
 30
0.0
 10
49.88141126612873
 20
65.49598274182264
 30
0.0
 10
50.29101044025138
 20
65.12212063780595
 30
0.0
 10
50.7153559993034
 20
64.7742539244141
 30
0.0
 10
51.15321798125154
 20
64.45440716753203
 30
0.0
 10
51.60353834655808
 20
64.16414216458392
 30
0.0
 10
52.0632434952671
 20
63.90608914614418
 30
0.0
 10
52.53213938481056
 20
63.68071304758575
 30
0.0
 10
52.98954919611433
 20
63.49691578569369
 30
0.0
 10
53.435286099603
 20
63.35058122110254
 30
0.0
 10
53.87838019728311
 20
63.23509796438015
 30
0.0
 10
54.33836902926921
 20
63.1473392492929
 30
0.0
 10
54.80940448551526
 20
63.09273668748644
 30
0.0
 10
55.27781021699512
 20
63.0745936350591
 30
0.0
 10
55.73712969185564
 20
63.08853416632846
 30
0.0
 10
56.19023392371819
 20
63.13013910061952
 30
0.0
 10
56.56657579126513
 20
63.19977762012274
 30
0.0
 10
56.86790449806021
 20
63.28602876701449
 30
0.0
 10
57.02340789158404
 20
63.33625624766709
 30
0.0
 10
57.10121422738479
 20
63.36138763636239
 30
0.0
 11
45.60917957292071
 21
76.0868483292789
 31
0.0
 11
45.6123944782743
 21
75.7694395846022
 31
0.0
 11
45.61997077662281
 21
75.45115408189835
 31
0.0
 11
45.65388322788534
 21
74.87276427384315
 31
0.0
 11
45.71297555660971
 21
74.29105483464033
 31
0.0
 11
45.7943117968511
 21
73.71015330473014
 31
0.0
 11
45.89787790321043
 21
73.12970650336727
 31
0.0
 11
46.02370426106145
 21
72.55211349329134
 31
0.0
 11
46.17148485289864
 21
71.97803531507839
 31
0.0
 11
46.34056558102009
 21
71.40928784758657
 31
0.0
 11
46.53049347461145
 21
70.84735485312727
 31
0.0
 11
46.74112341228422
 21
70.29301122450256
 31
0.0
 11
46.97161100532774
 21
69.7487041280939
 31
0.0
 11
47.2221045660076
 21
69.21448665678115
 31
0.0
 11
47.49134724750314
 21
68.69347044627915
 31
0.0
 11
47.78014035025379
 21
68.18474632406952
 31
0.0
 11
48.08658894245993
 21
67.69229728777503
 31
0.0
 11
48.41219911937623
 21
67.21451670565308
 31
0.0
 11
48.75441625642949
 21
66.75599594198198
 31
0.0
 11
49.11533405826061
 21
66.31489403048596
 31
0.0
 11
49.49189770995197
 21
65.89596287289689
 31
0.0
 11
49.88628545187473
 21
65.49783759746374
 31
0.0
 11
50.29543809700633
 21
65.12474780943045
 31
0.0
 11
50.72007300033032
 21
64.7770235147428
 31
0.0
 11
51.1585250107582
 21
64.45711715811792
 31
0.0
 11
51.60773421509761
 21
64.16793390235804
 31
0.0
 11
52.06947617197153
 21
63.9090874048068
 31
0.0
 11
52.53550394557382
 21
63.68542411462624
 31
0.0
 11
53.01200604497311
 21
63.49428427583135
 31
0.0
 11
53.43711381651654
 21
63.35487576277775
 31
0.0
 11
53.86850511402304
 21
63.24258634421943
 31
0.0
 11
54.33971454934652
 21
63.15304170352335
 31
0.0
 11
54.81485435864827
 21
63.09835682398831
 31
0.0
 11
55.27774815385568
 21
63.07992995252394
 31
0.0
 11
55.74100604730967
 21
63.09344824352302
 31
0.0
 11
56.18986737849146
 21
63.13702162450452
 31
0.0
 11
56.63150497550194
 21
63.2212347621085
 31
0.0
 11
56.86737534420383
 21
63.28730449592775
 31
0.0
 11
57.10121422738479
 21
63.36138763636239
 31
0.0
  0
MTEXT
  5
3A3
330
50
100
AcDbEntity
  8
0
 62
     1
100
AcDbMText
 10
31.81061080412451
 20
124.0
 30
0.0
 40
4.0
 41
0.0
 71
     1
 72
     1
  1
M 1:1
  7
CONVERTER_14
 73
     1
 44
1.0
  0
ENDBLK
  5
52
330
50
100
AcDbEntity
  8
0
100
AcDbBlockEnd
  0
BLOCK
  5
54
330
53
100
AcDbEntity
  8
0
100
AcDbBlockBegin
  2
a4kl
 70
     0
 10
0.0
 20
0.0
 30
0.0
  3
a4kl
  1

  0
LINE
  5
3A4
330
53
100
AcDbEntity
  8
0
  6
Continuous
 62
     1
100
AcDbLine
 10
18.5066684218749
 20
0.0
 30
0.0
 11
18.5066684218749
 21
43.0
 31
0.0
  0
LINE
  5
3A5
330
53
100
AcDbEntity
  8
1
  6
DOT_CENTER
 62
     7
100
AcDbLine
 10
134.441221630286
 20
0.32749751310985
 30
0.0
 11
134.441221630286
 21
5.20795062751873
 31
0.0
  0
LINE
  5
3A6
330
53
100
AcDbEntity
  8
1
  6
DOT_CENTER
 62
     7
100
AcDbLine
 10
131.932832320087
 20
2.75
 30
0.0
 11
137.0859364464741
 21
2.75
 31
0.0
  0
LINE
  5
3A7
330
53
100
AcDbEntity
  8
1
  6
DOT_CENTER
 62
     7
100
AcDbLine
 10
119.8271273882571
 20
2.75
 30
0.0
 11
128.2247785571842
 21
2.75
 31
0.0
  0
LINE
  5
3A8
330
53
100
AcDbEntity
  8
1
  6
Continuous
 62
     4
100
AcDbLine
 10
120.5399694939633
 20
1.75
 30
0.0
 11
120.5399694939633
 21
3.75
 31
0.0
  0
LINE
  5
3A9
330
53
100
AcDbEntity
  8
1
  6
Continuous
 62
     4
100
AcDbLine
 10
127.5399694939633
 20
0.75
 30
0.0
 11
120.5399694939633
 21
1.75
 31
0.0
  0
LINE
  5
3AA
330
53
100
AcDbEntity
  8
1
  6
Continuous
 62
     4
100
AcDbLine
 10
127.5399694939633
 20
4.75
 30
0.0
 11
127.5399694939633
 21
0.75
 31
0.0
  0
LINE
  5
3AB
330
53
100
AcDbEntity
  8
1
  6
Continuous
 62
     4
100
AcDbLine
 10
120.5399694939633
 20
3.75
 30
0.0
 11
127.5399694939633
 21
4.75
 31
0.0
  0
LINE
  5
3AC
330
53
100
AcDbEntity
  8
0
  6
Continuous
 62
     1
100
AcDbLine
 10
142.5066684218749
 20
5.5
 30
0.0
 11
142.5066684218749
 21
26.0
 31
0.0
  0
LINE
  5
3AD
330
53
100
AcDbEntity
  8
0
  6
Continuous
 62
     1
100
AcDbLine
 10
115.5066684218749
 20
5.5
 30
0.0
 11
115.5066684218749
 21
0.0
 31
0.0
  0
LINE
  5
3AE
330
53
100
AcDbEntity
  8
1
  6
Continuous
 62
     1
100
AcDbLine
 10
115.5066684218749
 20
5.5
 30
0.0
 11
142.5066684218749
 21
5.5
 31
0.0
  0
LINE
  5
3AF
330
53
100
AcDbEntity
  8
0
  6
Continuous
 62
     1
100
AcDbLine
 10
65.5066684218749
 20
31.0
 30
0.0
 11
65.5066684218749
 21
5.86666666525001
 31
0.0
  0
LINE
  5
3B0
330
53
100
AcDbEntity
  8
0
  6
Continuous
 62
     1
100
AcDbLine
 10
106.5066684218749
 20
31.0
 30
0.0
 11
106.5066684218749
 21
26.0
 31
0.0
  0
LINE
  5
3B1
330
53
100
AcDbEntity
  8
0
  6
Continuous
 62
     1
100
AcDbLine
 10
65.5066684218749
 20
31.0
 30
0.0
 11
106.5066684218749
 21
31.0
 31
0.0
  0
LINE
  5
3B2
330
53
100
AcDbEntity
  8
0
  6
Continuous
 62
     2
100
AcDbLine
 10
197.5066684218749
 20
0.0
 30
0.0
 11
18.5066684218749
 21
0.0
 31
0.0
  0
LINE
  5
3B3
330
53
100
AcDbEntity
  8
0
  6
Continuous
 62
     4
100
AcDbLine
 10
18.5066684218749
 20
4.30000300000002
 30
0.0
 11
65.5066684218749
 21
4.30000300000002
 31
0.0
  0
LINE
  5
3B4
330
53
100
AcDbEntity
  8
0
  6
Continuous
 62
     3
100
AcDbLine
 10
65.5066684218749
 20
8.59999099999999
 30
0.0
 11
18.5066684218749
 21
8.59999099999999
 31
0.0
  0
LINE
  5
3B5
330
53
100
AcDbEntity
  8
0
  6
Continuous
 62
     3
100
AcDbLine
 10
18.5066684218749
 20
12.899994
 30
0.0
 11
65.5066684218749
 21
12.899994
 31
0.0
  0
LINE
  5
3B6
330
53
100
AcDbEntity
  8
0
  6
Continuous
 62
     3
100
AcDbLine
 10
65.5066684218749
 20
17.199997
 30
0.0
 11
18.5066684218749
 21
17.199997
 31
0.0
  0
LINE
  5
3B7
330
53
100
AcDbEntity
  8
0
  6
Continuous
 62
     3
100
AcDbLine
 10
18.5066684218749
 20
21.5
 30
0.0
 11
65.5066684218749
 21
21.5
 31
0.0
  0
LINE
  5
3B8
330
53
100
AcDbEntity
  8
0
  6
Continuous
 62
     3
100
AcDbLine
 10
65.5066684218749
 20
25.799988
 30
0.0
 11
18.5066684218749
 21
25.799988
 31
0.0
  0
LINE
  5
3B9
330
53
100
AcDbEntity
  8
0
  6
Continuous
 62
     3
100
AcDbLine
 10
18.5066684218749
 20
30.099991
 30
0.0
 11
65.5066684218749
 21
30.099991
 31
0.0
  0
LINE
  5
3BA
330
53
100
AcDbEntity
  8
0
  6
Continuous
 62
     3
100
AcDbLine
 10
65.5066684218749
 20
34.399994
 30
0.0
 11
18.5066684218749
 21
34.399994
 31
0.0
  0
LINE
  5
3BB
330
53
100
AcDbEntity
  8
0
  6
Continuous
 62
     3
100
AcDbLine
 10
18.5066684218749
 20
38.699997
 30
0.0
 11
65.5066684218749
 21
38.699997
 31
0.0
  0
LINE
  5
3BC
330
53
100
AcDbEntity
  8
0
  6
Continuous
 62
     3
100
AcDbLine
 10
31.5066684218749
 20
0.0
 30
0.0
 11
31.5066684218749
 21
43.0
 31
0.0
  0
LINE
  5
3BD
330
53
100
AcDbEntity
  8
0
  6
Continuous
 62
     3
100
AcDbLine
 10
43.5066684218749
 20
0.0
 30
0.0
 11
43.5066684218749
 21
43.0
 31
0.0
  0
LINE
  5
3BE
330
53
100
AcDbEntity
  8
0
  6
Continuous
 62
     3
100
AcDbLine
 10
51.5066684218749
 20
0.0
 30
0.0
 11
51.5066684218749
 21
43.0
 31
0.0
  0
LINE
  5
3BF
330
53
100
AcDbEntity
  8
0
  6
Continuous
 62
     3
100
AcDbLine
 10
115.5066684218749
 20
17.3
 30
0.0
 11
65.5066684218749
 21
17.3
 31
0.0
  0
LINE
  5
3C0
330
53
100
AcDbEntity
  8
0
  6
Continuous
 62
     3
100
AcDbLine
 10
65.5066684218749
 20
21.6
 30
0.0
 11
115.5066684218749
 21
21.6
 31
0.0
  0
LINE
  5
3C1
330
53
100
AcDbEntity
  8
0
  6
Continuous
 62
     3
100
AcDbLine
 10
83.5066684218749
 20
13.0
 30
0.0
 11
83.5066684218749
 21
26.0
 31
0.0
  0
LINE
  5
3C2
330
53
100
AcDbEntity
  8
0
  6
Continuous
 62
     3
100
AcDbLine
 10
100.5066684218749
 20
13.0
 30
0.0
 11
100.5066684218749
 21
26.0000062329264
 31
0.0
  0
LINE
  5
3C3
330
53
100
AcDbEntity
  8
0
  6
Continuous
 62
     1
100
AcDbLine
 10
142.5066684218749
 20
12.96666658
 30
0.0
 11
115.5066684218749
 21
12.96666658
 31
0.0
  0
LINE
  5
3C4
330
53
100
AcDbEntity
  8
0
  6
Continuous
 62
     2
100
AcDbLine
 10
197.5066684218749
 20
42.99999999999999
 30
0.0
 11
197.5066684218749
 21
0.0
 31
0.0
  0
LINE
  5
3C5
330
53
100
AcDbEntity
  8
0
  6
Continuous
 62
     1
100
AcDbLine
 10
106.5066684218749
 20
43.0
 30
0.0
 11
197.5066684218749
 21
42.99999999999999
 31
0.0
  0
LINE
  5
3C6
330
53
100
AcDbEntity
  8
0
  6
Continuous
 62
     1
100
AcDbLine
 10
65.5066684218749
 20
30.0
 30
0.0
 11
65.5066684218749
 21
30.1005888789615
 31
0.0
  0
LINE
  5
3C7
330
53
100
AcDbEntity
  8
0
  6
Continuous
 62
     3
100
AcDbLine
 10
65.5066684218749
 20
6.5
 30
0.0
 11
115.5066684218749
 21
6.5
 31
0.0
  0
LINE
  5
3C8
330
53
100
AcDbEntity
  8
0
  6
Continuous
 62
     1
100
AcDbLine
 10
106.5066684218749
 20
43.0
 30
0.0
 11
18.5066684218749
 21
43.0
 31
0.0
  0
LINE
  5
3C9
330
53
100
AcDbEntity
  8
0
  6
Continuous
 62
     1
100
AcDbLine
 10
106.5066684218749
 20
26.0
 30
0.0
 11
115.5066684218749
 21
26.0
 31
0.0
  0
LINE
  5
3CA
330
53
100
AcDbEntity
  8
0
  6
Continuous
 62
     1
100
AcDbLine
 10
106.5066684218749
 20
43.0
 30
0.0
 11
106.5066684218749
 21
38.9763382614061
 31
0.0
  0
LINE
  5
3CB
330
53
100
AcDbEntity
  8
0
  6
Continuous
 62
     1
100
AcDbLine
 10
197.5066684218749
 20
13.0
 30
0.0
 11
142.5066684218749
 21
13.0
 31
0.0
  0
LINE
  5
3CC
330
53
100
AcDbEntity
  8
0
  6
Continuous
 62
     1
100
AcDbLine
 10
65.5066684218749
 20
43.0
 30
0.0
 11
65.5066684218749
 21
31.0
 31
0.0
  0
LINE
  5
3CD
330
53
100
AcDbEntity
  8
0
  6
Continuous
 62
     1
100
AcDbLine
 10
142.5066684218749
 20
0.0
 30
0.0
 11
142.5066684218749
 21
5.5
 31
0.0
  0
LINE
  5
3CE
330
53
100
AcDbEntity
  8
0
  6
Continuous
 62
     1
100
AcDbLine
 10
18.5066684218749
 20
0.0
 30
0.0
 11
18.5066684218749
 21
43.0
 31
0.0
  0
LINE
  5
3CF
330
53
100
AcDbEntity
  8
0
  6
Continuous
 62
     1
100
AcDbLine
 10
106.5066684218749
 20
38.9763382614061
 30
0.0
 11
106.5066684218749
 21
31.0
 31
0.0
  0
LINE
  5
3D0
330
53
100
AcDbEntity
  8
0
  6
Continuous
 62
     7
100
AcDbLine
 10
79.8018625281029
 20
39.78299998112
 30
0.0
 11
79.8018625281029
 21
40.0820155344267
 31
0.0
  0
LINE
  5
3D1
330
53
100
AcDbEntity
  8
0
  6
Continuous
 62
     7
100
AcDbLine
 10
81.1262193139089
 20
38.5199273518864
 30
0.0
 11
81.1262193139089
 21
38.9226068653605
 31
0.0
  0
LINE
  5
3D2
330
53
100
AcDbEntity
  8
0
  6
Continuous
 62
     7
100
AcDbLine
 10
81.1839248291939
 20
39.832708678848
 30
0.0
 11
83.49853365141291
 21
39.832708678848
 31
0.0
  0
LINE
  5
3D3
330
53
100
AcDbEntity
  8
0
  6
Continuous
 62
     7
100
AcDbLine
 10
83.49853365141291
 20
39.832708678848
 30
0.0
 11
83.49853365141291
 21
40.2212071096856
 31
0.0
  0
LINE
  5
3D4
330
53
100
AcDbEntity
  8
0
  6
Continuous
 62
     7
100
AcDbLine
 10
83.49853365141291
 20
40.2212071096856
 30
0.0
 11
80.4193102190369
 21
40.2212071096856
 31
0.0
  0
LINE
  5
3D5
330
53
100
AcDbEntity
  8
0
  6
Continuous
 62
     7
100
AcDbLine
 10
80.2816264202479
 20
40.0835233108975
 30
0.0
 11
80.2816264202479
 21
38.1851269251872
 31
0.0
  0
LINE
  5
3D6
330
53
100
AcDbEntity
  8
0
  6
Continuous
 62
     7
100
AcDbLine
 10
80.4193102190369
 20
38.0474431263991
 30
0.0
 11
83.49853365141291
 21
38.0474431263991
 31
0.0
  0
LINE
  5
3D7
330
53
100
AcDbEntity
  8
0
  6
Continuous
 62
     7
100
AcDbLine
 10
83.49853365141291
 20
38.0474431263991
 30
0.0
 11
83.49853365141291
 21
38.4635841258695
 31
0.0
  0
LINE
  5
3D8
330
53
100
AcDbEntity
  8
0
  6
Continuous
 62
     7
100
AcDbLine
 10
83.49853365141291
 20
38.4635841258695
 30
0.0
 11
81.1839248291939
 21
38.4635841258695
 31
0.0
  0
LINE
  5
3D9
330
53
100
AcDbEntity
  8
0
  6
Continuous
 62
     7
100
AcDbLine
 10
81.1839248291939
 20
38.9789500913775
 30
0.0
 11
83.49853365141291
 21
38.9789500913775
 31
0.0
  0
LINE
  5
3DA
330
53
100
AcDbEntity
  8
0
  6
Continuous
 62
     7
100
AcDbLine
 10
83.49853365141291
 20
38.9789500913775
 30
0.0
 11
83.49853365141291
 21
39.3219718516277
 31
0.0
  0
LINE
  5
3DB
330
53
100
AcDbEntity
  8
0
  6
Continuous
 62
     7
100
AcDbLine
 10
83.49853365141291
 20
39.3219718516277
 30
0.0
 11
81.1839248291939
 21
39.3219718516277
 31
0.0
  0
LINE
  5
3DC
330
53
100
AcDbEntity
  8
0
  6
Continuous
 62
     7
100
AcDbLine
 10
81.1262193139089
 20
39.3783150776447
 30
0.0
 11
81.1262193139089
 21
39.776365452831
 31
0.0
  0
LINE
  5
3DD
330
53
100
AcDbEntity
  8
0
  6
Continuous
 62
     7
100
AcDbLine
 10
73.71371243477589
 20
38.5199273518864
 30
0.0
 11
73.71371243477589
 21
38.9226068653605
 31
0.0
  0
LINE
  5
3DE
330
53
100
AcDbEntity
  8
0
  6
Continuous
 62
     7
100
AcDbLine
 10
69.7742628474349
 20
38.0428007620019
 30
0.0
 11
71.75130167960089
 21
38.0428007620019
 31
0.0
  0
LINE
  5
3DF
330
53
100
AcDbEntity
  8
0
  6
Continuous
 62
     7
100
AcDbLine
 10
69.1658618153269
 20
39.751733130648
 30
0.0
 11
69.1658618153269
 21
38.5122747410395
 31
0.0
  0
LINE
  5
3E0
330
53
100
AcDbEntity
  8
0
  6
Continuous
 62
     7
100
AcDbLine
 10
70.0099917951589
 20
39.6434774252609
 30
0.0
 11
70.0099917951589
 21
38.6601440141217
 31
0.0
  0
LINE
  5
3E1
330
53
100
AcDbEntity
  8
0
  6
Continuous
 62
     7
100
AcDbLine
 10
70.1521989233589
 20
38.5221560148176
 30
0.0
 11
71.4305420745859
 21
38.5221560148176
 31
0.0
  0
LINE
  5
3E2
330
53
100
AcDbEntity
  8
0
  6
Continuous
 62
     7
100
AcDbLine
 10
70.1521989233589
 20
39.781465424565
 30
0.0
 11
71.4275265216439
 21
39.781465424565
 31
0.0
  0
LINE
  5
3E3
330
53
100
AcDbEntity
  8
0
  6
Continuous
 62
     7
100
AcDbLine
 10
84.18954496279491
 20
37.6827860643064
 30
0.0
 11
68.47486373005489
 21
37.6827860643064
 31
0.0
  0
LINE
  5
3E4
330
53
100
AcDbEntity
  8
0
  6
Continuous
 62
     7
100
AcDbLine
 10
68.0891374756979
 20
41.005819597246
 30
0.0
 11
84.57527121715191
 21
41.005819597246
 31
0.0
  0
LINE
  5
3E5
330
53
100
AcDbEntity
  8
0
  6
Continuous
 62
     7
100
AcDbLine
 10
85.18450549415189
 20
40.5350362333785
 30
0.0
 11
85.18450549415189
 21
37.728971638309
 31
0.0
  0
LINE
  5
3E6
330
53
100
AcDbEntity
  8
0
  6
Continuous
 62
     7
100
AcDbLine
 10
84.57527121715191
 20
37.2581882744415
 30
0.0
 11
68.0891374756979
 21
37.2581882744415
 31
0.0
  0
LINE
  5
3E7
330
53
100
AcDbEntity
  8
0
  6
Continuous
 62
     7
100
AcDbLine
 10
67.47990319869692
 20
37.728971638309
 30
0.0
 11
67.47990319869692
 21
40.5350362333785
 31
0.0
  0
LINE
  5
3E8
330
53
100
AcDbEntity
  8
0
  6
Continuous
 62
     7
100
AcDbLine
 10
84.3260648639559
 20
37.8193059654678
 30
0.0
 11
84.3260648639559
 21
40.4447019062197
 31
0.0
  0
LINE
  5
3E9
330
53
100
AcDbEntity
  8
0
  6
Continuous
 62
     7
100
AcDbLine
 10
84.18954496279491
 20
40.5812218073812
 30
0.0
 11
68.47486373005489
 21
40.5812218073812
 31
0.0
  0
LINE
  5
3EA
330
53
100
AcDbEntity
  8
0
  6
Continuous
 62
     7
100
AcDbLine
 10
68.3383438288929
 20
40.4447019062197
 30
0.0
 11
68.3383438288929
 21
37.8193059654678
 31
0.0
  0
LINE
  5
3EB
330
53
100
AcDbEntity
  8
0
  6
Continuous
 62
     7
100
AcDbLine
 10
70.75356366527089
 20
38.9289500913775
 30
0.0
 11
71.5072006046309
 21
38.9289500913775
 31
0.0
  0
LINE
  5
3EC
330
53
100
AcDbEntity
  8
0
  6
Continuous
 62
     7
100
AcDbLine
 10
71.56583194757289
 20
39.6440593740742
 30
0.0
 11
71.56583194757289
 21
39.5640149600237
 31
0.0
  0
LINE
  5
3ED
330
53
100
AcDbEntity
  8
0
  6
Continuous
 62
     7
100
AcDbLine
 10
71.56583194757289
 20
39.5640149600237
 30
0.0
 11
72.3597027117089
 21
39.5640149600237
 31
0.0
  0
LINE
  5
3EE
330
53
100
AcDbEntity
  8
0
  6
Continuous
 62
     7
100
AcDbLine
 10
72.3597027117089
 20
39.5640149600237
 30
0.0
 11
72.3597027117089
 21
39.751733130648
 31
0.0
  0
LINE
  5
3EF
330
53
100
AcDbEntity
  8
0
  6
Continuous
 62
     7
100
AcDbLine
 10
71.75130167960089
 20
40.2212071096856
 30
0.0
 11
69.7742628474349
 21
40.2212071096856
 31
0.0
  0
LINE
  5
3F0
330
53
100
AcDbEntity
  8
0
  6
Continuous
 62
     7
100
AcDbLine
 10
72.3597027117089
 20
38.5122747410395
 30
0.0
 11
72.3597027117089
 21
39.2719718516277
 31
0.0
  0
LINE
  5
3F1
330
53
100
AcDbEntity
  8
0
  6
Continuous
 62
     7
100
AcDbLine
 10
72.3597027117089
 20
39.2719718516277
 30
0.0
 11
70.75356366527089
 21
39.2719718516277
 31
0.0
  0
LINE
  5
3F2
330
53
100
AcDbEntity
  8
0
  6
Continuous
 62
     7
100
AcDbLine
 10
70.75356366527089
 20
39.2719718516277
 30
0.0
 11
70.75356366527089
 21
38.9289500913775
 31
0.0
  0
LINE
  5
3F3
330
53
100
AcDbEntity
  8
0
  6
Continuous
 62
     7
100
AcDbLine
 10
73.77141795006091
 20
39.832708678848
 30
0.0
 11
76.08602677228089
 21
39.832708678848
 31
0.0
  0
LINE
  5
3F4
330
53
100
AcDbEntity
  8
0
  6
Continuous
 62
     7
100
AcDbLine
 10
76.08602677228089
 20
39.832708678848
 30
0.0
 11
76.08602677228089
 21
40.2212071096856
 31
0.0
  0
LINE
  5
3F5
330
53
100
AcDbEntity
  8
0
  6
Continuous
 62
     7
100
AcDbLine
 10
76.08602677228089
 20
40.2212071096856
 30
0.0
 11
73.00680333990391
 21
40.2212071096856
 31
0.0
  0
LINE
  5
3F6
330
53
100
AcDbEntity
  8
0
  6
Continuous
 62
     7
100
AcDbLine
 10
72.86911954111591
 20
40.0835233108975
 30
0.0
 11
72.86911954111591
 21
38.1851269251872
 31
0.0
  0
LINE
  5
3F7
330
53
100
AcDbEntity
  8
0
  6
Continuous
 62
     7
100
AcDbLine
 10
73.00680333990391
 20
38.0474431263991
 30
0.0
 11
76.08602677228089
 21
38.0474431263991
 31
0.0
  0
LINE
  5
3F8
330
53
100
AcDbEntity
  8
0
  6
Continuous
 62
     7
100
AcDbLine
 10
76.08602677228089
 20
38.0474431263991
 30
0.0
 11
76.08602677228089
 21
38.4635841258695
 31
0.0
  0
LINE
  5
3F9
330
53
100
AcDbEntity
  8
0
  6
Continuous
 62
     7
100
AcDbLine
 10
76.08602677228089
 20
38.4635841258695
 30
0.0
 11
73.77141795006091
 21
38.4635841258695
 31
0.0
  0
LINE
  5
3FA
330
53
100
AcDbEntity
  8
0
  6
Continuous
 62
     7
100
AcDbLine
 10
73.77141795006091
 20
38.9789500913775
 30
0.0
 11
76.08602677228089
 21
38.9789500913775
 31
0.0
  0
LINE
  5
3FB
330
53
100
AcDbEntity
  8
0
  6
Continuous
 62
     7
100
AcDbLine
 10
76.08602677228089
 20
38.9789500913775
 30
0.0
 11
76.08602677228089
 21
39.3219718516277
 31
0.0
  0
LINE
  5
3FC
330
53
100
AcDbEntity
  8
0
  6
Continuous
 62
     7
100
AcDbLine
 10
76.08602677228089
 20
39.3219718516277
 30
0.0
 11
73.77141795006091
 21
39.3219718516277
 31
0.0
  0
LINE
  5
3FD
330
53
100
AcDbEntity
  8
0
  6
Continuous
 62
     7
100
AcDbLine
 10
73.71371243477589
 20
39.3783150776447
 30
0.0
 11
73.71371243477589
 21
39.776365452831
 31
0.0
  0
LINE
  5
3FE
330
53
100
AcDbEntity
  8
0
  6
Continuous
 62
     7
100
AcDbLine
 10
76.6075851701099
 20
40.1635148205104
 30
0.0
 11
76.6075851701099
 21
39.8904009680231
 31
0.0
  0
LINE
  5
3FF
330
53
100
AcDbEntity
  8
0
  6
Continuous
 62
     7
100
AcDbLine
 10
76.6652774592859
 20
39.832708678848
 30
0.0
 11
78.54604344117391
 21
39.832708678848
 31
0.0
  0
LINE
  5
400
330
53
100
AcDbEntity
  8
0
  6
Continuous
 62
     7
100
AcDbLine
 10
78.54604344117391
 20
39.832708678848
 30
0.0
 11
76.6075851701099
 21
38.5135841258695
 31
0.0
  0
LINE
  5
401
330
53
100
AcDbEntity
  8
0
  6
Continuous
 62
     7
100
AcDbLine
 10
76.6075851701099
 20
38.5135841258695
 30
0.0
 11
76.6075851701099
 21
38.10435507512
 31
0.0
  0
LINE
  5
402
330
53
100
AcDbEntity
  8
0
  6
Continuous
 62
     7
100
AcDbLine
 10
76.6652774592859
 20
38.0468082731482
 30
0.0
 11
79.7441702389269
 21
38.0468082731482
 31
0.0
  0
LINE
  5
403
330
53
100
AcDbEntity
  8
0
  6
Continuous
 62
     7
100
AcDbLine
 10
79.8018625281029
 20
38.10435507512
 30
0.0
 11
79.8018625281029
 21
38.4060373238976
 31
0.0
  0
LINE
  5
404
330
53
100
AcDbEntity
  8
0
  6
Continuous
 62
     7
100
AcDbLine
 10
79.7441702389269
 20
38.4635841258695
 30
0.0
 11
77.89988186674589
 21
38.4635841258695
 31
0.0
  0
LINE
  5
405
330
53
100
AcDbEntity
  8
0
  6
Continuous
 62
     7
100
AcDbLine
 10
77.89988186674589
 20
38.4635841258695
 30
0.0
 11
79.8018625281029
 21
39.78299998112
 31
0.0
  0
LINE
  5
406
330
53
100
AcDbEntity
  8
0
  6
Continuous
 62
     7
100
AcDbLine
 10
79.6667313684269
 20
40.2212071096856
 30
0.0
 11
76.6652774592859
 21
40.2212071096856
 31
0.0
  0
LINE
  5
407
330
53
100
AcDbEntity
  8
0
  6
Continuous
 62
     7
100
AcDbLine
 10
71.56666519246491
 20
38.8708321903435
 30
0.0
 11
71.56666519246491
 21
38.7590991514796
 31
0.0
  0
LINE
  5
408
330
53
100
AcDbEntity
  8
0
  6
Continuous
 62
     1
100
AcDbLine
 10
106.5066684218749
 20
26.0
 30
0.0
 11
65.5066684218749
 21
26.0
 31
0.0
  0
LINE
  5
409
330
53
100
AcDbEntity
  8
0
  6
Continuous
 62
     1
100
AcDbLine
 10
115.5066684218749
 20
13.0
 30
0.0
 11
100.5066684218749
 21
13.0
 31
0.0
  0
LINE
  5
40A
330
53
100
AcDbEntity
  8
0
  6
Continuous
 62
     1
100
AcDbLine
 10
115.5066684218749
 20
26.0
 30
0.0
 11
115.5066684218749
 21
5.5
 31
0.0
  0
LINE
  5
40B
330
53
100
AcDbEntity
  8
0
  6
Continuous
 62
     1
100
AcDbLine
 10
115.5066684218749
 20
26.0
 30
0.0
 11
197.5066684218749
 21
26.0
 31
0.0
  0
LINE
  5
40C
330
53
100
AcDbEntity
  8
0
  6
Continuous
 62
     1
100
AcDbLine
 10
115.5066684218749
 20
19.83333329
 30
0.0
 11
142.5066684218749
 21
19.83333329
 31
0.0
  0
LINE
  5
40D
330
53
100
AcDbEntity
  8
0
  6
Continuous
 62
     1
100
AcDbLine
 10
83.5066684218749
 20
13.0
 30
0.0
 11
65.5066684218749
 21
13.0
 31
0.0
  0
LINE
  5
40E
330
53
100
AcDbEntity
  8
0
  6
Continuous
 62
     1
100
AcDbLine
 10
100.5066684218749
 20
13.0
 30
0.0
 11
83.5066684218749
 21
13.0
 31
0.0
  0
LINE
  5
40F
330
53
100
AcDbEntity
  8
0
  6
Continuous
 62
     1
100
AcDbLine
 10
65.5066684218749
 20
5.86666666525001
 30
0.0
 11
65.5066684218749
 21
0.0
 31
0.0
  0
LINE
  5
410
330
53
100
AcDbEntity
  8
0
  6
Continuous
 62
     3
100
AcDbLine
 10
24.0066684218749
 20
0.0
 30
0.0
 11
24.0066684218749
 21
43.0
 31
0.0
  0
LINE
  5
411
330
53
100
AcDbEntity
  8
0
  6
Continuous
 62
     1
100
AcDbLine
 10
18.5066684218749
 20
0.0
 30
0.0
 11
18.5066684218749
 21
43.0
 31
0.0
  0
LINE
  5
412
330
53
100
AcDbEntity
  8
0
  6
Continuous
 62
     2
100
AcDbLine
 10
14.5066684218749
 20
287.0
 30
0.0
 11
14.5066684218749
 21
0.0
 31
0.0
  0
LINE
  5
413
330
53
100
AcDbEntity
  8
0
  6
Continuous
 62
     2
100
AcDbLine
 10
197.5066684218749
 20
287.0
 30
0.0
 11
197.5066684218749
 21
42.99999999999999
 31
0.0
  0
LINE
  5
414
330
53
100
AcDbEntity
  8
0
  6
Continuous
 62
     2
100
AcDbLine
 10
197.5066684218749
 20
287.0
 30
0.0
 11
14.5066684218749
 21
287.0
 31
0.0
  0
LINE
  5
415
330
53
100
AcDbEntity
  8
1
  6
Continuous
 62
     1
100
AcDbLine
 10
14.5066684218749
 20
0.0
 30
0.0
 11
14.5066684218749
 21
42.99999999999999
 31
0.0
  0
LINE
  5
416
330
53
100
AcDbEntity
  8
0
  6
Continuous
 62
     3
100
AcDbLine
 10
19.5066684218749
 20
89.99999999999997
 30
0.0
 11
14.5066684218749
 21
90.0
 31
0.0
  0
LINE
  5
417
330
53
100
AcDbEntity
  8
0
  6
Continuous
 62
     3
100
AcDbLine
 10
19.5066684218749
 20
282.0
 30
0.0
 11
19.5066684218749
 21
43.0
 31
0.0
  0
LINE
  5
418
330
53
100
AcDbEntity
  8
0
  6
Continuous
 62
     3
100
AcDbLine
 10
197.5066684218749
 20
282.0
 30
0.0
 11
19.5066684218749
 21
282.0
 31
0.0
  0
LINE
  5
419
330
53
100
AcDbEntity
  8
0
  6
Continuous
 62
     3
100
AcDbLine
 10
60.40667742187491
 20
282.0
 30
0.0
 11
60.40667742187491
 21
287.0
 31
0.0
  0
LINE
  5
41A
330
53
100
AcDbEntity
  8
0
  6
Continuous
 62
     3
100
AcDbLine
 10
106.1066744218749
 20
287.0
 30
0.0
 11
106.1066744218749
 21
282.0
 31
0.0
  0
LINE
  5
41B
330
53
100
AcDbEntity
  8
0
  6
Continuous
 62
     3
100
AcDbLine
 10
151.8066564218749
 20
282.0
 30
0.0
 11
151.8066564218749
 21
287.0
 31
0.0
  0
LINE
  5
41C
330
53
100
AcDbEntity
  8
0
  6
Continuous
 62
     3
100
AcDbLine
 10
19.5066684218749
 20
237.899994
 30
0.0
 11
14.5066684218749
 21
237.899994
 31
0.0
  0
LINE
  5
41D
330
53
100
AcDbEntity
  8
0
  6
Continuous
 62
     3
100
AcDbLine
 10
14.5066684218749
 20
188.599976
 30
0.0
 11
19.5066684218749
 21
188.599976
 31
0.0
  0
LINE
  5
41E
330
53
100
AcDbEntity
  8
0
  6
Continuous
 62
     3
100
AcDbLine
 10
19.5066684218749
 20
139.299988
 30
0.0
 11
14.5066684218749
 21
139.299988
 31
0.0
  0
ARC
  5
41F
330
53
100
AcDbEntity
  8
0
  6
Continuous
 62
     7
100
AcDbCircle
 10
79.7442429825289
 20
38.4059645802959
 30
0.0
 40
0.0576195914927011
100
AcDbArc
 50
0.07233481465449
 51
90.07233481495881
  0
ARC
  5
420
330
53
100
AcDbEntity
  8
0
  6
Continuous
 62
     7
100
AcDbCircle
 10
79.7442429825289
 20
38.1044278187217
 30
0.0
 40
0.0576195914922041
100
AcDbArc
 50
269.9276651850411
 51
359.9276651853385
  0
ARC
  5
421
330
53
100
AcDbEntity
  8
0
  6
Continuous
 62
     7
100
AcDbCircle
 10
76.6652047156839
 20
38.1044278187217
 30
0.0
 40
0.0576195914927011
100
AcDbArc
 50
180.0723348146616
 51
270.0723348149589
  0
ARC
  5
422
330
53
100
AcDbEntity
  8
0
  6
Continuous
 62
     7
100
AcDbCircle
 10
76.6652774592859
 20
39.8904009680231
 30
0.0
 40
0.0576922891760034
100
AcDbArc
 50
180.0
 51
270.0
  0
ARC
  5
423
330
53
100
AcDbEntity
  8
0
  6
Continuous
 62
     7
100
AcDbCircle
 10
76.6652774592859
 20
40.1635148205104
 30
0.0
 40
0.0576922891752005
100
AcDbArc
 50
90.0
 51
180.0
  0
ARC
  5
424
330
53
100
AcDbEntity
  8
0
  6
Continuous
 62
     7
100
AcDbCircle
 10
81.18311831671991
 20
38.5204800974864
 30
0.0
 40
0.0569016875723858
100
AcDbArc
 50
180.5565825808357
 51
270.8121254434355
  0
ARC
  5
425
330
53
100
AcDbEntity
  8
0
  6
Continuous
 62
     7
100
AcDbCircle
 10
81.18311831671991
 20
38.9220541197606
 30
0.0
 40
0.0569016875725259
100
AcDbArc
 50
89.18787455656445
 51
179.4434174192644
  0
ARC
  5
426
330
53
100
AcDbEntity
  8
0
  6
Continuous
 62
     7
100
AcDbCircle
 10
81.18311831671991
 20
39.7758127072311
 30
0.0
 40
0.056901687572533
100
AcDbArc
 50
89.18787455656455
 51
179.4434174192573
  0
ARC
  5
427
330
53
100
AcDbEntity
  8
0
  6
Continuous
 62
     7
100
AcDbCircle
 10
81.18311831671991
 20
39.3788678232447
 30
0.0
 40
0.0569016875723858
100
AcDbArc
 50
180.5565825808357
 51
270.8121254434341
  0
ARC
  5
428
330
53
100
AcDbEntity
  8
0
  6
Continuous
 62
     7
100
AcDbCircle
 10
73.7706114375869
 20
38.5204800974864
 30
0.0
 40
0.0569016875723858
100
AcDbArc
 50
180.5565825808357
 51
270.8121254434642
  0
ARC
  5
429
330
53
100
AcDbEntity
  8
0
  6
Continuous
 62
     7
100
AcDbCircle
 10
73.7706114375869
 20
38.9220541197606
 30
0.0
 40
0.0569016875725263
100
AcDbArc
 50
89.18787455653583
 51
179.4434174192644
  0
ARC
  5
42A
330
53
100
AcDbEntity
  8
0
  6
Continuous
 62
     7
100
AcDbCircle
 10
73.7706114375869
 20
39.7758127072311
 30
0.0
 40
0.0569016875725334
100
AcDbArc
 50
89.18787455653593
 51
179.4434174192573
  0
ARC
  5
42B
330
53
100
AcDbEntity
  8
0
  6
Continuous
 62
     7
100
AcDbCircle
 10
73.7706114375869
 20
39.3788678232447
 30
0.0
 40
0.0569016875723858
100
AcDbArc
 50
180.5565825808357
 51
270.8121254434627
  0
ARC
  5
42C
330
53
100
AcDbEntity
  8
0
  6
Continuous
 62
     7
100
AcDbCircle
 10
71.5072006046309
 20
38.869469901076
 30
0.0
 40
0.0594801903016254
100
AcDbArc
 50
1.31237392905096
 51
90.0
  0
ARC
  5
42D
330
53
100
AcDbEntity
  8
0
  6
Continuous
 62
     7
100
AcDbCircle
 10
84.18954496279491
 20
37.8193059654678
 30
0.0
 40
0.1365199011613996
100
AcDbArc
 50
270.0
 51
0.0
  0
ARC
  5
42E
330
53
100
AcDbEntity
  8
0
  6
Continuous
 62
     7
100
AcDbCircle
 10
84.18954496279491
 20
40.4447019062197
 30
0.0
 40
0.1365199011609946
100
AcDbArc
 50
0.0
 51
90.0
  0
ARC
  5
42F
330
53
100
AcDbEntity
  8
0
  6
Continuous
 62
     7
100
AcDbCircle
 10
68.47486373005489
 20
37.8193059654678
 30
0.0
 40
0.1365199011619893
100
AcDbArc
 50
180.0
 51
270.0
  0
ARC
  5
430
330
53
100
AcDbEntity
  8
0
  6
Continuous
 62
     7
100
AcDbCircle
 10
68.47486373005489
 20
40.4447019062197
 30
0.0
 40
0.136519901161499
100
AcDbArc
 50
90.0
 51
180.0
  0
CIRCLE
  5
431
330
53
100
AcDbEntity
  8
1
  6
Continuous
 62
     4
100
AcDbCircle
 10
134.441221630286
 20
2.75
 30
0.0
 40
2.0
  0
CIRCLE
  5
432
330
53
100
AcDbEntity
  8
1
  6
Continuous
 62
     4
100
AcDbCircle
 10
134.441221630286
 20
2.75
 30
0.0
 40
1.0
  0
SPLINE
  5
433
330
53
100
AcDbEntity
  8
0
  6
Continuous
 62
     7
100
AcDbSpline
210
0.0
220
0.0
230
1.0
 70
     8
 71
     3
 72
    13
 73
     9
 74
     7
 42
0.0000000001
 43
0.0000000001
 44
0.00000001
 40
0.0
 40
0.0
 40
0.0
 40
0.0
 40
0.0353323702701624
 40
0.0704203827951201
 40
0.1027084056751373
 40
0.1352293371689407
 40
0.1740111215768533
 40
0.2125287438774726
 40
0.2125287438774726
 40
0.2125287438774726
 40
0.2125287438774726
 10
79.8018625281029
 20
40.0820155344267
 30
0.0
 10
79.80097633395614
 20
40.09383743982976
 30
0.0
 10
79.79921007455808
 20
40.11739949064847
 30
0.0
 10
79.78475394188328
 20
40.14916597405491
 30
0.0
 10
79.76406621550059
 20
40.17553738297964
 30
0.0
 10
79.73780865784373
 20
40.19804631842177
 30
0.0
 10
79.70551522853428
 20
40.21701449832517
 30
0.0
 10
79.67962983498018
 20
40.21981276014809
 30
0.0
 10
79.6667313684269
 20
40.2212071096856
 30
0.0
 11
79.8018625281029
 21
40.0820155344267
 31
0.0
 11
79.79715344956283
 21
40.11703268691247
 31
0.0
 11
79.7831475833106
 21
40.14920417014648
 31
0.0
 11
79.76336832639187
 21
40.1747246994757
 31
0.0
 11
79.73879366734859
 21
40.19602486656732
 31
0.0
 11
79.70464340753496
 21
40.21440383706415
 31
0.0
 11
79.6667313684269
 21
40.2212071096856
 31
0.0
  0
SPLINE
  5
434
330
53
100
AcDbEntity
  8
0
  6
Continuous
 62
     7
100
AcDbSpline
210
0.0
220
0.0
230
1.0
 70
     8
 71
     3
 72
    13
 73
     9
 74
     7
 42
0.0000000001
 43
0.0000000001
 44
0.00000001
 40
0.0
 40
0.0
 40
0.0
 40
0.0
 40
0.0381152522468523
 40
0.0763355512011999
 40
0.1127548768764093
 40
0.1486421571417997
 40
0.1827729054950693
 40
0.2174479487769913
 40
0.2174479487769913
 40
0.2174479487769913
 40
0.2174479487769913
 10
80.4193102190369
 20
38.0474431263991
 30
0.0
 10
80.40655830059626
 20
38.04841129957154
 30
0.0
 10
80.38101931906907
 20
38.05035031422895
 30
0.0
 10
80.34614398541137
 20
38.06611135173434
 30
0.0
 10
80.31659408668189
 20
38.08846998229504
 30
0.0
 10
80.29429036537546
 20
38.1168283974299
 30
0.0
 10
80.2829917401134
 20
38.15055870292196
 30
0.0
 10
80.28208392066784
 20
38.17354357640396
 30
0.0
 10
80.2816264202479
 20
38.1851269251872
 30
0.0
 11
80.4193102190369
 21
38.0474431263991
 31
0.0
 11
80.38153519442662
 21
38.0525244618076
 31
0.0
 11
80.34640790405862
 21
38.06758649100563
 31
0.0
 11
80.3175122320027
 21
38.08975420218819
 31
0.0
 11
80.29579158340884
 21
38.11832184663972
 31
0.0
 11
80.28465425318778
 21
38.15058433040494
 31
0.0
 11
80.2816264202479
 21
38.1851269251872
 31
0.0
  0
SPLINE
  5
435
330
53
100
AcDbEntity
  8
0
  6
Continuous
 62
     7
100
AcDbSpline
210
0.0
220
0.0
230
1.0
 70
     8
 71
     3
 72
    13
 73
     9
 74
     7
 42
0.0000000001
 43
0.0000000001
 44
0.00000001
 40
0.0
 40
0.0
 40
0.0
 40
0.0
 40
0.0381152522468551
 40
0.0763355512012195
 40
0.1127548768764506
 40
0.1486421571418127
 40
0.1827729054950488
 40
0.2174479487769495
 40
0.2174479487769495
 40
0.2174479487769495
 40
0.2174479487769495
 10
80.4193102190369
 20
40.2212071096856
 30
0.0
 10
80.40655830059629
 20
40.22023893651315
 30
0.0
 10
80.38101931906907
 20
40.21829992185572
 30
0.0
 10
80.34614398541137
 20
40.2025388843503
 30
0.0
 10
80.3165940866819
 20
40.18018025378958
 30
0.0
 10
80.29429036537545
 20
40.15182183865473
 30
0.0
 10
80.28299174011339
 20
40.11809153316273
 30
0.0
 10
80.28208392066786
 20
40.09510665968075
 30
0.0
 10
80.2816264202479
 20
40.0835233108975
 30
0.0
 11
80.4193102190369
 21
40.2212071096856
 31
0.0
 11
80.38153519442662
 21
40.21612577427708
 31
0.0
 11
80.34640790405862
 21
40.20106374507901
 31
0.0
 11
80.3175122320027
 21
40.17889603389641
 31
0.0
 11
80.29579158340884
 21
40.15032838944492
 31
0.0
 11
80.28465425318778
 21
40.11806590567974
 31
0.0
 11
80.2816264202479
 21
40.0835233108975
 31
0.0
  0
SPLINE
  5
436
330
53
100
AcDbEntity
  8
0
  6
Continuous
 62
     7
100
AcDbSpline
210
0.0
220
0.0
230
1.0
 70
     8
 71
     3
 72
    13
 73
     9
 74
     7
 42
0.0000000001
 43
0.0000000001
 44
0.00000001
 40
0.0
 40
0.0
 40
0.0
 40
0.0
 40
0.0381152522468664
 40
0.0763355512012009
 40
0.1127548768763765
 40
0.1486421571416378
 40
0.1827729054947545
 40
0.2174479487766529
 40
0.2174479487766529
 40
0.2174479487766529
 40
0.2174479487766529
 10
73.00680333990391
 20
38.0474431263991
 30
0.0
 10
72.99405142146328
 20
38.04841129957155
 30
0.0
 10
72.96851243993608
 20
38.05035031422894
 30
0.0
 10
72.93363710627838
 20
38.06611135173433
 30
0.0
 10
72.90408720754897
 20
38.088469982295
 30
0.0
 10
72.88178348624265
 20
38.11682839742988
 30
0.0
 10
72.87048486098118
 20
38.15055870292203
 30
0.0
 10
72.86957704153578
 20
38.17354357640397
 30
0.0
 10
72.86911954111591
 20
38.1851269251872
 30
0.0
 11
73.00680333990391
 21
38.0474431263991
 31
0.0
 11
72.96902831529361
 21
38.0525244618076
 31
0.0
 11
72.93390102492563
 21
38.06758649100563
 31
0.0
 11
72.90500535286975
 21
38.08975420218819
 31
0.0
 11
72.88328470427611
 21
38.11832184663972
 31
0.0
 11
72.87214737405552
 21
38.15058433040494
 31
0.0
 11
72.86911954111591
 21
38.1851269251872
 31
0.0
  0
SPLINE
  5
437
330
53
100
AcDbEntity
  8
0
  6
Continuous
 62
     7
100
AcDbSpline
210
0.0
220
0.0
230
1.0
 70
     8
 71
     3
 72
    13
 73
     9
 74
     7
 42
0.0000000001
 43
0.0000000001
 44
0.00000001
 40
0.0
 40
0.0
 40
0.0
 40
0.0
 40
0.0381152522468692
 40
0.0763355512012206
 40
0.1127548768764178
 40
0.1486421571416508
 40
0.1827729054947339
 40
0.2174479487766111
 40
0.2174479487766111
 40
0.2174479487766111
 40
0.2174479487766111
 10
73.00680333990391
 20
40.2212071096856
 30
0.0
 10
72.99405142146328
 20
40.22023893651315
 30
0.0
 10
72.96851243993609
 20
40.21829992185575
 30
0.0
 10
72.93363710627838
 20
40.2025388843503
 30
0.0
 10
72.90408720754898
 20
40.18018025378962
 30
0.0
 10
72.88178348624263
 20
40.15182183865477
 30
0.0
 10
72.87048486098118
 20
40.11809153316263
 30
0.0
 10
72.86957704153578
 20
40.09510665968073
 30
0.0
 10
72.86911954111591
 20
40.0835233108975
 30
0.0
 11
73.00680333990391
 21
40.2212071096856
 31
0.0
 11
72.96902831529361
 21
40.21612577427708
 31
0.0
 11
72.93390102492563
 21
40.20106374507901
 31
0.0
 11
72.90500535286975
 21
40.17889603389641
 31
0.0
 11
72.88328470427611
 21
40.15032838944492
 31
0.0
 11
72.87214737405552
 21
40.11806590567974
 31
0.0
 11
72.86911954111591
 21
40.0835233108975
 31
0.0
  0
SPLINE
  5
438
330
53
100
AcDbEntity
  8
0
  6
Continuous
 62
     7
100
AcDbSpline
210
0.0
220
0.0
230
1.0
 70
     8
 71
     3
 72
    13
 73
     9
 74
     7
 42
0.0000000001
 43
0.0000000001
 44
0.00000001
 40
0.0
 40
0.0
 40
0.0
 40
0.0
 40
0.0303249383642044
 40
0.060441785117422
 40
0.0959479298118383
 40
0.1315593707300932
 40
0.1736623627999717
 40
0.2160932553481884
 40
0.2160932553481884
 40
0.2160932553481884
 40
0.2160932553481884
 10
71.56583194757289
 20
39.6440593740742
 30
0.0
 10
71.56515876844172
 20
39.65419856280421
 30
0.0
 10
71.56381702957638
 20
39.67440736452128
 30
0.0
 10
71.55211566862403
 20
39.70459807825534
 30
0.0
 10
71.53408971639844
 20
39.73335261119022
 30
0.0
 10
71.50698482402723
 20
39.76018605254315
 30
0.0
 10
71.47002432670459
 20
39.77835949631016
 30
0.0
 10
71.44172904174681
 20
39.78042744134647
 30
0.0
 10
71.4275265216439
 20
39.781465424565
 30
0.0
 11
71.56583194757289
 21
39.6440593740742
 31
0.0
 11
71.56229464840196
 21
39.67417729899223
 31
0.0
 11
71.55199743714748
 21
39.70247909926602
 31
0.0
 11
71.53302114843116
 21
39.73248887729945
 31
0.0
 11
71.50742544849075
 21
39.75724841826521
 31
0.0
 11
71.46955713404556
 21
39.77565093717747
 31
0.0
 11
71.4275265216439
 21
39.781465424565
 31
0.0
  0
SPLINE
  5
439
330
53
100
AcDbEntity
  8
0
  6
Continuous
 62
     7
100
AcDbSpline
210
0.0
220
0.0
230
1.0
 70
     8
 71
     3
 72
    14
 73
    10
 74
     8
 42
0.0000000001
 43
0.0000000001
 44
0.00000001
 40
0.0
 40
0.0
 40
0.0
 40
0.0
 40
0.0375510748548248
 40
0.075404233490093
 40
0.1094159352404561
 40
0.1434580761254709
 40
0.170966969709373
 40
0.2205583987493849
 40
0.3151356117044947
 40
0.3151356117044947
 40
0.3151356117044947
 40
0.3151356117044947
 10
71.4305420745859
 20
38.5221560148176
 30
0.0
 10
71.44309291428925
 20
38.52289797125056
 30
0.0
 10
71.46829556031592
 20
38.52438785286718
 30
0.0
 10
71.50286416469375
 20
38.53836321983192
 30
0.0
 10
71.53036013146837
 20
38.56098878700328
 30
0.0
 10
71.54993865171532
 20
38.58672285872549
 30
0.0
 10
71.56228282115396
 20
38.62213394377407
 30
0.0
 10
71.56544295466288
 20
38.67966584148242
 30
0.0
 10
71.56618101298079
 20
38.72763229699997
 30
0.0
 10
71.56666519246491
 20
38.7590991514796
 30
0.0
 11
71.4305420745859
 21
38.5221560148176
 31
0.0
 11
71.46785244767516
 21
38.52640092738363
 31
0.0
 11
71.50295502351557
 21
38.54056675909359
 31
0.0
 11
71.52942161569713
 21
38.56192829822939
 31
0.0
 11
71.54951092858136
 21
38.58941078108438
 31
0.0
 11
71.55892075252942
 21
38.61526023832195
 31
0.0
 11
71.56438821061022
 21
38.6645493520933
 31
0.0
 11
71.56666519246491
 21
38.7590991514796
 31
0.0
  0
SPLINE
  5
43A
330
53
100
AcDbEntity
  8
0
  6
Continuous
 62
     7
100
AcDbSpline
210
0.0
220
0.0
230
1.0
 70
     8
 71
     3
 72
    13
 73
     9
 74
     7
 42
0.0000000001
 43
0.0000000001
 44
0.00000001
 40
0.0
 40
0.0
 40
0.0
 40
0.0
 40
0.0328394650074361
 40
0.0655975995952015
 40
0.1022664447831333
 40
0.1389211607506086
 40
0.1782532813533559
 40
0.2177267691612878
 40
0.2177267691612878
 40
0.2177267691612878
 40
0.2177267691612878
 10
70.1521989233589
 20
38.5221560148176
 30
0.0
 10
70.14121603172255
 20
38.52301616963013
 30
0.0
 10
70.11927744874635
 20
38.52473434899051
 30
0.0
 10
70.08756437969515
 20
38.53849261690337
 30
0.0
 10
70.05804487770862
 20
38.55826515619037
 30
0.0
 10
70.03193540549626
 20
38.58566154205485
 30
0.0
 10
70.01346450762219
 20
38.62053714054219
 30
0.0
 10
70.01115074950893
 20
38.64692594354681
 30
0.0
 10
70.0099917951589
 20
38.6601440141217
 30
0.0
 11
70.1521989233589
 21
38.5221560148176
 31
0.0
 11
70.11965039145655
 21
38.52651761234331
 31
0.0
 11
70.0892690948642
 21
38.53876800821604
 31
0.0
 11
70.05889380622448
 21
38.55930933357419
 31
0.0
 11
70.03382524428599
 21
38.58605134929838
 31
0.0
 11
70.01605121376576
 21
38.62113837753069
 31
0.0
 11
70.0099917951589
 21
38.6601440141217
 31
0.0
  0
SPLINE
  5
43B
330
53
100
AcDbEntity
  8
0
  6
Continuous
 62
     7
100
AcDbSpline
210
0.0
220
0.0
230
1.0
 70
     8
 71
     3
 72
    13
 73
     9
 74
     7
 42
0.0000000001
 43
0.0000000001
 44
0.00000001
 40
0.0
 40
0.0
 40
0.0
 40
0.0
 40
0.1486423989487169
 40
0.298238223460322
 40
0.4390496453782656
 40
0.5790300758310325
 40
0.7141201510145201
 40
0.8476890380265836
 40
0.8476890380265836
 40
0.8476890380265836
 40
0.8476890380265836
 10
69.7742628474349
 20
38.0428007620019
 30
0.0
 10
69.7246300616515
 20
38.04564940937378
 30
0.0
 10
69.62504613430556
 20
38.05136497597834
 30
0.0
 10
69.48424150591777
 20
38.0958672145632
 30
0.0
 10
69.3561828253489
 20
38.16279185466621
 30
0.0
 10
69.25290885761383
 20
38.25752440719846
 30
0.0
 10
69.18150628951862
 20
38.37784109823479
 30
0.0
 10
69.17105691807724
 20
38.4676329985998
 30
0.0
 10
69.1658618153269
 20
38.5122747410395
 30
0.0
 11
69.7742628474349
 21
38.0428007620019
 31
0.0
 11
69.6263426988872
 21
38.05743607610364
 31
0.0
 11
69.48320908411844
 21
38.10092951278708
 31
0.0
 11
69.35941101223935
 21
38.16802566723405
 31
0.0
 11
69.25693680461141
 21
38.26338581446951
 31
0.0
 11
69.1904676163402
 21
38.38099183227322
 31
0.0
 11
69.1658618153269
 21
38.5122747410395
 31
0.0
  0
SPLINE
  5
43C
330
53
100
AcDbEntity
  8
0
  6
Continuous
 62
     7
100
AcDbSpline
210
0.0
220
0.0
230
1.0
 70
     8
 71
     3
 72
    13
 73
     9
 74
     7
 42
0.0000000001
 43
0.0000000001
 44
0.00000001
 40
0.0
 40
0.0
 40
0.0
 40
0.0
 40
0.0328394650074352
 40
0.0655975995952085
 40
0.1022664447831562
 40
0.1389211607506419
 40
0.1782532813533702
 40
0.217726769161267
 40
0.217726769161267
 40
0.217726769161267
 40
0.217726769161267
 10
70.1521989233589
 20
39.781465424565
 30
0.0
 10
70.14121603172254
 20
39.78060526975248
 30
0.0
 10
70.11927744874635
 20
39.7788870903921
 30
0.0
 10
70.08756437969518
 20
39.76512882247921
 30
0.0
 10
70.0580448777086
 20
39.74535628319218
 30
0.0
 10
70.03193540549626
 20
39.7179598973277
 30
0.0
 10
70.01346450762219
 20
39.68308429884037
 30
0.0
 10
70.01115074950894
 20
39.65669549583578
 30
0.0
 10
70.0099917951589
 20
39.6434774252609
 30
0.0
 11
70.1521989233589
 21
39.781465424565
 31
0.0
 11
70.11965039145655
 21
39.77710382703929
 31
0.0
 11
70.0892690948642
 21
39.76485343116654
 31
0.0
 11
70.05889380622448
 21
39.74431210580836
 31
0.0
 11
70.03382524428599
 21
39.71757009008416
 31
0.0
 11
70.01605121376576
 21
39.68248306185187
 31
0.0
 11
70.0099917951589
 21
39.6434774252609
 31
0.0
  0
SPLINE
  5
43D
330
53
100
AcDbEntity
  8
0
  6
Continuous
 62
     7
100
AcDbSpline
210
0.0
220
0.0
230
1.0
 70
     8
 71
     3
 72
    13
 73
     9
 74
     7
 42
0.0000000001
 43
0.0000000001
 44
0.00000001
 40
0.0
 40
0.0
 40
0.0
 40
0.0
 40
0.148642398948731
 40
0.2982382234603225
 40
0.4390496453783036
 40
0.5790300758310705
 40
0.7141201510145581
 40
0.8476890380266189
 40
0.8476890380266189
 40
0.8476890380266189
 40
0.8476890380266189
 10
71.75130167960089
 20
38.0428007620019
 30
0.0
 10
71.8009344653843
 20
38.04564940937378
 30
0.0
 10
71.90051839273022
 20
38.05136497597835
 30
0.0
 10
72.04132302111803
 20
38.0958672145632
 30
0.0
 10
72.16938170168692
 20
38.1627918546662
 30
0.0
 10
72.272655669422
 20
38.25752440719846
 30
0.0
 10
72.34405823751719
 20
38.37784109823479
 30
0.0
 10
72.35450760895857
 20
38.46763299859979
 30
0.0
 10
72.3597027117089
 20
38.5122747410395
 30
0.0
 11
71.75130167960089
 21
38.0428007620019
 31
0.0
 11
71.8992218281486
 21
38.05743607610364
 31
0.0
 11
72.04235544291734
 21
38.10092951278708
 31
0.0
 11
72.16615351479648
 21
38.16802566723405
 31
0.0
 11
72.26862772242441
 21
38.26338581446951
 31
0.0
 11
72.33509691069563
 21
38.38099183227322
 31
0.0
 11
72.3597027117089
 21
38.5122747410395
 31
0.0
  0
SPLINE
  5
43E
330
53
100
AcDbEntity
  8
0
  6
Continuous
 62
     7
100
AcDbSpline
210
0.0
220
0.0
230
1.0
 70
     8
 71
     3
 72
    13
 73
     9
 74
     7
 42
0.0000000001
 43
0.0000000001
 44
0.00000001
 40
0.0
 40
0.0
 40
0.0
 40
0.0
 40
0.1486423989487317
 40
0.2982382234603191
 40
0.4390496453782765
 40
0.5790300758310385
 40
0.7141201510145694
 40
0.8476890380266512
 40
0.8476890380266512
 40
0.8476890380266512
 40
0.8476890380266512
 10
71.75130167960089
 20
40.2212071096856
 30
0.0
 10
71.8009344653843
 20
40.21835846231372
 30
0.0
 10
71.90051839273022
 20
40.21264289570917
 30
0.0
 10
72.041323021118
 20
40.16814065712428
 30
0.0
 10
72.16938170168693
 20
40.10121601702137
 30
0.0
 10
72.27265566942201
 20
40.00648346448909
 30
0.0
 10
72.34405823751717
 20
39.88616677345273
 30
0.0
 10
72.35450760895857
 20
39.79637487308771
 30
0.0
 10
72.3597027117089
 20
39.751733130648
 30
0.0
 11
71.75130167960089
 21
40.2212071096856
 31
0.0
 11
71.8992218281486
 21
40.20657179558386
 31
0.0
 11
72.04235544291734
 21
40.16307835890044
 31
0.0
 11
72.16615351479648
 21
40.09598220445351
 31
0.0
 11
72.26862772242441
 21
40.00062205721806
 31
0.0
 11
72.33509691069563
 21
39.8830160394143
 31
0.0
 11
72.3597027117089
 21
39.751733130648
 31
0.0
  0
SPLINE
  5
43F
330
53
100
AcDbEntity
  8
0
  6
Continuous
 62
     7
100
AcDbSpline
210
0.0
220
0.0
230
1.0
 70
     8
 71
     3
 72
    13
 73
     9
 74
     7
 42
0.0000000001
 43
0.0000000001
 44
0.00000001
 40
0.0
 40
0.0
 40
0.0
 40
0.0
 40
0.1486423989487176
 40
0.2982382234603186
 40
0.4390496453782385
 40
0.5790300758310005
 40
0.7141201510145314
 40
0.8476890380266158
 40
0.8476890380266158
 40
0.8476890380266158
 40
0.8476890380266158
 10
69.7742628474349
 20
40.2212071096856
 30
0.0
 10
69.7246300616515
 20
40.21835846231372
 30
0.0
 10
69.62504613430558
 20
40.21264289570914
 30
0.0
 10
69.48424150591778
 20
40.16814065712431
 30
0.0
 10
69.3561828253489
 20
40.10121601702136
 30
0.0
 10
69.2529088576138
 20
40.00648346448909
 30
0.0
 10
69.18150628951867
 20
39.88616677345274
 30
0.0
 10
69.17105691807726
 20
39.79637487308771
 30
0.0
 10
69.1658618153269
 20
39.751733130648
 30
0.0
 11
69.7742628474349
 21
40.2212071096856
 31
0.0
 11
69.6263426988872
 21
40.20657179558386
 31
0.0
 11
69.48320908411844
 21
40.16307835890044
 31
0.0
 11
69.35941101223935
 21
40.09598220445351
 31
0.0
 11
69.25693680461141
 21
40.00062205721806
 31
0.0
 11
69.1904676163402
 21
39.8830160394143
 31
0.0
 11
69.1658618153269
 21
39.751733130648
 31
0.0
  0
SPLINE
  5
440
330
53
100
AcDbEntity
  8
0
  6
Continuous
 62
     7
100
AcDbSpline
210
0.0
220
0.0
230
1.0
 70
     8
 71
     3
 72
    13
 73
     9
 74
     7
 42
0.0000000001
 43
0.0000000001
 44
0.00000001
 40
0.0
 40
0.0
 40
0.0
 40
0.0
 40
0.1601947109558571
 40
0.3210951627356181
 40
0.4607710778823808
 40
0.600207932985262
 40
0.7244156662360374
 40
0.8468166043869325
 40
0.8468166043869325
 40
0.8468166043869325
 40
0.8468166043869325
 10
84.57527121715191
 20
41.005819597246
 30
0.0
 10
84.62877545681025
 20
41.00257863108322
 30
0.0
 10
84.73601965006502
 20
40.99608242062008
 30
0.0
 10
84.88291754782836
 20
40.94528700216983
 30
0.0
 10
85.00987751086939
 20
40.86952704002232
 30
0.0
 10
85.104746626983
 20
40.77254630936901
 30
0.0
 10
85.17018186522243
 20
40.65833950796366
 30
0.0
 10
85.17975432894288
 20
40.57593608014562
 30
0.0
 10
85.18450549415189
 20
40.5350362333785
 30
0.0
 11
84.57527121715191
 21
41.005819597246
 31
0.0
 11
84.7345702356299
 21
40.98890309257813
 31
0.0
 11
84.88707674610768
 21
40.9376125511029
 31
0.0
 11
85.00621978149063
 21
40.8647133165951
 31
0.0
 11
85.1034823480067
 21
40.76480020576529
 31
0.0
 11
85.16231261668528
 21
40.65540843054201
 31
0.0
 11
85.18450549415189
 21
40.5350362333785
 31
0.0
  0
SPLINE
  5
441
330
53
100
AcDbEntity
  8
0
  6
Continuous
 62
     7
100
AcDbSpline
210
0.0
220
0.0
230
1.0
 70
     8
 71
     3
 72
    13
 73
     9
 74
     7
 42
0.0000000001
 43
0.0000000001
 44
0.00000001
 40
0.0
 40
0.0
 40
0.0
 40
0.0
 40
0.1601947109558571
 40
0.3210951627356226
 40
0.4607710778824001
 40
0.6002079329853118
 40
0.7244156662360809
 40
0.8468166043868922
 40
0.8468166043868922
 40
0.8468166043868922
 40
0.8468166043868922
 10
84.57527121715191
 20
37.2581882744415
 30
0.0
 10
84.62877545681026
 20
37.26142924060427
 30
0.0
 10
84.73601965006502
 20
37.26792545106743
 30
0.0
 10
84.88291754782836
 20
37.31872086951768
 30
0.0
 10
85.00987751086939
 20
37.39448083166524
 30
0.0
 10
85.10474662698299
 20
37.49146156231856
 30
0.0
 10
85.17018186522243
 20
37.6056683637239
 30
0.0
 10
85.17975432894289
 20
37.68807179154189
 30
0.0
 10
85.18450549415189
 20
37.728971638309
 30
0.0
 11
84.57527121715191
 21
37.2581882744415
 31
0.0
 11
84.7345702356299
 21
37.27510477910937
 31
0.0
 11
84.88707674610768
 21
37.32639532058462
 31
0.0
 11
85.00621978149063
 21
37.39929455509245
 31
0.0
 11
85.1034823480067
 21
37.4992076659223
 31
0.0
 11
85.16231261668528
 21
37.60859944114557
 31
0.0
 11
85.18450549415189
 21
37.728971638309
 31
0.0
  0
SPLINE
  5
442
330
53
100
AcDbEntity
  8
0
  6
Continuous
 62
     7
100
AcDbSpline
210
0.0
220
0.0
230
1.0
 70
     8
 71
     3
 72
    13
 73
     9
 74
     7
 42
0.0000000001
 43
0.0000000001
 44
0.00000001
 40
0.0
 40
0.0
 40
0.0
 40
0.0
 40
0.1601947109558571
 40
0.3210951627356226
 40
0.4607710778824365
 40
0.6002079329855068
 40
0.724415666236498
 40
0.8468166043873557
 40
0.8468166043873557
 40
0.8468166043873557
 40
0.8468166043873557
 10
68.0891374756979
 20
37.2581882744415
 30
0.0
 10
68.03563323603956
 20
37.26142924060427
 30
0.0
 10
67.9283890427848
 20
37.26792545106743
 30
0.0
 10
67.78149114502142
 20
37.31872086951768
 30
0.0
 10
67.65453118198033
 20
37.39448083166527
 30
0.0
 10
67.55966206586662
 20
37.49146156231863
 30
0.0
 10
67.4942268276266
 20
37.60566836372379
 30
0.0
 10
67.484654363906
 20
37.68807179154188
 30
0.0
 10
67.47990319869692
 20
37.728971638309
 30
0.0
 11
68.0891374756979
 21
37.2581882744415
 31
0.0
 11
67.9298384572199
 21
37.27510477910937
 31
0.0
 11
67.77733194674212
 21
37.32639532058462
 31
0.0
 11
67.65818891135913
 21
37.39929455509245
 31
0.0
 11
67.56092634484284
 21
37.4992076659223
 31
0.0
 11
67.50209607616378
 21
37.60859944114557
 31
0.0
 11
67.47990319869692
 21
37.728971638309
 31
0.0
  0
SPLINE
  5
443
330
53
100
AcDbEntity
  8
0
  6
Continuous
 62
     7
100
AcDbSpline
210
0.0
220
0.0
230
1.0
 70
     8
 71
     3
 72
    13
 73
     9
 74
     7
 42
0.0000000001
 43
0.0000000001
 44
0.00000001
 40
0.0
 40
0.0
 40
0.0
 40
0.0
 40
0.1601947109558571
 40
0.3210951627356181
 40
0.4607710778824172
 40
0.6002079329854569
 40
0.7244156662364544
 40
0.8468166043873959
 40
0.8468166043873959
 40
0.8468166043873959
 40
0.8468166043873959
 10
68.0891374756979
 20
41.005819597246
 30
0.0
 10
68.03563323603954
 20
41.00257863108322
 30
0.0
 10
67.9283890427848
 20
40.99608242062008
 30
0.0
 10
67.78149114502145
 20
40.94528700216985
 30
0.0
 10
67.65453118198033
 20
40.86952704002226
 30
0.0
 10
67.5596620658666
 20
40.77254630936896
 30
0.0
 10
67.49422682762659
 20
40.65833950796376
 30
0.0
 10
67.48465436390597
 20
40.57593608014565
 30
0.0
 10
67.47990319869692
 20
40.5350362333785
 30
0.0
 11
68.0891374756979
 21
41.005819597246
 31
0.0
 11
67.9298384572199
 21
40.98890309257813
 31
0.0
 11
67.77733194674212
 21
40.9376125511029
 31
0.0
 11
67.65818891135913
 21
40.8647133165951
 31
0.0
 11
67.56092634484284
 21
40.76480020576529
 31
0.0
 11
67.50209607616378
 21
40.65540843054201
 31
0.0
 11
67.47990319869692
 21
40.5350362333785
 31
0.0
  0
MTEXT
  5
444
330
53
100
AcDbEntity
  8
0
 62
     4
100
AcDbMText
 10
20.70666842187489
 20
40.849901
 30
0.0
 40
2.0
 41
0.0
 71
     5
 72
     1
  1
 
  7
CONVERTER_11
 73
     1
 44
1.02040816326531
  0
MTEXT
  5
445
330
53
100
AcDbEntity
  8
0
 62
     4
100
AcDbMText
 10
20.70666842187489
 20
36.549913
 30
0.0
 40
2.0
 41
0.0
 71
     5
 72
     1
  1
 
  7
CONVERTER_11
 73
     1
 44
1.02040816326531
  0
MTEXT
  5
446
330
53
100
AcDbEntity
  8
0
 62
     4
100
AcDbMText
 10
20.70666842187489
 20
32.249925
 30
0.0
 40
2.0
 41
0.0
 71
     5
 72
     1
  1
 
  7
CONVERTER_11
 73
     1
 44
1.02040816326531
  0
MTEXT
  5
447
330
53
100
AcDbEntity
  8
0
 62
     4
100
AcDbMText
 10
20.70666842187489
 20
27.949937
 30
0.0
 40
2.0
 41
0.0
 71
     5
 72
     1
  1
 
  7
CONVERTER_11
 73
     1
 44
1.02040816326531
  0
MTEXT
  5
448
330
53
100
AcDbEntity
  8
0
 62
     4
100
AcDbMText
 10
20.70666842187489
 20
23.649949
 30
0.0
 40
2.0
 41
0.0
 71
     5
 72
     1
  1
 
  7
CONVERTER_11
 73
     1
 44
1.02040816326531
  0
MTEXT
  5
449
330
53
100
AcDbEntity
  8
0
 62
     4
100
AcDbMText
 10
20.70666842187489
 20
19.349961
 30
0.0
 40
2.0
 41
0.0
 71
     5
 72
     1
  1
 
  7
CONVERTER_11
 73
     1
 44
1.02040816326531
  0
MTEXT
  5
44A
330
53
100
AcDbEntity
  8
0
 62
     4
100
AcDbMText
 10
20.70666842187489
 20
15.049973
 30
0.0
 40
2.0
 41
0.0
 71
     5
 72
     1
  1
 
  7
CONVERTER_11
 73
     1
 44
1.02040816326531
  0
MTEXT
  5
44B
330
53
100
AcDbEntity
  8
0
 62
     4
100
AcDbMText
 10
20.70666842187489
 20
10.749985
 30
0.0
 40
2.0
 41
0.0
 71
     5
 72
     1
  1
 
  7
CONVERTER_11
 73
     1
 44
1.02040816326531
  0
MTEXT
  5
44C
330
53
100
AcDbEntity
  8
0
 62
     4
100
AcDbMText
 10
20.70666842187489
 20
6.449997
 30
0.0
 40
2.0
 41
0.0
 71
     5
 72
     1
  1
 
  7
CONVERTER_11
 73
     1
 44
1.02040816326531
  0
TEXT
  5
44E
330
53
100
AcDbEntity
  8
0
 62
     4
100
AcDbText
 10
66.5342641417329
 20
27.1408650519031
 30
0.0
 40
2.5
  1
vertraulich / confidential
 41
0.765
  7
CONVERTER_15
100
AcDbText
  0
MTEXT
  5
450
330
53
100
AcDbEntity
  8
0
 62
     7
100
AcDbMText
 10
21.10666842187489
 20
2.10462632711871
 30
0.0
 40
1.3
 41
0.0
 71
     8
 72
     1
  1
EMPB
  7
CONVERTER_16
 73
     1
 44
0.7202881152461
  0
MTEXT
  5
451
330
53
100
AcDbEntity
  8
0
 62
     4
100
AcDbMText
 10
133.129383835554
 20
22.5
 30
0.0
 40
3.5
 41
0.0
 71
     5
 72
     1
  1
1
  7
CONVERTER_11
 73
     1
 44
1.02040816326531
  0
MTEXT
  5
452
330
53
100
AcDbEntity
  8
0
 62
     4
100
AcDbMText
 10
139.9224718661989
 20
22.5
 30
0.0
 40
3.5
 41
0.0
 71
     5
 72
     1
  1
1
  7
CONVERTER_11
 73
     1
 44
1.02040816326531
  0
MTEXT
  5
453
330
53
100
AcDbEntity
  8
0
 62
     1
100
AcDbMText
 10
172.5066684218749
 20
5.38551908572789
 30
0.0
 40
5.0
 41
0.0
 71
     5
 72
     1
  1
21202-0-5
  7
CONVERTER_16
 73
     1
 44
1.02040816326531
  0
MTEXT
  5
454
330
53
100
AcDbEntity
  8
0
 62
     1
100
AcDbMText
 10
172.5066684218749
 20
18.5101511820582
 30
0.0
 40
5.0
 41
0.0
 71
     5
 72
     1
  1
 
  7
CONVERTER_11
 73
     1
 44
1.02040816326531
  0
MTEXT
  5
455
330
53
100
AcDbEntity
  8
0
 62
     1
100
AcDbMText
 10
153.5066684218749
 20
36.4392375438422
 30
0.0
 40
4.5
 41
0.0
 71
     5
 72
     1
  1
HAFTGEGENPLATTE SCHWENKBAR
  7
CONVERTER_12
 73
     1
 44
1.02040816326531
  0
MTEXT
  5
456
330
53
100
AcDbEntity
  8
0
 62
     4
100
AcDbMText
 10
153.5066684218749
 20
29.5509709389485
 30
0.0
 40
3.5
 41
0.0
 71
     5
 72
     1
  1
COUNTER PLATE PIVOTABLE
  7
CONVERTER_16
 73
     1
 44
1.02040816326531
  0
MTEXT
  5
457
330
53
100
AcDbEntity
  8
0
 62
     3
100
AcDbMText
 10
107.6339467400569
 20
15.4881691307031
 30
0.0
 40
2.5
 41
0.0
 71
     5
 72
     1
  1
 
  7
CONVERTER_16
 73
     1
 44
1.02040816326531
  0
MTEXT
  5
458
330
53
100
AcDbEntity
  8
0
 62
     3
100
AcDbMText
 10
96.24967660828989
 20
9.9101356684765
 30
0.0
 40
2.5
 41
0.0
 71
     5
 72
     1
  1
 
  7
CONVERTER_11
 73
     1
 44
1.02040816326531
  0
MTEXT
  5
459
330
53
100
AcDbEntity
  8
0
 62
     3
100
AcDbMText
 10
96.24967660828989
 20
2.4101356684765
 30
0.0
 40
2.5
 41
0.0
 71
     5
 72
     1
  1
 
  7
CONVERTER_11
 73
     1
 44
1.02040816326531
  0
MTEXT
  5
45B
330
53
100
AcDbEntity
  8
0
 62
     3
100
AcDbMText
 10
90.5418984900569
 20
15.4881691307031
 30
0.0
 40
2.5
 41
0.0
 71
     5
 72
     1
  1
 
  7
CONVERTER_17
 73
     1
 44
1.02040816326531
  0
MTEXT
  5
45C
330
53
100
AcDbEntity
  8
0
 62
     1
100
AcDbMText
 10
129.6853719060919
 20
16.2112503074031
 30
0.0
 40
5.0
 41
0.0
 71
     5
 72
     1
  1
1:1
  7
CONVERTER_11
 73
     1
 44
1.02040816326531
  0
MTEXT
  5
45D
330
53
100
AcDbEntity
  8
0
 62
     3
100
AcDbMText
 10
107.6339467400569
 20
19.8136152178384
 30
0.0
 40
2.5
 41
0.0
 71
     5
 72
     1
  1
tbt7
  7
CONVERTER_16
 73
     1
 44
1.02040816326531
  0
MTEXT
  5
45E
330
53
100
AcDbEntity
  8
0
 62
     3
100
AcDbMText
 10
90.5418984900569
 20
19.8136152178384
 30
0.0
 40
2.5
 41
0.0
 71
     5
 72
     1
  1
03.12.13
  7
CONVERTER_17
 73
     1
 44
1.02040816326531
  0
MTEXT
  5
45F
330
53
100
AcDbEntity
  8
0
 62
     7
100
AcDbMText
 10
27.70666842187489
 20
36.549913
 30
0.0
 40
2.0
 41
0.0
 71
     5
 72
     1
  1
 
  7
CONVERTER_11
 73
     1
 44
1.02040816326531
  0
MTEXT
  5
460
330
53
100
AcDbEntity
  8
0
 62
     7
100
AcDbMText
 10
58.5066684218749
 20
36.549913
 30
0.0
 40
2.0
 41
0.0
 71
     5
 72
     1
  1
 
  7
CONVERTER_11
 73
     1
 44
1.02040816326531
  0
MTEXT
  5
461
330
53
100
AcDbEntity
  8
0
 62
     7
100
AcDbMText
 10
58.5066684218749
 20
32.249925
 30
0.0
 40
2.0
 41
0.0
 71
     5
 72
     1
  1
 
  7
CONVERTER_11
 73
     1
 44
1.02040816326531
  0
MTEXT
  5
462
330
53
100
AcDbEntity
  8
0
 62
     7
100
AcDbMText
 10
58.5066684218749
 20
27.949937
 30
0.0
 40
2.0
 41
0.0
 71
     5
 72
     1
  1
 
  7
CONVERTER_11
 73
     1
 44
1.02040816326531
  0
MTEXT
  5
463
330
53
100
AcDbEntity
  8
0
 62
     7
100
AcDbMText
 10
58.5066684218749
 20
23.649949
 30
0.0
 40
2.0
 41
0.0
 71
     5
 72
     1
  1
 
  7
CONVERTER_11
 73
     1
 44
1.02040816326531
  0
MTEXT
  5
464
330
53
100
AcDbEntity
  8
0
 62
     7
100
AcDbMText
 10
47.30666842187491
 20
40.849901
 30
0.0
 40
2.0
 41
0.0
 71
     5
 72
     1
  1
 
  7
CONVERTER_16
 73
     1
 44
1.02040816326531
  0
MTEXT
  5
465
330
53
100
AcDbEntity
  8
0
 62
     7
100
AcDbMText
 10
47.30666842187491
 20
23.649949
 30
0.0
 40
2.0
 41
0.0
 71
     5
 72
     1
  1
 
  7
CONVERTER_16
 73
     1
 44
1.02040816326531
  0
MTEXT
  5
466
330
53
100
AcDbEntity
  8
0
 62
     7
100
AcDbMText
 10
47.30666842187491
 20
15.049973
 30
0.0
 40
2.0
 41
0.0
 71
     5
 72
     1
  1
 
  7
CONVERTER_16
 73
     1
 44
1.02040816326531
  0
MTEXT
  5
467
330
53
100
AcDbEntity
  8
0
 62
     7
100
AcDbMText
 10
47.30666842187491
 20
10.749985
 30
0.0
 40
2.0
 41
0.0
 71
     5
 72
     1
  1
 
  7
CONVERTER_16
 73
     1
 44
1.02040816326531
  0
MTEXT
  5
468
330
53
100
AcDbEntity
  8
0
 62
     7
100
AcDbMText
 10
37.5066684218749
 20
40.849901
 30
0.0
 40
2.0
 41
0.0
 71
     5
 72
     1
  1
 
  7
CONVERTER_17
 73
     1
 44
1.02040816326531
  0
MTEXT
  5
469
330
53
100
AcDbEntity
  8
0
 62
     7
100
AcDbMText
 10
37.5066684218749
 20
32.249925
 30
0.0
 40
2.0
 41
0.0
 71
     5
 72
     1
  1
 
  7
CONVERTER_17
 73
     1
 44
1.02040816326531
  0
MTEXT
  5
46A
330
53
100
AcDbEntity
  8
0
 62
     7
100
AcDbMText
 10
37.5066684218749
 20
27.949937
 30
0.0
 40
2.0
 41
0.0
 71
     5
 72
     1
  1
 
  7
CONVERTER_17
 73
     1
 44
1.02040816326531
  0
MTEXT
  5
46B
330
53
100
AcDbEntity
  8
0
 62
     7
100
AcDbMText
 10
37.5066684218749
 20
19.349961
 30
0.0
 40
2.0
 41
0.0
 71
     5
 72
     1
  1
 
  7
CONVERTER_17
 73
     1
 44
1.02040816326531
  0
MTEXT
  5
46C
330
53
100
AcDbEntity
  8
0
 62
     7
100
AcDbMText
 10
37.5066684218749
 20
10.749985
 30
0.0
 40
2.0
 41
0.0
 71
     5
 72
     1
  1
 
  7
CONVERTER_17
 73
     1
 44
1.02040816326531
  0
MTEXT
  5
46D
330
53
100
AcDbEntity
  8
0
 62
     7
100
AcDbMText
 10
58.5066684218749
 20
6.449997
 30
0.0
 40
2.0
 41
0.0
 71
     5
 72
     1
  1
*
  7
CONVERTER_11
 73
     1
 44
1.02040816326531
  0
MTEXT
  5
46E
330
53
100
AcDbEntity
  8
0
 62
     7
100
AcDbMText
 10
37.5066684218749
 20
15.049973
 30
0.0
 40
2.0
 41
0.0
 71
     5
 72
     1
  1
 
  7
CONVERTER_17
 73
     1
 44
1.02040816326531
  0
MTEXT
  5
46F
330
53
100
AcDbEntity
  8
0
 62
     7
100
AcDbMText
 10
58.5066684218749
 20
19.349961
 30
0.0
 40
2.0
 41
0.0
 71
     5
 72
     1
  1
 
  7
CONVERTER_11
 73
     1
 44
1.02040816326531
  0
MTEXT
  5
470
330
53
100
AcDbEntity
  8
0
 62
     7
100
AcDbMText
 10
47.30666842187491
 20
6.449997
 30
0.0
 40
2.0
 41
0.0
 71
     5
 72
     1
  1
tbt7
  7
CONVERTER_16
 73
     1
 44
1.02040816326531
  0
MTEXT
  5
471
330
53
100
AcDbEntity
  8
0
 62
     7
100
AcDbMText
 10
37.5066684218749
 20
6.449997
 30
0.0
 40
2.0
 41
0.0
 71
     5
 72
     1
  1
03.12.13
  7
CONVERTER_17
 73
     1
 44
1.02040816326531
  0
MTEXT
  5
472
330
53
100
AcDbEntity
  8
0
 62
     7
100
AcDbMText
 10
58.5066684218749
 20
10.749985
 30
0.0
 40
2.0
 41
0.0
 71
     5
 72
     1
  1
 
  7
CONVERTER_11
 73
     1
 44
1.02040816326531
  0
MTEXT
  5
473
330
53
100
AcDbEntity
  8
0
 62
     7
100
AcDbMText
 10
58.5066684218749
 20
15.049973
 30
0.0
 40
2.0
 41
0.0
 71
     5
 72
     1
  1
 
  7
CONVERTER_11
 73
     1
 44
1.02040816326531
  0
MTEXT
  5
474
330
53
100
AcDbEntity
  8
0
 62
     7
100
AcDbMText
 10
47.30666842187491
 20
19.349961
 30
0.0
 40
2.0
 41
0.0
 71
     5
 72
     1
  1
 
  7
CONVERTER_16
 73
     1
 44
1.02040816326531
  0
MTEXT
  5
475
330
53
100
AcDbEntity
  8
0
 62
     7
100
AcDbMText
 10
37.5066684218749
 20
23.649949
 30
0.0
 40
2.0
 41
0.0
 71
     5
 72
     1
  1
 
  7
CONVERTER_17
 73
     1
 44
1.02040816326531
  0
MTEXT
  5
476
330
53
100
AcDbEntity
  8
0
 62
     7
100
AcDbMText
 10
47.30666842187491
 20
27.949937
 30
0.0
 40
2.0
 41
0.0
 71
     5
 72
     1
  1
 
  7
CONVERTER_16
 73
     1
 44
1.02040816326531
  0
MTEXT
  5
477
330
53
100
AcDbEntity
  8
0
 62
     7
100
AcDbMText
 10
47.30666842187491
 20
32.249925
 30
0.0
 40
2.0
 41
0.0
 71
     5
 72
     1
  1
 
  7
CONVERTER_16
 73
     1
 44
1.02040816326531
  0
MTEXT
  5
478
330
53
100
AcDbEntity
  8
0
 62
     7
100
AcDbMText
 10
47.30666842187491
 20
36.549913
 30
0.0
 40
2.0
 41
0.0
 71
     5
 72
     1
  1
 
  7
CONVERTER_16
 73
     1
 44
1.02040816326531
  0
MTEXT
  5
479
330
53
100
AcDbEntity
  8
0
 62
     7
100
AcDbMText
 10
58.5066684218749
 20
40.849901
 30
0.0
 40
2.0
 41
0.0
 71
     5
 72
     1
  1
 
  7
CONVERTER_11
 73
     1
 44
1.02040816326531
  0
MTEXT
  5
47A
330
53
100
AcDbEntity
  8
0
 62
     7
100
AcDbMText
 10
27.70666842187489
 20
40.849901
 30
0.0
 40
2.0
 41
0.0
 71
     5
 72
     1
  1
 
  7
CONVERTER_11
 73
     1
 44
1.02040816326531
  0
MTEXT
  5
47B
330
53
100
AcDbEntity
  8
0
 62
     7
100
AcDbMText
 10
37.5066684218749
 20
36.549913
 30
0.0
 40
2.0
 41
0.0
 71
     5
 72
     1
  1
 
  7
CONVERTER_17
 73
     1
 44
1.02040816326531
  0
MTEXT
  5
47C
330
53
100
AcDbEntity
  8
0
 62
     7
100
AcDbMText
 10
27.70666842187489
 20
32.249925
 30
0.0
 40
2.0
 41
0.0
 71
     5
 72
     1
  1
 
  7
CONVERTER_11
 73
     1
 44
1.02040816326531
  0
MTEXT
  5
47D
330
53
100
AcDbEntity
  8
0
 62
     7
100
AcDbMText
 10
27.70666842187489
 20
27.949937
 30
0.0
 40
2.0
 41
0.0
 71
     5
 72
     1
  1
 
  7
CONVERTER_11
 73
     1
 44
1.02040816326531
  0
MTEXT
  5
47E
330
53
100
AcDbEntity
  8
0
 62
     7
100
AcDbMText
 10
27.70666842187489
 20
23.649949
 30
0.0
 40
2.0
 41
0.0
 71
     5
 72
     1
  1
 
  7
CONVERTER_11
 73
     1
 44
1.02040816326531
  0
MTEXT
  5
47F
330
53
100
AcDbEntity
  8
0
 62
     7
100
AcDbMText
 10
27.70666842187489
 20
19.349961
 30
0.0
 40
2.0
 41
0.0
 71
     5
 72
     1
  1
 
  7
CONVERTER_11
 73
     1
 44
1.02040816326531
  0
MTEXT
  5
480
330
53
100
AcDbEntity
  8
0
 62
     7
100
AcDbMText
 10
27.70666842187489
 20
15.049973
 30
0.0
 40
2.0
 41
0.0
 71
     5
 72
     1
  1
 
  7
CONVERTER_11
 73
     1
 44
1.02040816326531
  0
MTEXT
  5
481
330
53
100
AcDbEntity
  8
0
 62
     7
100
AcDbMText
 10
27.70666842187489
 20
10.749985
 30
0.0
 40
2.0
 41
0.0
 71
     5
 72
     1
  1
 
  7
CONVERTER_11
 73
     1
 44
1.02040816326531
  0
MTEXT
  5
482
330
53
100
AcDbEntity
  8
0
 62
     7
100
AcDbMText
 10
27.70666842187489
 20
6.449997
 30
0.0
 40
2.0
 41
0.0
 71
     5
 72
     1
  1
00
  7
CONVERTER_11
 73
     1
 44
1.02040816326531
  0
MTEXT
  5
483
330
53
100
AcDbEntity
  8
0
 62
     4
100
AcDbMText
 10
136.7022258382949
 20
22.5
 30
0.0
 40
5.0
 41
0.0
 71
     5
 72
     1
  1
/
  7
CONVERTER_11
 73
     1
 44
1.02040816326531
  0
MTEXT
  5
484
330
53
100
AcDbEntity
  8
0
 62
     7
100
AcDbMText
 10
58.5066684218749
 20
2.36042929205311
 30
0.0
 40
1.3
 41
0.0
 71
     8
 72
     1
  1
Mitteilungs-Nr.
  7
CONVERTER_16
 73
     1
 44
0.7202881152461
  0
MTEXT
  5
485
330
53
100
AcDbEntity
  8
0
 62
     7
100
AcDbMText
 10
58.5066684218749
 20
0.56042929205312
 30
0.0
 40
1.3
 41
0.0
 71
     8
 72
     1
  1
Doc. change no.
  7
CONVERTER_16
 73
     1
 44
0.7202881152461
  0
MTEXT
  5
486
330
53
100
AcDbEntity
  8
0
 62
     7
100
AcDbMText
 10
47.0066684218749
 20
2.36042929205311
 30
0.0
 40
1.3
 41
0.0
 71
     8
 72
     1
  1
Name
  7
CONVERTER_16
 73
     1
 44
0.7202881152461
  0
MTEXT
  5
487
330
53
100
AcDbEntity
  8
0
 62
     7
100
AcDbMText
 10
47.0066684218749
 20
0.56042929205312
 30
0.0
 40
1.3
 41
0.0
 71
     8
 72
     1
  1
name
  7
CONVERTER_16
 73
     1
 44
0.7202881152461
  0
MTEXT
  5
488
330
53
100
AcDbEntity
  8
0
 62
     7
100
AcDbMText
 10
38.0066684218749
 20
2.36042929205311
 30
0.0
 40
1.3
 41
0.0
 71
     8
 72
     1
  1
Datum
  7
CONVERTER_16
 73
     1
 44
0.7202881152461
  0
MTEXT
  5
489
330
53
100
AcDbEntity
  8
0
 62
     7
100
AcDbMText
 10
38.0066684218749
 20
0.56042929205312
 30
0.0
 40
1.3
 41
0.0
 71
     8
 72
     1
  1
date
  7
CONVERTER_16
 73
     1
 44
0.7202881152461
  0
MTEXT
  5
48A
330
53
100
AcDbEntity
  8
0
 62
     7
100
AcDbMText
 10
27.70666842187489
 20
0.56042929205312
 30
0.0
 40
1.3
 41
0.0
 71
     8
 72
     1
  1
doc.version
  7
CONVERTER_17
 73
     1
 44
0.7202881152461
  0
MTEXT
  5
48B
330
53
100
AcDbEntity
  8
0
 62
     7
100
AcDbMText
 10
27.70666842187489
 20
2.36042929205311
 30
0.0
 40
1.3
 41
0.0
 71
     8
 72
     1
  1
Dok.version
  7
CONVERTER_17
 73
     1
 44
0.7202881152461
  0
MTEXT
  5
48D
330
53
100
AcDbEntity
  8
0
 62
     3
100
AcDbMText
 10
108.0066684218749
 20
22.6975560165162
 30
0.0
 40
1.8
 41
0.0
 71
     8
 72
     1
  1
Name / name
  7
CONVERTER_18
 73
     1
 44
0.90036014405762
  0
MTEXT
  5
48E
330
53
100
AcDbEntity
  8
0
 62
     3
100
AcDbMText
 10
92.0066684218749
 20
22.6975560165162
 30
0.0
 40
1.8
 41
0.0
 71
     8
 72
     1
  1
Datum / date
  7
CONVERTER_18
 73
     1
 44
0.90036014405762
  0
MTEXT
  5
48F
330
53
100
AcDbEntity
  8
0
 62
     3
100
AcDbMText
 10
116.3200072399219
 20
21.1543120908915
 30
0.0
 40
1.8
 41
0.0
 71
     7
 72
     1
  1
Blatt / von\Psheet / of
  7
CONVERTER_16
 73
     1
 44
0.84033613445378
  0
MTEXT
  5
490
330
53
100
AcDbEntity
  8
0
 62
     3
100
AcDbMText
 10
66.2358488707329
 20
9.75
 30
0.0
 40
1.8
 41
0.0
 71
     4
 72
     1
  1
Ersatz f\U+00fcr:\Psubst. for:
  7
CONVERTER_16
 73
     1
 44
0.84033613445378
  0
MTEXT
  5
491
330
53
100
AcDbEntity
  8
0
 62
     3
100
AcDbMText
 10
66.2358488707329
 20
3.25
 30
0.0
 40
1.8
 41
0.0
 71
     4
 72
     1
  1
Ersetzt durch:\Psubst. with:
  7
CONVERTER_16
 73
     1
 44
0.84033613445378
  0
TEXT
  5
492
330
53
100
AcDbEntity
  8
0
 62
     3
100
AcDbText
 10
107.306625421875
 20
40.600006
 30
0.0
 40
1.8
  1
Benennung / designation
 41
0.72
  7
CONVERTER_16
100
AcDbText
  0
MTEXT
  5
493
330
53
100
AcDbEntity
  8
0
 62
     3
100
AcDbMText
 10
116.221568841094
 20
15.3617882489337
 30
0.0
 40
1.8
 41
0.0
 71
     7
 72
     1
  1
Ma\U+00dfstab\Pscale
  7
CONVERTER_16
 73
     1
 44
0.84033613445378
  0
TEXT
  5
494
330
53
100
AcDbEntity
  8
0
 62
     3
100
AcDbText
 10
116.7066684218748
 20
10.73333324949998
 30
0.0
 40
1.8
  1
Sprache / language
 41
0.72
  7
CONVERTER_16
100
AcDbText
  0
TEXT
  5
495
330
53
100
AcDbEntity
  8
0
 62
     3
100
AcDbText
 10
143.5066684218749
 20
10.4
 30
0.0
 40
1.8
  1
Zeichnungs-Nr. / document-no.
 41
0.72
  7
CONVERTER_16
100
AcDbText
  0
MTEXT
  5
496
330
53
100
AcDbEntity
  8
0
 62
     3
100
AcDbMText
 10
143.5066684218749
 20
20.9
 30
0.0
 40
1.8
 41
0.0
 71
     7
 72
     1
  1
Material-Nr.\PID-no.
  7
CONVERTER_16
 73
     1
 44
0.84033613445378
  0
MTEXT
  5
497
330
53
100
AcDbEntity
  8
0
 62
     3
100
AcDbMText
 10
87.0662822490759
 20
31.7168732439802
 30
0.0
 40
1.8
 41
0.0
 71
     7
 72
     1
  1
P.O. Box 13 63\P71226 Leonberg\PGermany
  7
CONVERTER_16
 73
     1
 44
0.78031212484994
  0
TEXT
  5
498
330
53
100
AcDbEntity
  8
0
 62
     4
100
AcDbText
 10
87.0662822490759
 20
39.4483504727545
 30
0.0
 40
2.2
  1
GEZE GmbH
 41
0.9
  7
CONVERTER_11
100
AcDbText
  0
MTEXT
  5
499
330
53
100
AcDbEntity
  8
0
 62
     3
100
AcDbMText
 10
66.2358488707329
 20
19.45
 30
0.0
 40
1.8
 41
0.0
 71
     4
 72
     1
  1
erstellt / drawn
  7
CONVERTER_16
 73
     1
 44
0.90036014405762
  0
MTEXT
  5
49A
330
53
100
AcDbEntity
  8
0
 62
     3
100
AcDbMText
 10
66.2358488707329
 20
15.15
 30
0.0
 40
1.8
 41
0.0
 71
     4
 72
     1
  1
gepr. / checked
  7
CONVERTER_16
 73
     1
 44
0.90036014405762
  0
MTEXT
  5
49B
330
53
100
AcDbEntity
  8
0
 62
     4
100
AcDbMText
 10
129.129383835554
 20
8.20000000000001
 30
0.0
 40
3.5
 41
0.0
 71
     5
 72
     1
  1
D
  7
CONVERTER_11
 73
     1
 44
1.02040816326531
  0
MTEXT
  5
49C
330
53
100
AcDbEntity
  8
1
 62
     7
100
AcDbMText
 10
11.16031950505541
 20
141.7735294117645
 30
0.0
 40
2.0
 41
0.0
 71
     5
 72
     1
  1
EMPB = Erstmusterpr\U+00fcfbericht /First sample test report
  7
CONVERTER_11
 11
6.123233995736766E-17
 21
1.0
 31
0.0
 73
     1
 44
1.02040816326531
  0
MTEXT
  5
49D
330
53
100
AcDbEntity
  8
0
 62
     7
100
AcDbMText
 10
13.78
 20
0.0
 30
0.0
 40
1.3
 41
0.0
 71
     7
 72
     1
  3
Diese Zeichnung entspricht dem Entwicklungsstand des Zeichnungs-\Pdatums bzw. der letzten \U+00c4nderungseintragung.Aus der Ben\U+00fctzung der\PZeichnung k\U+00f6nnen keine Anspr\U+00fcche, gleich welcher Art, einschlie\U+00df-\Plich Schadenersatza
  3
nspr\U+00fcche, abgeleitet und gegen GEZE geltend ge-\Pmacht werden. Die Zeichnung bleibt unser Eigentum und ist Dritten\Pnur f\U+00fcr die Vertragsdauer zur Benutzung \U+00fcberlassen.S\U+00e4mtliche sich\Paus der Zeichnung ergebenden Anspr\U+00fcc
  1
he stehen ausschlie\U+00dflich GEZE\Pzu.Ohne vorherige Zustimmung von GEZE darf diese Zeichnung weder\Pvervielf\U+00e4ltigt noch Dritten zug\U+00e4nglich gemacht werden.
  7
CONVERTER_11
 11
6.123233764940082E-17
 21
1.0
 31
0.0
 73
     1
 44
0.7202881152461
  0
MTEXT
  5
49E
330
53
100
AcDbEntity
  8
0
 62
     7
100
AcDbMText
 10
13.21210475602299
 20
214.6132400482627
 30
0.0
 40
1.3
 41
0.0
 71
     7
 72
     1
  3
This drawing shows the actual state of product development at\Pthe date of the drawing or the revision date. No claims or\Pdamages in any form can be made against GEZE as a result of the\Pinterpretation of this drawing. This drawing remains the prop
  3
erty\Pof GEZE and is made available to third parties only for the duration\Pof contractural obligations. All rights connected with this drawing remain\Pin possession of GEZE. This drawing may not be copied or handed over\Pto third parties without th
  1
e express consent of GEZE.
  7
CONVERTER_11
 11
6.123233995736766E-17
 21
1.0
 31
0.0
 73
     1
 44
0.7202881152461
  0
TEXT
  5
4A0
330
53
100
AcDbEntity
  8
0
 62
     3
100
AcDbText
 10
127.5066684218749
 20
283.0
 30
0.0
 40
1.798828
  1
2
 41
0.99
  7
CONVERTER_19
100
AcDbText
  0
TEXT
  5
4A1
330
53
100
AcDbEntity
  8
0
 62
     3
100
AcDbText
 10
83.5066684218749
 20
283.0
 30
0.0
 40
1.798828
  1
3
 41
0.99
  7
CONVERTER_19
100
AcDbText
  0
TEXT
  5
4A2
330
53
100
AcDbEntity
  8
0
 62
     3
100
AcDbText
 10
16.5066684218749
 20
63.5
 30
0.0
 40
1.798828
  1
B
 41
0.99
  7
CONVERTER_19
100
AcDbText
  0
TEXT
  5
4A3
330
53
100
AcDbEntity
  8
0
 62
     3
100
AcDbText
 10
16.5066684218749
 20
261.5
 30
0.0
 40
1.798828
  1
F
 41
0.99
  7
CONVERTER_19
100
AcDbText
  0
TEXT
  5
4A4
330
53
100
AcDbEntity
  8
0
 62
     3
100
AcDbText
 10
16.5066684218749
 20
211.5
 30
0.0
 40
1.798828
  1
E
 41
0.99
  7
CONVERTER_19
100
AcDbText
  0
TEXT
  5
4A5
330
53
100
AcDbEntity
  8
0
 62
     3
100
AcDbText
 10
16.5066684218749
 20
161.5
 30
0.0
 40
1.798828
  1
D
 41
0.99
  7
CONVERTER_19
100
AcDbText
  0
TEXT
  5
4A6
330
53
100
AcDbEntity
  8
0
 62
     3
100
AcDbText
 10
16.5066684218749
 20
111.5
 30
0.0
 40
1.798828
  1
C
 41
0.99
  7
CONVERTER_19
100
AcDbText
  0
TEXT
  5
4A7
330
53
100
AcDbEntity
  8
0
 62
     3
100
AcDbText
 10
170.5066684218749
 20
283.0
 30
0.0
 40
1.798828
  1
1
 41
0.99
  7
CONVERTER_19
100
AcDbText
  0
TEXT
  5
4A8
330
53
100
AcDbEntity
  8
0
 62
     3
100
AcDbText
 10
45.5066684218749
 20
283.0
 30
0.0
 40
1.798828
  1
4
 41
0.99
  7
CONVERTER_19
100
AcDbText
  0
ENDBLK
  5
55
330
53
100
AcDbEntity
  8
0
100
AcDbBlockEnd
  0
BLOCK
  5
7A
330
56
100
AcDbEntity
  8
0
100
AcDbBlockBegin
  2
Rahmen
 70
     0
 10
0.0
 20
0.0
 30
0.0
  3
Rahmen
  1

  0
INSERT
  5
79
330
56
100
AcDbEntity
  8
1
100
AcDbBlockReference
  2
a4kl
 10
0.0
 20
0.0
 30
0.0
  0
ENDBLK
  5
7B
330
56
100
AcDbEntity
  8
0
100
AcDbBlockEnd
  0
BLOCK
  5
F5
330
EB
100
AcDbEntity
  8
0
100
AcDbBlockBegin
  2
*D7
 70
     1
 10
0.0
 20
0.0
 30
0.0
  3
*D7
  1

  0
LINE
  5
EC
330
EB
100
AcDbEntity
  8
1
  6
Continuous
 62
     3
100
AcDbLine
 10
181.663754280671
 20
180.8475724487
 30
0.0
 11
181.663754280671
 21
173.8475724487
 31
0.0
  0
LINE
  5
ED
330
EB
100
AcDbEntity
  8
1
  6
Continuous
 62
     3
100
AcDbLine
 10
181.663754280671
 20
185.8475724487
 30
0.0
 11
181.663754280671
 21
180.8475724487
 31
0.0
  0
LINE
  5
EE
330
EB
100
AcDbEntity
  8
1
  6
Continuous
 62
     3
100
AcDbLine
 10
181.663754280671
 20
192.8475724487
 30
0.0
 11
181.663754280671
 21
185.8475724487
 31
0.0
  0
LINE
  5
EF
330
EB
100
AcDbEntity
  8
1
  6
Continuous
 62
     3
100
AcDbLine
 10
161.992125232262
 20
180.8475724487
 30
0.0
 11
172.006803313063
 21
180.8475724487
 31
0.0
  0
LINE
  5
F0
330
EB
100
AcDbEntity
  8
1
  6
Continuous
 62
     3
100
AcDbLine
 10
176.508762678774
 20
180.8475724487
 30
0.0
 11
183.663754280671
 21
180.8475724487
 31
0.0
  0
LINE
  5
F1
330
EB
100
AcDbEntity
  8
1
  6
Continuous
 62
     3
100
AcDbLine
 10
160.842125232262
 20
185.8475724487
 30
0.0
 11
183.663754280671
 21
185.8475724487
 31
0.0
  0
SOLID
  5
F2
330
EB
100
AcDbEntity
  8
1
 62
     3
100
AcDbTrace
 10
181.2029705391151
 20
189.3475724487
 30
0.0
 11
182.1245380222269
 21
189.3475724487
 31
0.0
 12
181.663754280671
 22
185.8475724487
 32
0.0
 13
181.663754280671
 23
185.8475724487
 33
0.0
  0
SOLID
  5
F3
330
EB
100
AcDbEntity
  8
1
 62
     3
100
AcDbTrace
 10
182.1245380222269
 20
177.3475724487
 30
0.0
 11
181.2029705391151
 21
177.3475724487
 31
0.0
 12
181.663754280671
 22
180.8475724487
 32
0.0
 13
181.663754280671
 23
180.8475724487
 33
0.0
  0
MTEXT
  5
F4
330
EB
100
AcDbEntity
  8
1
 62
     4
100
AcDbMText
 10
179.663754280671
 20
182.512816058272
 30
0.0
 40
3.5
 41
0.0
 71
     7
 72
     1
  1
5
  7
CONVERTER_11
 11
0.0
 21
1.0
 31
0.0
 73
     1
 44
0.60024009603842
  0
ENDBLK
  5
F6
330
EB
100
AcDbEntity
  8
0
100
AcDbBlockEnd
  0
BLOCK
  5
102
330
F9
100
AcDbEntity
  8
0
100
AcDbBlockBegin
  2
*D8
 70
     1
 10
0.0
 20
0.0
 30
0.0
  3
*D8
  1

  0
LINE
  5
FA
330
F9
100
AcDbEntity
  8
1
  6
Continuous
 62
     3
100
AcDbLine
 10
173.663754280671
 20
183.7475724487
 30
0.0
 11
173.663754280671
 21
176.7475724487
 31
0.0
  0
LINE
  5
FB
330
F9
100
AcDbEntity
  8
1
  6
Continuous
 62
     3
100
AcDbLine
 10
173.663754280671
 20
185.8475724487
 30
0.0
 11
173.663754280671
 21
183.7475724487
 31
0.0
  0
LINE
  5
FC
330
F9
100
AcDbEntity
  8
1
  6
Continuous
 62
     3
100
AcDbLine
 10
173.663754280671
 20
195.444474693071
 30
0.0
 11
173.663754280671
 21
185.8475724487
 31
0.0
  0
LINE
  5
FD
330
F9
100
AcDbEntity
  8
1
  6
Continuous
 62
     3
100
AcDbLine
 10
158.742125232262
 20
183.7475724487
 30
0.0
 11
175.663754280671
 21
183.7475724487
 31
0.0
  0
LINE
  5
FE
330
F9
100
AcDbEntity
  8
1
  6
Continuous
 62
     3
100
AcDbLine
 10
160.842125232262
 20
185.8475724487
 30
0.0
 11
175.663754280671
 21
185.8475724487
 31
0.0
  0
SOLID
  5
FF
330
F9
100
AcDbEntity
  8
1
 62
     3
100
AcDbTrace
 10
173.2029705391151
 20
189.3475724487
 30
0.0
 11
174.1245380222269
 21
189.3475724487
 31
0.0
 12
173.663754280671
 22
185.8475724487
 32
0.0
 13
173.663754280671
 23
185.8475724487
 33
0.0
  0
SOLID
  5
100
330
F9
100
AcDbEntity
  8
1
 62
     3
100
AcDbTrace
 10
174.1245380222269
 20
180.2475724487
 30
0.0
 11
173.2029705391151
 21
180.2475724487
 31
0.0
 12
173.663754280671
 22
183.7475724487
 32
0.0
 13
173.663754280671
 23
183.7475724487
 33
0.0
  0
MTEXT
  5
101
330
F9
100
AcDbEntity
  8
1
 62
     4
100
AcDbMText
 10
171.663754280671
 20
190.106974693071
 30
0.0
 40
3.5
 41
0.0
 71
     7
 72
     1
  1
2.1
  7
CONVERTER_11
 11
0.0
 21
1.0
 31
0.0
 73
     1
 44
0.60024009603842
  0
ENDBLK
  5
103
330
F9
100
AcDbEntity
  8
0
100
AcDbBlockEnd
  0
BLOCK
  5
10F
330
106
100
AcDbEntity
  8
0
100
AcDbBlockBegin
  2
*D9
 70
     1
 10
0.0
 20
0.0
 30
0.0
  3
*D9
  1

  0
LINE
  5
107
330
106
100
AcDbEntity
  8
1
  6
Continuous
 62
     3
100
AcDbLine
 10
158.742125232262
 20
172.8475724487
 30
0.0
 11
165.742125232262
 21
172.8475724487
 31
0.0
  0
LINE
  5
108
330
106
100
AcDbEntity
  8
1
  6
Continuous
 62
     3
100
AcDbLine
 10
154.242125232262
 20
172.8475724487
 30
0.0
 11
158.742125232262
 21
172.8475724487
 31
0.0
  0
LINE
  5
109
330
106
100
AcDbEntity
  8
1
  6
Continuous
 62
     3
100
AcDbLine
 10
139.698375232262
 20
172.8475724487
 30
0.0
 11
154.242125232262
 21
172.8475724487
 31
0.0
  0
LINE
  5
10A
330
106
100
AcDbEntity
  8
1
  6
Continuous
 62
     3
100
AcDbLine
 10
158.742125232262
 20
180.8475724487
 30
0.0
 11
158.742125232262
 21
170.8475724487
 31
0.0
  0
LINE
  5
10B
330
106
100
AcDbEntity
  8
1
  6
Continuous
 62
     3
100
AcDbLine
 10
154.242125232262
 20
180.8475724487
 30
0.0
 11
154.242125232262
 21
170.8475724487
 31
0.0
  0
SOLID
  5
10C
330
106
100
AcDbEntity
  8
1
 62
     3
100
AcDbTrace
 10
150.742125232262
 20
172.3867887071441
 30
0.0
 11
150.742125232262
 21
173.3083561902559
 31
0.0
 12
154.242125232262
 22
172.8475724487
 32
0.0
 13
154.242125232262
 23
172.8475724487
 33
0.0
  0
SOLID
  5
10D
330
106
100
AcDbEntity
  8
1
 62
     3
100
AcDbTrace
 10
162.242125232262
 20
173.3083561902559
 30
0.0
 11
162.242125232262
 21
172.3867887071441
 31
0.0
 12
158.742125232262
 22
172.8475724487
 32
0.0
 13
158.742125232262
 23
172.8475724487
 33
0.0
  0
MTEXT
  5
10E
330
106
100
AcDbEntity
  8
1
 62
     4
100
AcDbMText
 10
141.0283752322704
 20
174.8475654916237
 30
0.0
 40
3.5
 41
0.0
 71
     7
 72
     1
  1
\C4;{\Fgdt;n}\C4;4.5
  7
CONVERTER_11
 11
0.9999999999970619
 21
2.424068405545306E-6
 31
0.0
 73
     1
 44
0.60024009603842
  0
ENDBLK
  5
110
330
106
100
AcDbEntity
  8
0
100
AcDbBlockEnd
  0
BLOCK
  5
11C
330
113
100
AcDbEntity
  8
0
100
AcDbBlockBegin
  2
*D10
 70
     1
 10
0.0
 20
0.0
 30
0.0
  3
*D10
  1

  0
LINE
  5
114
330
113
100
AcDbEntity
  8
1
  6
Continuous
 62
     3
100
AcDbLine
 10
189.663754280671
 20
230.8475724487
 30
0.0
 11
189.663754280671
 21
180.8475724487
 31
0.0
  0
LINE
  5
115
330
113
100
AcDbEntity
  8
1
  6
Continuous
 62
     3
100
AcDbLine
 10
161.992125232262
 20
180.8475724487
 30
0.0
 11
172.644580889872
 21
180.8475724487
 31
0.0
  0
LINE
  5
116
330
113
100
AcDbEntity
  8
1
  6
Continuous
 62
     3
100
AcDbLine
 10
174.670462604442
 20
180.8475724487
 30
0.0
 11
191.663754280671
 21
180.8475724487
 31
0.0
  0
LINE
  5
117
330
113
100
AcDbEntity
  8
1
  6
Continuous
 62
     3
100
AcDbLine
 10
161.992125232262
 20
230.8475724487
 30
0.0
 11
179.444710556061
 21
230.8475724487
 31
0.0
  0
LINE
  5
118
330
113
100
AcDbEntity
  8
1
  6
Continuous
 62
     3
100
AcDbLine
 10
182.327356150388
 20
230.8475724487
 30
0.0
 11
191.663754280671
 21
230.8475724487
 31
0.0
  0
SOLID
  5
119
330
113
100
AcDbEntity
  8
1
 62
     3
100
AcDbTrace
 10
190.1245380222269
 20
227.3475724487
 30
0.0
 11
189.2029705391151
 21
227.3475724487
 31
0.0
 12
189.663754280671
 22
230.8475724487
 32
0.0
 13
189.663754280671
 23
230.8475724487
 33
0.0
  0
SOLID
  5
11A
330
113
100
AcDbEntity
  8
1
 62
     3
100
AcDbTrace
 10
189.2029705391151
 20
184.3475724487
 30
0.0
 11
190.1245380222269
 21
184.3475724487
 31
0.0
 12
189.663754280671
 22
180.8475724487
 32
0.0
 13
189.663754280671
 23
180.8475724487
 33
0.0
  0
MTEXT
  5
11B
330
113
100
AcDbEntity
  8
1
 62
     4
100
AcDbMText
 10
187.663754280671
 20
201.412341195739
 30
0.0
 40
3.5
 41
0.0
 71
     7
 72
     1
  1
50
  7
CONVERTER_11
 11
0.0
 21
1.0
 31
0.0
 73
     1
 44
0.60024009603842
  0
ENDBLK
  5
11D
330
113
100
AcDbEntity
  8
0
100
AcDbBlockEnd
  0
BLOCK
  5
129
330
120
100
AcDbEntity
  8
0
100
AcDbBlockBegin
  2
*D11
 70
     1
 10
0.0
 20
0.0
 30
0.0
  3
*D11
  1

  0
LINE
  5
121
330
120
100
AcDbEntity
  8
1
  6
Continuous
 62
     3
100
AcDbLine
 10
169.992125232262
 20
230.8475724487
 30
0.0
 11
169.992125232262
 21
238.483480016005
 31
0.0
  0
LINE
  5
122
330
120
100
AcDbEntity
  8
1
  6
Continuous
 62
     3
100
AcDbLine
 10
169.992125232262
 20
225.8475724487
 30
0.0
 11
169.992125232262
 21
230.8475724487
 31
0.0
  0
LINE
  5
123
330
120
100
AcDbEntity
  8
1
  6
Continuous
 62
     3
100
AcDbLine
 10
169.992125232262
 20
218.8475724487
 30
0.0
 11
169.992125232262
 21
225.8475724487
 31
0.0
  0
LINE
  5
124
330
120
100
AcDbEntity
  8
1
  6
Continuous
 62
     3
100
AcDbLine
 10
161.992125232262
 20
230.8475724487
 30
0.0
 11
171.992125232262
 21
230.8475724487
 31
0.0
  0
LINE
  5
125
330
120
100
AcDbEntity
  8
1
  6
Continuous
 62
     3
100
AcDbLine
 10
161.992125232262
 20
225.8475724487
 30
0.0
 11
171.992125232262
 21
225.8475724487
 31
0.0
  0
SOLID
  5
126
330
120
100
AcDbEntity
  8
1
 62
     3
100
AcDbTrace
 10
170.4529089738179
 20
222.3475724487
 30
0.0
 11
169.5313414907061
 21
222.3475724487
 31
0.0
 12
169.992125232262
 22
225.8475724487
 32
0.0
 13
169.992125232262
 23
225.8475724487
 33
0.0
  0
SOLID
  5
127
330
120
100
AcDbEntity
  8
1
 62
     3
100
AcDbTrace
 10
169.5313414907061
 20
234.3475724487
 30
0.0
 11
170.4529089738179
 21
234.3475724487
 31
0.0
 12
169.992125232262
 22
230.8475724487
 32
0.0
 13
169.992125232262
 23
230.8475724487
 33
0.0
  0
MTEXT
  5
128
330
120
100
AcDbEntity
  8
1
 62
     4
100
AcDbMText
 10
167.992125232262
 20
236.383480016005
 30
0.0
 40
3.5
 41
0.0
 71
     7
 72
     1
  1
5
  7
CONVERTER_11
 11
0.0
 21
1.0
 31
0.0
 73
     1
 44
0.60024009603842
  0
ENDBLK
  5
12A
330
120
100
AcDbEntity
  8
0
100
AcDbBlockEnd
  0
BLOCK
  5
134
330
12D
100
AcDbEntity
  8
0
100
AcDbBlockBegin
  2
*D12
 70
     1
 10
0.0
 20
0.0
 30
0.0
  3
*D12
  1

  0
LINE
  5
12E
330
12D
100
AcDbEntity
  8
1
  6
Continuous
 62
     3
100
AcDbLine
 10
106.992125232262
 20
238.8475724487
 30
0.0
 11
161.992125232262
 21
238.8475724487
 31
0.0
  0
LINE
  5
12F
330
12D
100
AcDbEntity
  8
1
  6
Continuous
 62
     3
100
AcDbLine
 10
161.992125232262
 20
230.8475724487
 30
0.0
 11
161.992125232262
 21
240.8475724487
 31
0.0
  0
LINE
  5
130
330
12D
100
AcDbEntity
  8
1
  6
Continuous
 62
     3
100
AcDbLine
 10
106.992125232262
 20
230.8475724487
 30
0.0
 11
106.992125232262
 21
240.8475724487
 31
0.0
  0
SOLID
  5
131
330
12D
100
AcDbEntity
  8
1
 62
     3
100
AcDbTrace
 10
110.492125232262
 20
239.3083561902559
 30
0.0
 11
110.492125232262
 21
238.3867887071441
 31
0.0
 12
106.992125232262
 22
238.8475724487
 32
0.0
 13
106.992125232262
 23
238.8475724487
 33
0.0
  0
SOLID
  5
132
330
12D
100
AcDbEntity
  8
1
 62
     3
100
AcDbTrace
 10
158.492125232262
 20
238.3867887071441
 30
0.0
 11
158.492125232262
 21
239.3083561902559
 31
0.0
 12
161.992125232262
 22
238.8475724487
 32
0.0
 13
161.992125232262
 23
238.8475724487
 33
0.0
  0
MTEXT
  5
133
330
12D
100
AcDbEntity
  8
1
 62
     4
100
AcDbMText
 10
131.0971252322704
 20
240.8475654916237
 30
0.0
 40
3.5
 41
0.0
 71
     7
 72
     1
  1
\C4;{\Fgdt;n}\C4;55
  7
CONVERTER_11
 11
0.9999999999970619
 21
2.424068405545306E-6
 31
0.0
 73
     1
 44
0.60024009603842
  0
ENDBLK
  5
135
330
12D
100
AcDbEntity
  8
0
100
AcDbBlockEnd
  0
BLOCK
  5
141
330
138
100
AcDbEntity
  8
0
100
AcDbBlockBegin
  2
*D13
 70
     1
 10
0.0
 20
0.0
 30
0.0
  3
*D13
  1

  0
LINE
  5
139
330
138
100
AcDbEntity
  8
1
  6
Continuous
 62
     3
100
AcDbLine
 10
152.1421252322621
 20
185.8475724487
 30
0.0
 11
146.450374597457
 21
191.5393230835054
 31
0.0
  0
LINE
  5
13A
330
138
100
AcDbEntity
  8
1
  6
Continuous
 62
     3
100
AcDbLine
 10
160.842125232262
 20
185.8475724487
 30
0.0
 11
166.5338758670671
 21
191.5393230835052
 31
0.0
  0
LINE
  5
13B
330
138
100
AcDbEntity
  8
1
  6
Continuous
 62
     3
100
AcDbLine
 10
146.450374597457
 20
191.5393230835054
 30
0.0
 11
145.0361610350839
 21
192.9535366458786
 31
0.0
  0
LINE
  5
13C
330
138
100
AcDbEntity
  8
1
  6
Continuous
 62
     3
100
AcDbLine
 10
166.5338758670671
 20
191.5393230835052
 30
0.0
 11
167.9480894294402
 21
192.9535366458782
 31
0.0
  0
ARC
  5
13D
330
138
100
AcDbEntity
  8
1
  6
Continuous
 62
     3
100
AcDbCircle
 10
156.4921252322619
 20
181.4975724486999
 30
0.0
 40
14.20117993771019
100
AcDbArc
 50
45.0
 51
134.9999999999985
  0
SOLID
  5
13E
330
138
100
AcDbEntity
  8
1
 62
     3
100
AcDbTrace
 10
163.4902608119953
 20
193.3278221897454
 30
0.0
 11
164.0568671109348
 21
194.0546261027309
 31
0.0
 12
166.5338758670671
 22
191.5393230835052
 32
0.0
 13
166.5338758670671
 23
191.5393230835052
 33
0.0
  0
SOLID
  5
13F
330
138
100
AcDbEntity
  8
1
 62
     3
100
AcDbTrace
 10
148.9273833535894
 20
194.054626102731
 30
0.0
 11
149.4939896525289
 21
193.3278221897455
 31
0.0
 12
146.450374597457
 22
191.5393230835054
 32
0.0
 13
146.450374597457
 23
191.5393230835054
 33
0.0
  0
MTEXT
  5
140
330
138
100
AcDbEntity
  8
1
 62
     4
100
AcDbMText
 10
153.1135633239378
 20
197.8035851681137
 30
0.0
 40
3.5
 41
0.0
 71
     7
 72
     1
  1
90{\Fgdt;~}
  7
CONVERTER_11
 11
0.9999999999970619
 21
2.424068405545306E-6
 31
0.0
 73
     1
 44
0.60024009603842
  0
ENDBLK
  5
142
330
138
100
AcDbEntity
  8
0
100
AcDbBlockEnd
  0
BLOCK
  5
150
330
145
100
AcDbEntity
  8
0
100
AcDbBlockBegin
  2
*D14
 70
     1
 10
0.0
 20
0.0
 30
0.0
  3
*D14
  1

  0
LINE
  5
146
330
145
100
AcDbEntity
  8
1
  6
Continuous
 62
     3
100
AcDbLine
 10
134.492125232262
 20
232.789544194672
 30
0.0
 11
134.492125232262
 21
236.0385122449311
 31
0.0
  0
LINE
  5
147
330
145
100
AcDbEntity
  8
1
  6
Continuous
 62
     3
100
AcDbLine
 10
134.492125232262
 20
248.9899524181851
 30
0.0
 11
134.492125232262
 21
254.810548516525
 31
0.0
  0
LINE
  5
148
330
145
100
AcDbEntity
  8
1
  6
Continuous
 62
     3
100
AcDbLine
 10
160.1923253361946
 20
213.1855898969328
 30
0.0
 11
169.698485920966
 21
218.6739742695104
 31
0.0
  0
LINE
  5
149
330
145
100
AcDbEntity
  8
1
  6
Continuous
 62
     3
100
AcDbLine
 10
170.6938104147111
 20
219.2486251339051
 30
0.0
 11
183.3904968802711
 21
226.5790604826125
 31
0.0
  0
LINE
  5
14A
330
145
100
AcDbEntity
  8
1
  6
Continuous
 62
     3
100
AcDbLine
 10
134.492125232262
 20
254.810548516525
 30
0.0
 11
134.492125232262
 21
256.810548516525
 31
0.0
  0
LINE
  5
14B
330
145
100
AcDbEntity
  8
1
  6
Continuous
 62
     3
100
AcDbLine
 10
183.3904968802711
 20
226.5790604826125
 30
0.0
 11
185.12254768784
 21
227.5790604826125
 31
0.0
  0
ARC
  5
14C
330
145
100
AcDbEntity
  8
1
  6
Continuous
 62
     3
100
AcDbCircle
 10
134.492125232262
 20
198.3475724487001
 30
0.0
 40
56.46297606782488
100
AcDbArc
 50
29.99999999999998
 51
90.0
  0
SOLID
  5
14D
330
145
100
AcDbEntity
  8
1
 62
     3
100
AcDbTrace
 10
181.1556883363332
 20
229.3118159470521
 30
0.0
 11
181.939126750675
 21
229.7971105759762
 31
0.0
 12
183.3904968802711
 22
226.5790604826125
 32
0.0
 13
183.3904968802711
 23
226.5790604826125
 33
0.0
  0
SOLID
  5
14E
330
145
100
AcDbEntity
  8
1
 62
     3
100
AcDbTrace
 10
138.0047234285639
 20
255.1626501606827
 30
0.0
 11
137.9761651587664
 21
254.2415252771
 31
0.0
 12
134.492125232262
 22
254.810548516525
 32
0.0
 13
134.492125232262
 23
254.810548516525
 33
0.0
  0
MTEXT
  5
14F
330
145
100
AcDbEntity
  8
1
 62
     4
100
AcDbMText
 10
161.7800525258536
 20
250.194569417924
 30
0.0
 40
3.5
 41
0.0
 71
     7
 72
     1
  1
60{\Fgdt;~}
  7
CONVERTER_11
 11
0.8524005482058546
 21
-0.5228893816270881
 31
0.0
 73
     1
 44
0.60024009603842
  0
ENDBLK
  5
151
330
145
100
AcDbEntity
  8
0
100
AcDbBlockEnd
  0
BLOCK
  5
15E
330
154
100
AcDbEntity
  8
0
100
AcDbBlockBegin
  2
*D15
 70
     1
 10
0.0
 20
0.0
 30
0.0
  3
*D15
  1

  0
LINE
  5
155
330
154
100
AcDbEntity
  8
1
  6
Continuous
 62
     3
100
AcDbLine
 10
110.5626632006413
 20
212.1632537942192
 30
0.0
 11
85.62237809865952
 21
226.5625341115144
 31
0.0
  0
LINE
  5
156
330
154
100
AcDbEntity
  8
1
  6
Continuous
 62
     3
100
AcDbLine
 10
134.492125232262
 20
232.789544194672
 30
0.0
 11
134.492125232262
 21
237.420364524892
 31
0.0
  0
LINE
  5
157
330
154
100
AcDbEntity
  8
1
  6
Continuous
 62
     3
100
AcDbLine
 10
134.492125232262
 20
246.508774327059
 30
0.0
 11
134.492125232262
 21
254.7774957743287
 31
0.0
  0
LINE
  5
158
330
154
100
AcDbEntity
  8
1
  6
Continuous
 62
     3
100
AcDbLine
 10
85.62237809865952
 20
226.5625341115144
 30
0.0
 11
83.89032729109063
 21
227.5625341115144
 31
0.0
  0
LINE
  5
159
330
154
100
AcDbEntity
  8
1
  6
Continuous
 62
     3
100
AcDbLine
 10
134.492125232262
 20
254.7774957743287
 30
0.0
 11
134.492125232262
 21
256.7774957743287
 31
0.0
  0
ARC
  5
15A
330
154
100
AcDbEntity
  8
1
  6
Continuous
 62
     3
100
AcDbCircle
 10
134.492125232262
 20
198.3475724487
 30
0.0
 40
56.42992332562866
100
AcDbArc
 50
90.0
 51
150.0
  0
SOLID
  5
15B
330
154
100
AcDbEntity
  8
1
 62
     3
100
AcDbTrace
 10
131.0080956363793
 20
254.2084092857384
 30
0.0
 11
130.9795206444858
 21
255.1295336507224
 31
0.0
 12
134.492125232262
 22
254.7774957743287
 32
0.0
 13
134.492125232262
 23
254.7774957743287
 33
0.0
  0
SOLID
  5
15C
330
154
100
AcDbEntity
  8
1
 62
     3
100
AcDbTrace
 10
87.07380664849634
 20
229.7805578561752
 30
0.0
 11
87.85723625267055
 21
229.2952490047904
 31
0.0
 12
85.62237809865952
 22
226.5625341115144
 32
0.0
 13
85.62237809865952
 23
226.5625341115144
 33
0.0
  0
MTEXT
  5
15D
330
154
100
AcDbEntity
  8
1
 62
     4
100
AcDbMText
 10
100.2747138883214
 20
245.8664865856877
 30
0.0
 40
3.5
 41
0.0
 71
     7
 72
     1
  1
60{\Fgdt;~}
  7
CONVERTER_11
 11
0.8481675843113826
 21
0.5297279952233919
 31
0.0
 73
     1
 44
0.60024009603842
  0
ENDBLK
  5
15F
330
154
100
AcDbEntity
  8
0
100
AcDbBlockEnd
  0
BLOCK
  5
18D
330
186
100
AcDbEntity
  8
0
100
AcDbBlockBegin
  2
*D16
 70
     1
 10
0.0
 20
0.0
 30
0.0
  3
*D16
  1

  0
LINE
  5
187
330
186
100
AcDbEntity
  8
1
  6
Continuous
 62
     3
100
AcDbLine
 10
178.2196622702749
 20
103.2002590551653
 30
0.0
 11
178.2196622702749
 21
158.2002590551653
 31
0.0
  0
LINE
  5
188
330
186
100
AcDbEntity
  8
1
  6
Continuous
 62
     3
100
AcDbLine
 10
158.2196622702749
 20
158.2002590551653
 30
0.0
 11
180.2196622702749
 21
158.2002590551653
 31
0.0
  0
LINE
  5
189
330
186
100
AcDbEntity
  8
1
  6
Continuous
 62
     3
100
AcDbLine
 10
158.2196622702749
 20
103.2002590551653
 30
0.0
 11
180.2196622702749
 21
103.2002590551653
 31
0.0
  0
SOLID
  5
18A
330
186
100
AcDbEntity
  8
1
 62
     3
100
AcDbTrace
 10
177.758878528719
 20
106.7002590551653
 30
0.0
 11
178.6804460118308
 21
106.7002590551653
 31
0.0
 12
178.2196622702749
 22
103.2002590551653
 32
0.0
 13
178.2196622702749
 23
103.2002590551653
 33
0.0
  0
SOLID
  5
18B
330
186
100
AcDbEntity
  8
1
 62
     3
100
AcDbTrace
 10
178.6804460118308
 20
154.7002590551653
 30
0.0
 11
177.758878528719
 21
154.7002590551653
 31
0.0
 12
178.2196622702749
 22
158.2002590551653
 32
0.0
 13
178.2196622702749
 23
158.2002590551653
 33
0.0
  0
MTEXT
  5
18C
330
186
100
AcDbEntity
  8
1
 62
     4
100
AcDbMText
 10
176.2196622702749
 20
128.466311424891
 30
0.0
 40
3.5
 41
0.0
 71
     7
 72
     1
  1
55
  7
CONVERTER_11
 11
0.0
 21
1.0
 31
0.0
 73
     1
 44
0.60024009603842
  0
ENDBLK
  5
18E
330
186
100
AcDbEntity
  8
0
100
AcDbBlockEnd
  0
BLOCK
  5
198
330
191
100
AcDbEntity
  8
0
100
AcDbBlockBegin
  2
*D17
 70
     1
 10
0.0
 20
0.0
 30
0.0
  3
*D17
  1

  0
LINE
  5
192
330
191
100
AcDbEntity
  8
1
  6
Continuous
 62
     3
100
AcDbLine
 10
170.2196622702749
 20
108.7002590551653
 30
0.0
 11
170.2196622702749
 21
152.7002590551653
 31
0.0
  0
LINE
  5
193
330
191
100
AcDbEntity
  8
1
  6
Continuous
 62
     3
100
AcDbLine
 10
159.5696622702746
 20
152.7002590551653
 30
0.0
 11
172.2196622702749
 21
152.7002590551653
 31
0.0
  0
LINE
  5
194
330
191
100
AcDbEntity
  8
1
  6
Continuous
 62
     3
100
AcDbLine
 10
159.5696622702749
 20
108.7002590551653
 30
0.0
 11
172.2196622702749
 21
108.7002590551653
 31
0.0
  0
SOLID
  5
195
330
191
100
AcDbEntity
  8
1
 62
     3
100
AcDbTrace
 10
169.758878528719
 20
112.2002590551653
 30
0.0
 11
170.6804460118308
 21
112.2002590551653
 31
0.0
 12
170.2196622702749
 22
108.7002590551653
 32
0.0
 13
170.2196622702749
 23
108.7002590551653
 33
0.0
  0
SOLID
  5
196
330
191
100
AcDbEntity
  8
1
 62
     3
100
AcDbTrace
 10
170.6804460118308
 20
149.2002590551653
 30
0.0
 11
169.758878528719
 21
149.2002590551653
 31
0.0
 12
170.2196622702749
 22
152.7002590551653
 32
0.0
 13
170.2196622702749
 23
152.7002590551653
 33
0.0
  0
MTEXT
  5
197
330
191
100
AcDbEntity
  8
1
 62
     4
100
AcDbMText
 10
168.2196622702749
 20
128.466311424891
 30
0.0
 40
3.5
 41
0.0
 71
     7
 72
     1
  1
44
  7
CONVERTER_11
 11
0.0
 21
1.0
 31
0.0
 73
     1
 44
0.60024009603842
  0
ENDBLK
  5
199
330
191
100
AcDbEntity
  8
0
100
AcDbBlockEnd
  0
BLOCK
  5
1A3
330
19C
100
AcDbEntity
  8
0
100
AcDbBlockBegin
  2
*D18
 70
     1
 10
0.0
 20
0.0
 30
0.0
  3
*D18
  1

  0
LINE
  5
19D
330
19C
100
AcDbEntity
  8
1
  6
Continuous
 62
     3
100
AcDbLine
 10
105.2196622702749
 20
85.1665300817669
 30
0.0
 11
160.2196622702749
 21
85.1665300817669
 31
0.0
  0
LINE
  5
19E
330
19C
100
AcDbEntity
  8
1
  6
Continuous
 62
     3
100
AcDbLine
 10
160.2196622702749
 20
105.2002590551654
 30
0.0
 11
160.2196622702749
 21
83.1665300817669
 31
0.0
  0
LINE
  5
19F
330
19C
100
AcDbEntity
  8
1
  6
Continuous
 62
     3
100
AcDbLine
 10
105.2196622702749
 20
105.2002590551654
 30
0.0
 11
105.2196622702749
 21
83.1665300817669
 31
0.0
  0
SOLID
  5
1A0
330
19C
100
AcDbEntity
  8
1
 62
     3
100
AcDbTrace
 10
108.7196622702749
 20
85.62731382332278
 30
0.0
 11
108.7196622702749
 21
84.70574634021101
 31
0.0
 12
105.2196622702749
 22
85.1665300817669
 32
0.0
 13
105.2196622702749
 23
85.1665300817669
 33
0.0
  0
SOLID
  5
1A1
330
19C
100
AcDbEntity
  8
1
 62
     3
100
AcDbTrace
 10
156.7196622702749
 20
84.70574634021101
 30
0.0
 11
156.7196622702749
 21
85.62731382332278
 31
0.0
 12
160.2196622702749
 22
85.1665300817669
 32
0.0
 13
160.2196622702749
 23
85.1665300817669
 33
0.0
  0
MTEXT
  5
1A2
330
19C
100
AcDbEntity
  8
1
 62
     4
100
AcDbMText
 10
129.544474618771
 20
87.1665300817669
 30
0.0
 40
3.5
 41
0.0
 71
     7
 72
     1
  1
55
  7
CONVERTER_11
 11
0.9999999999970619
 21
2.424068405545306E-6
 31
0.0
 73
     1
 44
0.60024009603842
  0
ENDBLK
  5
1A4
330
19C
100
AcDbEntity
  8
0
100
AcDbBlockEnd
  0
BLOCK
  5
1AE
330
1A7
100
AcDbEntity
  8
0
100
AcDbBlockBegin
  2
*D19
 70
     1
 10
0.0
 20
0.0
 30
0.0
  3
*D19
  1

  0
LINE
  5
1A8
330
1A7
100
AcDbEntity
  8
1
  6
Continuous
 62
     3
100
AcDbLine
 10
110.7196622702749
 20
93.1665300817669
 30
0.0
 11
154.7196622702749
 21
93.1665300817669
 31
0.0
  0
LINE
  5
1A9
330
1A7
100
AcDbEntity
  8
1
  6
Continuous
 62
     3
100
AcDbLine
 10
154.7196622702749
 20
103.8502590551653
 30
0.0
 11
154.7196622702749
 21
91.1665300817669
 31
0.0
  0
LINE
  5
1AA
330
1A7
100
AcDbEntity
  8
1
  6
Continuous
 62
     3
100
AcDbLine
 10
110.7196622702749
 20
103.8502590551656
 30
0.0
 11
110.7196622702749
 21
91.1665300817669
 31
0.0
  0
SOLID
  5
1AB
330
1A7
100
AcDbEntity
  8
1
 62
     3
100
AcDbTrace
 10
114.2196622702749
 20
93.62731382332278
 30
0.0
 11
114.2196622702749
 21
92.70574634021101
 31
0.0
 12
110.7196622702749
 22
93.1665300817669
 32
0.0
 13
110.7196622702749
 23
93.1665300817669
 33
0.0
  0
SOLID
  5
1AC
330
1A7
100
AcDbEntity
  8
1
 62
     3
100
AcDbTrace
 10
151.2196622702749
 20
92.70574634021101
 30
0.0
 11
151.2196622702749
 21
93.62731382332278
 31
0.0
 12
154.7196622702749
 22
93.1665300817669
 32
0.0
 13
154.7196622702749
 23
93.1665300817669
 33
0.0
  0
MTEXT
  5
1AD
330
1A7
100
AcDbEntity
  8
1
 62
     4
100
AcDbMText
 10
129.76941366781
 20
95.1665300817669
 30
0.0
 40
3.5
 41
0.0
 71
     7
 72
     1
  1
44
  7
CONVERTER_11
 11
0.9999999999970619
 21
2.424068405545306E-6
 31
0.0
 73
     1
 44
0.60024009603842
  0
ENDBLK
  5
1AF
330
1A7
100
AcDbEntity
  8
0
100
AcDbBlockEnd
  0
ENDSEC
  0
SECTION
  2
ENTITIES
  0
INSERT
  5
7C
330
1F
100
AcDbEntity
  8
1
100
AcDbBlockReference
  2
Mat_-Nr_Tabelle
 10
118.276169668279
 20
47.81541522464147
 30
0.0
  0
INSERT
  5
7D
330
1F
100
AcDbEntity
  8
1
100
AcDbBlockReference
  2
Untersicht
 10
79.39252613866199
 20
168.5728154002316
 30
0.0
  0
INSERT
  5
7E
330
1F
100
AcDbEntity
  8
1
100
AcDbBlockReference
  2
Vorderansicht
 10
102.7196622702749
 20
86.87107781119687
 30
0.0
  0
INSERT
  5
7F
330
1F
100
AcDbEntity
  8
1
100
AcDbBlockReference
  2
ISO_Ansicht
 10
24.0066684218749
 20
43.0
 30
0.0
  0
INSERT
  5
80
330
1F
100
AcDbEntity
  8
0
100
AcDbBlockReference
  2
Rahmen
 10
0.0
 20
0.0
 30
0.0
  0
LINE
  5
4A9
330
1F
100
AcDbEntity
  8
1
  6
Continuous
 62
     1
100
AcDbLine
 10
134.492125232262
 20
230.8475724487
 30
0.0
 11
106.992125232262
 21
230.8475724487
 31
0.0
  0
ENDSEC
  0
SECTION
  2
OBJECTS
  0
DICTIONARY
  5
C
330
0
100
AcDbDictionary
281
     1
  3
ACAD_GROUP
350
D
  3
ACAD_LAYOUT
350
1A
  3
ACAD_MATERIAL
350
3B
  3
ACAD_MLEADERSTYLE
350
4AC
  3
ACAD_MLINESTYLE
350
17
  3
ACAD_PLOTSETTINGS
350
19
  3
ACAD_PLOTSTYLENAME
350
E
  3
ACAD_SCALELIST
350
57
  3
ACAD_VISUALSTYLE
350
2A
  3
AcDbVariableDictionary
350
4AA
  0
DICTIONARY
  5
D
102
{ACAD_REACTORS
330
C
102
}
330
C
100
AcDbDictionary
281
     1
  0
DICTIONARY
  5
1A
102
{ACAD_REACTORS
330
C
102
}
330
C
100
AcDbDictionary
281
     1
  3
Layout1
350
1E
  3
Layout2
350
26
  3
Model
350
22
  0
DICTIONARY
  5
3B
102
{ACAD_REACTORS
330
C
102
}
330
C
100
AcDbDictionary
281
     1
  3
ByBlock
350
3D
  3
ByLayer
350
3C
  3
Global
350
3E
  0
DICTIONARY
  5
4AC
102
{ACAD_REACTORS
330
C
102
}
330
C
100
AcDbDictionary
281
     1
  0
DICTIONARY
  5
17
102
{ACAD_REACTORS
330
C
102
}
330
C
100
AcDbDictionary
281
     1
  3
Standard
350
18
  0
DICTIONARY
  5
19
102
{ACAD_REACTORS
330
C
102
}
330
C
100
AcDbDictionary
281
     1
  0
ACDBDICTIONARYWDFLT
  5
E
102
{ACAD_REACTORS
330
C
102
}
330
C
100
AcDbDictionary
281
     1
  3
Normal
350
F
100
AcDbDictionaryWithDefault
340
F
  0
DICTIONARY
  5
57
102
{ACAD_REACTORS
330
C
102
}
330
C
100
AcDbDictionary
281
     1
  3
A0
350
58
  3
A1
350
59
  3
A2
350
5A
  3
A3
350
5B
  3
A4
350
5C
  3
A5
350
5D
  3
A6
350
5E
  3
A7
350
5F
  3
A8
350
60
  3
A9
350
61
  3
B0
350
62
  3
B1
350
63
  3
B2
350
64
  3
B3
350
65
  3
B4
350
66
  3
B5
350
67
  3
B6
350
68
  3
B7
350
69
  3
B8
350
6A
  3
B9
350
6B
  3
C0
350
6C
  3
C1
350
6D
  3
C2
350
6E
  3
C3
350
6F
  3
C4
350
70
  3
C5
350
71
  3
C6
350
72
  3
C7
350
73
  3
C8
350
74
  3
C9
350
75
  3
D0
350
76
  3
D1
350
77
  3
D2
350
78
  0
DICTIONARY
  5
2A
102
{ACAD_REACTORS
330
C
102
}
330
C
100
AcDbDictionary
281
     1
  3
2dWireframe
350
2F
  3
3D Hidden
350
31
  3
3dWireframe
350
30
  3
Basic
350
32
  3
Brighten
350
36
  3
ColorChange
350
3A
  3
Conceptual
350
34
  3
Dim
350
35
  3
Facepattern
350
39
  3
Flat
350
2B
  3
FlatWithEdges
350
2C
  3
Gouraud
350
2D
  3
GouraudWithEdges
350
2E
  3
Linepattern
350
38
  3
Realistic
350
33
  3
Thicken
350
37
  0
DICTIONARY
  5
4AA
102
{ACAD_REACTORS
330
C
102
}
330
C
100
AcDbDictionary
281
     1
  3
CANNOSCALE
350
4AD
  3
DIMASSOC
350
4AE
  3
HIDETEXT
350
4AF
  0
LAYOUT
  5
1E
102
{ACAD_REACTORS
330
1A
102
}
330
1A
100
AcDbPlotSettings
  1

  2
none_device
  4

  6

 40
0.0
 41
0.0
 42
0.0
 43
0.0
 44
0.0
 45
0.0
 46
0.0
 47
0.0
 48
0.0
 49
0.0
140
0.0
141
0.0
142
1.0
143
1.0
 70
   688
 72
     0
 73
     0
 74
     5
  7

 75
    16
147
1.0
148
0.0
149
0.0
100
AcDbLayout
  1
Layout1
 70
     1
 71
     1
 10
0.0
 20
0.0
 11
12.0
 21
9.0
 12
0.0
 22
0.0
 32
0.0
 14
1.00000000000000E+20
 24
1.00000000000000E+20
 34
1.00000000000000E+20
 15
-1.00000000000000E+20
 25
-1.00000000000000E+20
 35
-1.00000000000000E+20
146
0.0
 13
0.0
 23
0.0
 33
0.0
 16
1.0
 26
0.0
 36
0.0
 17
0.0
 27
1.0
 37
0.0
 76
     0
330
1B
  0
LAYOUT
  5
26
102
{ACAD_REACTORS
330
1A
102
}
330
1A
100
AcDbPlotSettings
  1

  2
none_device
  4

  6

 40
0.0
 41
0.0
 42
0.0
 43
0.0
 44
0.0
 45
0.0
 46
0.0
 47
0.0
 48
0.0
 49
0.0
140
0.0
141
0.0
142
1.0
143
1.0
 70
   688
 72
     0
 73
     0
 74
     5
  7

 75
    16
147
1.0
148
0.0
149
0.0
100
AcDbLayout
  1
Layout2
 70
     1
 71
     2
 10
0.0
 20
0.0
 11
0.0
 21
0.0
 12
0.0
 22
0.0
 32
0.0
 14
0.0
 24
0.0
 34
0.0
 15
0.0
 25
0.0
 35
0.0
146
0.0
 13
0.0
 23
0.0
 33
0.0
 16
1.0
 26
0.0
 36
0.0
 17
0.0
 27
1.0
 37
0.0
 76
     0
330
23
  0
LAYOUT
  5
22
102
{ACAD_REACTORS
330
1A
102
}
330
1A
100
AcDbPlotSettings
  1

  2
none_device
  4

  6

 40
0.0
 41
0.0
 42
0.0
 43
0.0
 44
0.0
 45
0.0
 46
0.0
 47
0.0
 48
0.0
 49
0.0
140
0.0
141
0.0
142
1.0
143
1.0
 70
  1712
 72
     0
 73
     0
 74
     0
  7

 75
     0
147
1.0
148
0.0
149
0.0
100
AcDbLayout
  1
Model
 70
     1
 71
     0
 10
0.0
 20
0.0
 11
12.0
 21
9.0
 12
0.0
 22
0.0
 32
0.0
 14
0.0
 24
0.0
 34
0.0
 15
197.5066684218749
 25
287.0
 35
0.0
146
0.0
 13
0.0
 23
0.0
 33
0.0
 16
1.0
 26
0.0
 36
0.0
 17
0.0
 27
1.0
 37
0.0
 76
     0
330
1F
331
29
  0
MATERIAL
  5
3D
102
{ACAD_REACTORS
330
3B
102
}
102
{ACAD_XDICTIONARY
360
4D2
102
}
330
3B
100
AcDbMaterial
  1
ByBlock
  0
MATERIAL
  5
3C
102
{ACAD_REACTORS
330
3B
102
}
102
{ACAD_XDICTIONARY
360
4D0
102
}
330
3B
100
AcDbMaterial
  1
ByLayer
  0
MATERIAL
  5
3E
102
{ACAD_REACTORS
330
3B
102
}
102
{ACAD_XDICTIONARY
360
4D4
102
}
330
3B
100
AcDbMaterial
  1
Global
  0
MLINESTYLE
  5
18
102
{ACAD_REACTORS
330
17
102
}
330
17
100
AcDbMlineStyle
  2
Standard
 70
     0
  3

 62
   256
 51
90.0
 52
90.0
 71
     2
 49
0.5
 62
   256
  6
BYLAYER
 49
-0.5
 62
   256
  6
BYLAYER
  0
ACDBPLACEHOLDER
  5
F
102
{ACAD_REACTORS
330
E
102
}
330
E
  0
SCALE
  5
58
102
{ACAD_REACTORS
330
57
102
}
330
57
100
AcDbScale
 70
     0
300
1:1
140
1.0
141
1.0
290
     1
  0
SCALE
  5
59
102
{ACAD_REACTORS
330
57
102
}
330
57
100
AcDbScale
 70
     0
300
1:2
140
1.0
141
2.0
290
     0
  0
SCALE
  5
5A
102
{ACAD_REACTORS
330
57
102
}
330
57
100
AcDbScale
 70
     0
300
1:4
140
1.0
141
4.0
290
     0
  0
SCALE
  5
5B
102
{ACAD_REACTORS
330
57
102
}
330
57
100
AcDbScale
 70
     0
300
1:5
140
1.0
141
5.0
290
     0
  0
SCALE
  5
5C
102
{ACAD_REACTORS
330
57
102
}
330
57
100
AcDbScale
 70
     0
300
1:8
140
1.0
141
8.0
290
     0
  0
SCALE
  5
5D
102
{ACAD_REACTORS
330
57
102
}
330
57
100
AcDbScale
 70
     0
300
1:10
140
1.0
141
10.0
290
     0
  0
SCALE
  5
5E
102
{ACAD_REACTORS
330
57
102
}
330
57
100
AcDbScale
 70
     0
300
1:16
140
1.0
141
16.0
290
     0
  0
SCALE
  5
5F
102
{ACAD_REACTORS
330
57
102
}
330
57
100
AcDbScale
 70
     0
300
1:20
140
1.0
141
20.0
290
     0
  0
SCALE
  5
60
102
{ACAD_REACTORS
330
57
102
}
330
57
100
AcDbScale
 70
     0
300
1:30
140
1.0
141
30.0
290
     0
  0
SCALE
  5
61
102
{ACAD_REACTORS
330
57
102
}
330
57
100
AcDbScale
 70
     0
300
1:40
140
1.0
141
40.0
290
     0
  0
SCALE
  5
62
102
{ACAD_REACTORS
330
57
102
}
330
57
100
AcDbScale
 70
     0
300
1:50
140
1.0
141
50.0
290
     0
  0
SCALE
  5
63
102
{ACAD_REACTORS
330
57
102
}
330
57
100
AcDbScale
 70
     0
300
1:100
140
1.0
141
100.0
290
     0
  0
SCALE
  5
64
102
{ACAD_REACTORS
330
57
102
}
330
57
100
AcDbScale
 70
     0
300
2:1
140
2.0
141
1.0
290
     0
  0
SCALE
  5
65
102
{ACAD_REACTORS
330
57
102
}
330
57
100
AcDbScale
 70
     0
300
4:1
140
4.0
141
1.0
290
     0
  0
SCALE
  5
66
102
{ACAD_REACTORS
330
57
102
}
330
57
100
AcDbScale
 70
     0
300
8:1
140
8.0
141
1.0
290
     0
  0
SCALE
  5
67
102
{ACAD_REACTORS
330
57
102
}
330
57
100
AcDbScale
 70
     0
300
10:1
140
10.0
141
1.0
290
     0
  0
SCALE
  5
68
102
{ACAD_REACTORS
330
57
102
}
330
57
100
AcDbScale
 70
     0
300
100:1
140
100.0
141
1.0
290
     0
  0
SCALE
  5
69
102
{ACAD_REACTORS
330
57
102
}
330
57
100
AcDbScale
 70
     0
300
1/128" = 1'-0"
140
0.0078125
141
12.0
290
     0
  0
SCALE
  5
6A
102
{ACAD_REACTORS
330
57
102
}
330
57
100
AcDbScale
 70
     0
300
1/64" = 1'-0"
140
0.015625
141
12.0
290
     0
  0
SCALE
  5
6B
102
{ACAD_REACTORS
330
57
102
}
330
57
100
AcDbScale
 70
     0
300
1/32" = 1'-0"
140
0.03125
141
12.0
290
     0
  0
SCALE
  5
6C
102
{ACAD_REACTORS
330
57
102
}
330
57
100
AcDbScale
 70
     0
300
1/16" = 1'-0"
140
0.0625
141
12.0
290
     0
  0
SCALE
  5
6D
102
{ACAD_REACTORS
330
57
102
}
330
57
100
AcDbScale
 70
     0
300
3/32" = 1'-0"
140
0.09375
141
12.0
290
     0
  0
SCALE
  5
6E
102
{ACAD_REACTORS
330
57
102
}
330
57
100
AcDbScale
 70
     0
300
1/8" = 1'-0"
140
0.125
141
12.0
290
     0
  0
SCALE
  5
6F
102
{ACAD_REACTORS
330
57
102
}
330
57
100
AcDbScale
 70
     0
300
3/16" = 1'-0"
140
0.1875
141
12.0
290
     0
  0
SCALE
  5
70
102
{ACAD_REACTORS
330
57
102
}
330
57
100
AcDbScale
 70
     0
300
1/4" = 1'-0"
140
0.25
141
12.0
290
     0
  0
SCALE
  5
71
102
{ACAD_REACTORS
330
57
102
}
330
57
100
AcDbScale
 70
     0
300
3/8" = 1'-0"
140
0.375
141
12.0
290
     0
  0
SCALE
  5
72
102
{ACAD_REACTORS
330
57
102
}
330
57
100
AcDbScale
 70
     0
300
1/2" = 1'-0"
140
0.5
141
12.0
290
     0
  0
SCALE
  5
73
102
{ACAD_REACTORS
330
57
102
}
330
57
100
AcDbScale
 70
     0
300
3/4" = 1'-0"
140
0.75
141
12.0
290
     0
  0
SCALE
  5
74
102
{ACAD_REACTORS
330
57
102
}
330
57
100
AcDbScale
 70
     0
300
1" = 1'-0"
140
1.0
141
12.0
290
     0
  0
SCALE
  5
75
102
{ACAD_REACTORS
330
57
102
}
330
57
100
AcDbScale
 70
     0
300
1-1/2" = 1'-0"
140
1.5
141
12.0
290
     0
  0
SCALE
  5
76
102
{ACAD_REACTORS
330
57
102
}
330
57
100
AcDbScale
 70
     0
300
3" = 1'-0"
140
3.0
141
12.0
290
     0
  0
SCALE
  5
77
102
{ACAD_REACTORS
330
57
102
}
330
57
100
AcDbScale
 70
     0
300
6" = 1'-0"
140
6.0
141
12.0
290
     0
  0
SCALE
  5
78
102
{ACAD_REACTORS
330
57
102
}
330
57
100
AcDbScale
 70
     0
300
1'-0" = 1'-0"
140
12.0
141
12.0
290
     0
  0
VISUALSTYLE
  5
2F
102
{ACAD_REACTORS
330
2A
102
}
102
{ACAD_XDICTIONARY
360
4B8
102
}
330
2A
100
AcDbVisualStyle
  2
2dWireframe
 70
     4
 71
     0
 72
     2
 73
     0
 90
        0
 40
-0.6
 41
-30.0
 62
     5
 63
     7
 74
     1
 91
        4
 64
     7
 65
   257
 75
     1
175
     1
 42
1.0
 92
        0
 66
   257
 43
1.0
 76
     1
 77
     6
 78
     2
 67
     7
 79
     5
170
     0
171
     0
290
     0
174
     0
 93
        1
 44
0.0
173
     0
291
     0
 45
0.0
1001
ACAD
1000
AcDbSavedByObjectVersion
1070
     0
  0
VISUALSTYLE
  5
31
102
{ACAD_REACTORS
330
2A
102
}
102
{ACAD_XDICTIONARY
360
4BC
102
}
330
2A
100
AcDbVisualStyle
  2
3D Hidden
 70
     6
 71
     1
 72
     2
 73
     2
 90
        0
 40
-0.6
 41
-30.0
 62
     5
 63
     7
 74
     2
 91
        2
 64
     7
 65
   257
 75
     2
175
     1
 42
40.0
 92
        0
 66
   257
 43
1.0
 76
     1
 77
     6
 78
     2
 67
     7
 79
     3
170
     0
171
     0
290
     0
174
     0
 93
        1
 44
0.0
173
     0
291
     0
 45
0.0
1001
ACAD
1000
AcDbSavedByObjectVersion
1070
     0
  0
VISUALSTYLE
  5
30
102
{ACAD_REACTORS
330
2A
102
}
102
{ACAD_XDICTIONARY
360
4BA
102
}
330
2A
100
AcDbVisualStyle
  2
3dWireframe
 70
     5
 71
     0
 72
     2
 73
     0
 90
        0
 40
-0.6
 41
-30.0
 62
     5
 63
     7
 74
     1
 91
        4
 64
     7
 65
   257
 75
     1
175
     1
 42
1.0
 92
        0
 66
   257
 43
1.0
 76
     1
 77
     6
 78
     2
 67
     7
 79
     5
170
     0
171
     0
290
     0
174
     0
 93
        1
 44
0.0
173
     0
291
     0
 45
0.0
1001
ACAD
1000
AcDbSavedByObjectVersion
1070
     0
  0
VISUALSTYLE
  5
32
102
{ACAD_REACTORS
330
2A
102
}
102
{ACAD_XDICTIONARY
360
4BE
102
}
330
2A
100
AcDbVisualStyle
  2
Basic
 70
     7
 71
     1
 72
     0
 73
     1
 90
        0
 40
-0.6
 41
-30.0
 62
     5
 63
     7
 74
     0
 91
        4
 64
     7
 65
   257
 75
     1
175
     1
 42
1.0
 92
        8
 66
     7
 43
1.0
 76
     1
 77
     6
 78
     2
 67
     7
 79
     5
170
     0
171
     0
290
     0
174
     0
 93
        1
 44
0.0
173
     0
291
     1
 45
0.0
1001
ACAD
1000
AcDbSavedByObjectVersion
1070
     0
  0
VISUALSTYLE
  5
36
102
{ACAD_REACTORS
330
2A
102
}
102
{ACAD_XDICTIONARY
360
4C6
102
}
330
2A
100
AcDbVisualStyle
  2
Brighten
 70
    12
 71
     2
 72
     2
 73
     0
 90
        0
 40
-0.6
 41
-30.0
 62
     5
 63
     7
 74
     1
 91
        4
 64
     7
 65
   257
 75
     1
175
     1
 42
1.0
 92
        8
 66
     7
 43
1.0
 76
     1
 77
     6
 78
     2
 67
     7
 79
     5
170
     0
171
     0
290
     0
174
     0
 93
        1
 44
50.0
173
     0
291
     1
 45
0.0
1001
ACAD
1000
AcDbSavedByObjectVersion
1070
     0
  0
VISUALSTYLE
  5
3A
102
{ACAD_REACTORS
330
2A
102
}
102
{ACAD_XDICTIONARY
360
4CE
102
}
330
2A
100
AcDbVisualStyle
  2
ColorChange
 70
    16
 71
     2
 72
     2
 73
     3
 90
        0
 40
-0.6
 41
-30.0
 62
     5
 63
     8
 74
     1
 91
        4
 64
     7
 65
   257
 75
     1
175
     1
 42
1.0
 92
        8
 66
     8
 43
1.0
 76
     1
 77
     6
 78
     2
 67
     7
 79
     5
170
     0
171
     0
290
     0
174
     0
 93
        1
 44
0.0
173
     0
291
     1
 45
0.0
1001
ACAD
1000
AcDbSavedByObjectVersion
1070
     0
  0
VISUALSTYLE
  5
34
102
{ACAD_REACTORS
330
2A
102
}
102
{ACAD_XDICTIONARY
360
4C2
102
}
330
2A
100
AcDbVisualStyle
  2
Conceptual
 70
     9
 71
     3
 72
     2
 73
     0
 90
        0
 40
-0.6
 41
-30.0
 62
     5
 63
     7
 74
     2
 91
        2
 64
     7
 65
   257
 75
     1
175
     1
 42
40.0
 92
        8
 66
     7
 43
1.0
 76
     1
 77
     6
 78
     2
 67
     7
 79
     3
170
     0
171
     0
290
     0
174
     0
 93
        1
 44
0.0
173
     0
291
     0
 45
0.0
1001
ACAD
1000
AcDbSavedByObjectVersion
1070
     0
  0
VISUALSTYLE
  5
35
102
{ACAD_REACTORS
330
2A
102
}
102
{ACAD_XDICTIONARY
360
4C4
102
}
330
2A
100
AcDbVisualStyle
  2
Dim
 70
    11
 71
     2
 72
     2
 73
     0
 90
        0
 40
-0.6
 41
-30.0
 62
     5
 63
     7
 74
     1
 91
        4
 64
     7
 65
   257
 75
     1
175
     1
 42
1.0
 92
        8
 66
     7
 43
1.0
 76
     1
 77
     6
 78
     2
 67
     7
 79
     5
170
     0
171
     0
290
     0
174
     0
 93
        1
 44
-50.0
173
     0
291
     1
 45
0.0
1001
ACAD
1000
AcDbSavedByObjectVersion
1070
     0
  0
VISUALSTYLE
  5
39
102
{ACAD_REACTORS
330
2A
102
}
102
{ACAD_XDICTIONARY
360
4CC
102
}
330
2A
100
AcDbVisualStyle
  2
Facepattern
 70
    15
 71
     2
 72
     2
 73
     0
 90
        0
 40
-0.6
 41
-30.0
 62
     5
 63
     7
 74
     1
 91
        4
 64
     7
 65
   257
 75
     1
175
     1
 42
1.0
 92
        8
 66
     7
 43
1.0
 76
     1
 77
     6
 78
     2
 67
     7
 79
     5
170
     0
171
     0
290
     0
174
     0
 93
        1
 44
0.0
173
     0
291
     1
 45
0.0
1001
ACAD
1000
AcDbSavedByObjectVersion
1070
     0
  0
VISUALSTYLE
  5
2B
102
{ACAD_REACTORS
330
2A
102
}
102
{ACAD_XDICTIONARY
360
4B0
102
}
330
2A
100
AcDbVisualStyle
  2
Flat
 70
     0
 71
     2
 72
     1
 73
     1
 90
        2
 40
-0.6
 41
30.0
 62
     5
 63
     7
 74
     0
 91
        4
 64
     7
 65
   257
 75
     1
175
     1
 42
1.0
 92
        8
 66
     7
 43
1.0
 76
     1
 77
     6
 78
     2
 67
     7
 79
     5
170
     0
171
     0
290
     0
174
     0
 93
       13
 44
0.0
173
     0
291
     1
 45
0.0
1001
ACAD
1000
AcDbSavedByObjectVersion
1070
     0
  0
VISUALSTYLE
  5
2C
102
{ACAD_REACTORS
330
2A
102
}
102
{ACAD_XDICTIONARY
360
4B2
102
}
330
2A
100
AcDbVisualStyle
  2
FlatWithEdges
 70
     1
 71
     2
 72
     1
 73
     1
 90
        2
 40
-0.6
 41
30.0
 62
     5
 63
     7
 74
     1
 91
        4
 64
     7
 65
   257
 75
     1
175
     1
 42
1.0
 92
        0
 66
   257
 43
1.0
 76
     1
 77
     6
 78
     2
 67
     7
 79
     5
170
     0
171
     0
290
     0
174
     0
 93
       13
 44
0.0
173
     0
291
     1
 45
0.0
1001
ACAD
1000
AcDbSavedByObjectVersion
1070
     0
  0
VISUALSTYLE
  5
2D
102
{ACAD_REACTORS
330
2A
102
}
102
{ACAD_XDICTIONARY
360
4B4
102
}
330
2A
100
AcDbVisualStyle
  2
Gouraud
 70
     2
 71
     2
 72
     2
 73
     1
 90
        2
 40
-0.6
 41
30.0
 62
     5
 63
     7
 74
     0
 91
        4
 64
     7
 65
   257
 75
     1
175
     1
 42
1.0
 92
        0
 66
     7
 43
1.0
 76
     1
 77
     6
 78
     2
 67
     7
 79
     5
170
     0
171
     0
290
     0
174
     0
 93
       13
 44
0.0
173
     0
291
     1
 45
0.0
1001
ACAD
1000
AcDbSavedByObjectVersion
1070
     0
  0
VISUALSTYLE
  5
2E
102
{ACAD_REACTORS
330
2A
102
}
102
{ACAD_XDICTIONARY
360
4B6
102
}
330
2A
100
AcDbVisualStyle
  2
GouraudWithEdges
 70
     3
 71
     2
 72
     2
 73
     1
 90
        2
 40
-0.6
 41
30.0
 62
     5
 63
     7
 74
     1
 91
        4
 64
     7
 65
   257
 75
     1
175
     1
 42
1.0
 92
        0
 66
   257
 43
1.0
 76
     1
 77
     6
 78
     2
 67
     7
 79
     5
170
     0
171
     0
290
     0
174
     0
 93
       13
 44
0.0
173
     0
291
     1
 45
0.0
1001
ACAD
1000
AcDbSavedByObjectVersion
1070
     0
  0
VISUALSTYLE
  5
38
102
{ACAD_REACTORS
330
2A
102
}
102
{ACAD_XDICTIONARY
360
4CA
102
}
330
2A
100
AcDbVisualStyle
  2
Linepattern
 70
    14
 71
     2
 72
     2
 73
     0
 90
        0
 40
-0.6
 41
-30.0
 62
     5
 63
     7
 74
     1
 91
        4
 64
     7
 65
   257
 75
     7
175
     7
 42
1.0
 92
        8
 66
     7
 43
1.0
 76
     1
 77
     6
 78
     2
 67
     7
 79
     5
170
     0
171
     0
290
     0
174
     0
 93
        1
 44
0.0
173
     0
291
     1
 45
0.0
1001
ACAD
1000
AcDbSavedByObjectVersion
1070
     0
  0
VISUALSTYLE
  5
33
102
{ACAD_REACTORS
330
2A
102
}
102
{ACAD_XDICTIONARY
360
4C0
102
}
330
2A
100
AcDbVisualStyle
  2
Realistic
 70
     8
 71
     2
 72
     2
 73
     0
 90
        0
 40
-0.6
 41
-30.0
 62
     5
 63
     7
 74
     1
 91
        0
 64
     7
 65
   257
 75
     1
175
     1
 42
1.0
 92
        8
 66
     8
 43
1.0
 76
     1
 77
     6
 78
     2
 67
     7
 79
     5
170
     0
171
     0
290
     0
174
     0
 93
       13
 44
0.0
173
     0
291
     0
 45
0.0
1001
ACAD
1000
AcDbSavedByObjectVersion
1070
     0
  0
VISUALSTYLE
  5
37
102
{ACAD_REACTORS
330
2A
102
}
102
{ACAD_XDICTIONARY
360
4C8
102
}
330
2A
100
AcDbVisualStyle
  2
Thicken
 70
    13
 71
     2
 72
     2
 73
     0
 90
        0
 40
-0.6
 41
-30.0
 62
     5
 63
     7
 74
     1
 91
        4
 64
     7
 65
   257
 75
     1
175
     1
 42
1.0
 92
       12
 66
     7
 43
1.0
 76
     1
 77
     6
 78
     2
 67
     7
 79
     5
170
     0
171
     0
290
     0
174
     0
 93
        1
 44
0.0
173
     0
291
     1
 45
0.0
1001
ACAD
1000
AcDbSavedByObjectVersion
1070
     0
  0
DICTIONARYVAR
  5
4AD
102
{ACAD_REACTORS
330
4AA
102
}
330
4AA
100
DictionaryVariables
280
     0
  1
1:1
  0
DICTIONARYVAR
  5
4AE
102
{ACAD_REACTORS
330
4AA
102
}
330
4AA
100
DictionaryVariables
280
     0
  1
2
  0
DICTIONARYVAR
  5
4AF
102
{ACAD_REACTORS
330
4AA
102
}
330
4AA
100
DictionaryVariables
280
     0
  1
1
  0
DICTIONARY
  5
4D2
330
3D
100
AcDbDictionary
280
     1
281
     1
  3
ACAD_XREC_ROUNDTRIP
360
4D3
  0
DICTIONARY
  5
4D0
330
3C
100
AcDbDictionary
280
     1
281
     1
  3
ACAD_XREC_ROUNDTRIP
360
4D1
  0
DICTIONARY
  5
4D4
330
3E
100
AcDbDictionary
280
     1
281
     1
  3
ACAD_XREC_ROUNDTRIP
360
4D5
  0
DICTIONARY
  5
4B8
330
2F
100
AcDbDictionary
280
     1
281
     1
  3
ACAD_XREC_ROUNDTRIP
360
4B9
  0
DICTIONARY
  5
4BC
330
31
100
AcDbDictionary
280
     1
281
     1
  3
ACAD_XREC_ROUNDTRIP
360
4BD
  0
DICTIONARY
  5
4BA
330
30
100
AcDbDictionary
280
     1
281
     1
  3
ACAD_XREC_ROUNDTRIP
360
4BB
  0
DICTIONARY
  5
4BE
330
32
100
AcDbDictionary
280
     1
281
     1
  3
ACAD_XREC_ROUNDTRIP
360
4BF
  0
DICTIONARY
  5
4C6
330
36
100
AcDbDictionary
280
     1
281
     1
  3
ACAD_XREC_ROUNDTRIP
360
4C7
  0
DICTIONARY
  5
4CE
330
3A
100
AcDbDictionary
280
     1
281
     1
  3
ACAD_XREC_ROUNDTRIP
360
4CF
  0
DICTIONARY
  5
4C2
330
34
100
AcDbDictionary
280
     1
281
     1
  3
ACAD_XREC_ROUNDTRIP
360
4C3
  0
DICTIONARY
  5
4C4
330
35
100
AcDbDictionary
280
     1
281
     1
  3
ACAD_XREC_ROUNDTRIP
360
4C5
  0
DICTIONARY
  5
4CC
330
39
100
AcDbDictionary
280
     1
281
     1
  3
ACAD_XREC_ROUNDTRIP
360
4CD
  0
DICTIONARY
  5
4B0
330
2B
100
AcDbDictionary
280
     1
281
     1
  3
ACAD_XREC_ROUNDTRIP
360
4B1
  0
DICTIONARY
  5
4B2
330
2C
100
AcDbDictionary
280
     1
281
     1
  3
ACAD_XREC_ROUNDTRIP
360
4B3
  0
DICTIONARY
  5
4B4
330
2D
100
AcDbDictionary
280
     1
281
     1
  3
ACAD_XREC_ROUNDTRIP
360
4B5
  0
DICTIONARY
  5
4B6
330
2E
100
AcDbDictionary
280
     1
281
     1
  3
ACAD_XREC_ROUNDTRIP
360
4B7
  0
DICTIONARY
  5
4CA
330
38
100
AcDbDictionary
280
     1
281
     1
  3
ACAD_XREC_ROUNDTRIP
360
4CB
  0
DICTIONARY
  5
4C0
330
33
100
AcDbDictionary
280
     1
281
     1
  3
ACAD_XREC_ROUNDTRIP
360
4C1
  0
DICTIONARY
  5
4C8
330
37
100
AcDbDictionary
280
     1
281
     1
  3
ACAD_XREC_ROUNDTRIP
360
4C9
  0
XRECORD
  5
4D3
102
{ACAD_REACTORS
330
4D2
102
}
330
4D2
100
AcDbXrecord
280
     1
102
MATERIAL
148
0.0
149
0.0
149
0.0
 93
        0
 94
      127
282
     0
 72
     1
 77
     1
171
     1
175
     1
179
     1
273
     0
  0
XRECORD
  5
4D1
102
{ACAD_REACTORS
330
4D0
102
}
330
4D0
100
AcDbXrecord
280
     1
102
MATERIAL
148
0.0
149
0.0
149
0.0
 93
        0
 94
      127
282
     0
 72
     1
 77
     1
171
     1
175
     1
179
     1
273
     0
  0
XRECORD
  5
4D5
102
{ACAD_REACTORS
330
4D4
102
}
330
4D4
100
AcDbXrecord
280
     1
102
MATERIAL
148
0.0
149
0.0
149
0.0
 93
        0
 94
      127
282
     0
 72
     1
 77
     1
171
     1
175
     1
179
     1
273
     0
  0
XRECORD
  5
4B9
102
{ACAD_REACTORS
330
4B8
102
}
330
4B8
100
AcDbXrecord
280
     1
102
RTVSPropertyOp0
 70
     1
102
RTVSPropertyOp1
 70
     1
102
RTVSPropertyOp2
 70
     1
102
RTVSPropertyOp3
 70
     1
102
RTVSPropertyOp4
 70
     1
102
RTVSPropertyOp5
 70
     1
102
RTVSPropertyOp6
 70
     1
102
RTVSPropertyOp7
 70
     1
102
RTVSPropertyOp8
 70
     1
102
RTVSPropertyOp9
 70
     1
102
RTVSPropertyOp10
 70
     1
102
RTVSPropertyOp11
 70
     1
102
RTVSPropertyOp12
 70
     1
102
RTVSPropertyOp13
 70
     1
102
RTVSPropertyOp14
 70
     1
102
RTVSPropertyOp15
 70
     1
102
RTVSPropertyOp16
 70
     1
102
RTVSPropertyOp17
 70
     1
102
RTVSPropertyOp18
 70
     1
102
RTVSPropertyOp19
 70
     1
102
RTVSPropertyOp20
 70
     1
102
RTVSPropertyOp21
 70
     1
102
RTVSPropertyOp22
 70
     1
102
RTVSPropertyOp23
 70
     1
102
RTVSPropertyOp24
 70
     1
102
RTVSPropertyOp25
 70
     1
102
RTVSPropertyOp26
 70
     1
102
RTVSPropertyOp27
 70
     1
  0
XRECORD
  5
4BD
102
{ACAD_REACTORS
330
4BC
102
}
330
4BC
100
AcDbXrecord
280
     1
102
RTVSPropertyOp0
 70
     1
102
RTVSPropertyOp1
 70
     1
102
RTVSPropertyOp2
 70
     1
102
RTVSPropertyOp3
 70
     1
102
RTVSPropertyOp4
 70
     1
102
RTVSPropertyOp5
 70
     1
102
RTVSPropertyOp6
 70
     1
102
RTVSPropertyOp7
 70
     1
102
RTVSPropertyOp8
 70
     1
102
RTVSPropertyOp9
 70
     1
102
RTVSPropertyOp10
 70
     1
102
RTVSPropertyOp11
 70
     1
102
RTVSPropertyOp12
 70
     1
102
RTVSPropertyOp13
 70
     1
102
RTVSPropertyOp14
 70
     1
102
RTVSPropertyOp15
 70
     1
102
RTVSPropertyOp16
 70
     1
102
RTVSPropertyOp17
 70
     1
102
RTVSPropertyOp18
 70
     1
102
RTVSPropertyOp19
 70
     1
102
RTVSPropertyOp20
 70
     1
102
RTVSPropertyOp21
 70
     1
102
RTVSPropertyOp22
 70
     1
102
RTVSPropertyOp23
 70
     1
102
RTVSPropertyOp24
 70
     1
102
RTVSPropertyOp25
 70
     1
102
RTVSPropertyOp26
 70
     1
102
RTVSPropertyOp27
 70
     1
  0
XRECORD
  5
4BB
102
{ACAD_REACTORS
330
4BA
102
}
330
4BA
100
AcDbXrecord
280
     1
102
RTVSPropertyOp0
 70
     1
102
RTVSPropertyOp1
 70
     1
102
RTVSPropertyOp2
 70
     1
102
RTVSPropertyOp3
 70
     1
102
RTVSPropertyOp4
 70
     1
102
RTVSPropertyOp5
 70
     1
102
RTVSPropertyOp6
 70
     1
102
RTVSPropertyOp7
 70
     1
102
RTVSPropertyOp8
 70
     1
102
RTVSPropertyOp9
 70
     1
102
RTVSPropertyOp10
 70
     1
102
RTVSPropertyOp11
 70
     1
102
RTVSPropertyOp12
 70
     1
102
RTVSPropertyOp13
 70
     1
102
RTVSPropertyOp14
 70
     1
102
RTVSPropertyOp15
 70
     1
102
RTVSPropertyOp16
 70
     1
102
RTVSPropertyOp17
 70
     1
102
RTVSPropertyOp18
 70
     1
102
RTVSPropertyOp19
 70
     1
102
RTVSPropertyOp20
 70
     1
102
RTVSPropertyOp21
 70
     1
102
RTVSPropertyOp22
 70
     1
102
RTVSPropertyOp23
 70
     1
102
RTVSPropertyOp24
 70
     1
102
RTVSPropertyOp25
 70
     1
102
RTVSPropertyOp26
 70
     1
102
RTVSPropertyOp27
 70
     1
  0
XRECORD
  5
4BF
102
{ACAD_REACTORS
330
4BE
102
}
330
4BE
100
AcDbXrecord
280
     1
102
RTVSPropertyOp0
 70
     1
102
RTVSPropertyOp1
 70
     1
102
RTVSPropertyOp2
 70
     1
102
RTVSPropertyOp3
 70
     1
102
RTVSPropertyOp4
 70
     1
102
RTVSPropertyOp5
 70
     1
102
RTVSPropertyOp6
 70
     1
102
RTVSPropertyOp7
 70
     1
102
RTVSPropertyOp8
 70
     1
102
RTVSPropertyOp9
 70
     1
102
RTVSPropertyOp10
 70
     1
102
RTVSPropertyOp11
 70
     1
102
RTVSPropertyOp12
 70
     1
102
RTVSPropertyOp13
 70
     1
102
RTVSPropertyOp14
 70
     1
102
RTVSPropertyOp15
 70
     1
102
RTVSPropertyOp16
 70
     1
102
RTVSPropertyOp17
 70
     1
102
RTVSPropertyOp18
 70
     1
102
RTVSPropertyOp19
 70
     1
102
RTVSPropertyOp20
 70
     1
102
RTVSPropertyOp21
 70
     1
102
RTVSPropertyOp22
 70
     1
102
RTVSPropertyOp23
 70
     1
102
RTVSPropertyOp24
 70
     1
102
RTVSPropertyOp25
 70
     1
102
RTVSPropertyOp26
 70
     1
102
RTVSPropertyOp27
 70
     1
  0
XRECORD
  5
4C7
102
{ACAD_REACTORS
330
4C6
102
}
330
4C6
100
AcDbXrecord
280
     1
102
RTVSPropertyOp0
 70
     1
102
RTVSPropertyOp1
 70
     1
102
RTVSPropertyOp2
 70
     1
102
RTVSPropertyOp3
 70
     1
102
RTVSPropertyOp4
 70
     1
102
RTVSPropertyOp5
 70
     1
102
RTVSPropertyOp6
 70
     1
102
RTVSPropertyOp7
 70
     1
102
RTVSPropertyOp8
 70
     1
102
RTVSPropertyOp9
 70
     1
102
RTVSPropertyOp10
 70
     1
102
RTVSPropertyOp11
 70
     1
102
RTVSPropertyOp12
 70
     1
102
RTVSPropertyOp13
 70
     1
102
RTVSPropertyOp14
 70
     1
102
RTVSPropertyOp15
 70
     1
102
RTVSPropertyOp16
 70
     1
102
RTVSPropertyOp17
 70
     1
102
RTVSPropertyOp18
 70
     1
102
RTVSPropertyOp19
 70
     1
102
RTVSPropertyOp20
 70
     1
102
RTVSPropertyOp21
 70
     1
102
RTVSPropertyOp22
 70
     1
102
RTVSPropertyOp23
 70
     1
102
RTVSPropertyOp24
 70
     1
102
RTVSPropertyOp25
 70
     1
102
RTVSPropertyOp26
 70
     1
102
RTVSPropertyOp27
 70
     1
  0
XRECORD
  5
4CF
102
{ACAD_REACTORS
330
4CE
102
}
330
4CE
100
AcDbXrecord
280
     1
102
RTVSPropertyOp0
 70
     1
102
RTVSPropertyOp1
 70
     1
102
RTVSPropertyOp2
 70
     1
102
RTVSPropertyOp3
 70
     1
102
RTVSPropertyOp4
 70
     1
102
RTVSPropertyOp5
 70
     1
102
RTVSPropertyOp6
 70
     1
102
RTVSPropertyOp7
 70
     1
102
RTVSPropertyOp8
 70
     1
102
RTVSPropertyOp9
 70
     1
102
RTVSPropertyOp10
 70
     1
102
RTVSPropertyOp11
 70
     1
102
RTVSPropertyOp12
 70
     1
102
RTVSPropertyOp13
 70
     1
102
RTVSPropertyOp14
 70
     1
102
RTVSPropertyOp15
 70
     1
102
RTVSPropertyOp16
 70
     1
102
RTVSPropertyOp17
 70
     1
102
RTVSPropertyOp18
 70
     1
102
RTVSPropertyOp19
 70
     1
102
RTVSPropertyOp20
 70
     1
102
RTVSPropertyOp21
 70
     1
102
RTVSPropertyOp22
 70
     1
102
RTVSPropertyOp23
 70
     1
102
RTVSPropertyOp24
 70
     1
102
RTVSPropertyOp25
 70
     1
102
RTVSPropertyOp26
 70
     1
102
RTVSPropertyOp27
 70
     1
  0
XRECORD
  5
4C3
102
{ACAD_REACTORS
330
4C2
102
}
330
4C2
100
AcDbXrecord
280
     1
102
RTVSPropertyOp0
 70
     1
102
RTVSPropertyOp1
 70
     1
102
RTVSPropertyOp2
 70
     1
102
RTVSPropertyOp3
 70
     1
102
RTVSPropertyOp4
 70
     1
102
RTVSPropertyOp5
 70
     1
102
RTVSPropertyOp6
 70
     1
102
RTVSPropertyOp7
 70
     1
102
RTVSPropertyOp8
 70
     1
102
RTVSPropertyOp9
 70
     1
102
RTVSPropertyOp10
 70
     1
102
RTVSPropertyOp11
 70
     1
102
RTVSPropertyOp12
 70
     1
102
RTVSPropertyOp13
 70
     1
102
RTVSPropertyOp14
 70
     1
102
RTVSPropertyOp15
 70
     1
102
RTVSPropertyOp16
 70
     1
102
RTVSPropertyOp17
 70
     1
102
RTVSPropertyOp18
 70
     1
102
RTVSPropertyOp19
 70
     1
102
RTVSPropertyOp20
 70
     1
102
RTVSPropertyOp21
 70
     1
102
RTVSPropertyOp22
 70
     1
102
RTVSPropertyOp23
 70
     1
102
RTVSPropertyOp24
 70
     1
102
RTVSPropertyOp25
 70
     1
102
RTVSPropertyOp26
 70
     1
102
RTVSPropertyOp27
 70
     1
  0
XRECORD
  5
4C5
102
{ACAD_REACTORS
330
4C4
102
}
330
4C4
100
AcDbXrecord
280
     1
102
RTVSPropertyOp0
 70
     1
102
RTVSPropertyOp1
 70
     1
102
RTVSPropertyOp2
 70
     1
102
RTVSPropertyOp3
 70
     1
102
RTVSPropertyOp4
 70
     1
102
RTVSPropertyOp5
 70
     1
102
RTVSPropertyOp6
 70
     1
102
RTVSPropertyOp7
 70
     1
102
RTVSPropertyOp8
 70
     1
102
RTVSPropertyOp9
 70
     1
102
RTVSPropertyOp10
 70
     1
102
RTVSPropertyOp11
 70
     1
102
RTVSPropertyOp12
 70
     1
102
RTVSPropertyOp13
 70
     1
102
RTVSPropertyOp14
 70
     1
102
RTVSPropertyOp15
 70
     1
102
RTVSPropertyOp16
 70
     1
102
RTVSPropertyOp17
 70
     1
102
RTVSPropertyOp18
 70
     1
102
RTVSPropertyOp19
 70
     1
102
RTVSPropertyOp20
 70
     1
102
RTVSPropertyOp21
 70
     1
102
RTVSPropertyOp22
 70
     1
102
RTVSPropertyOp23
 70
     1
102
RTVSPropertyOp24
 70
     1
102
RTVSPropertyOp25
 70
     1
102
RTVSPropertyOp26
 70
     1
102
RTVSPropertyOp27
 70
     1
  0
XRECORD
  5
4CD
102
{ACAD_REACTORS
330
4CC
102
}
330
4CC
100
AcDbXrecord
280
     1
102
RTVSPropertyOp0
 70
     1
102
RTVSPropertyOp1
 70
     1
102
RTVSPropertyOp2
 70
     1
102
RTVSPropertyOp3
 70
     1
102
RTVSPropertyOp4
 70
     1
102
RTVSPropertyOp5
 70
     1
102
RTVSPropertyOp6
 70
     1
102
RTVSPropertyOp7
 70
     1
102
RTVSPropertyOp8
 70
     1
102
RTVSPropertyOp9
 70
     1
102
RTVSPropertyOp10
 70
     1
102
RTVSPropertyOp11
 70
     1
102
RTVSPropertyOp12
 70
     1
102
RTVSPropertyOp13
 70
     1
102
RTVSPropertyOp14
 70
     1
102
RTVSPropertyOp15
 70
     1
102
RTVSPropertyOp16
 70
     1
102
RTVSPropertyOp17
 70
     1
102
RTVSPropertyOp18
 70
     1
102
RTVSPropertyOp19
 70
     1
102
RTVSPropertyOp20
 70
     1
102
RTVSPropertyOp21
 70
     1
102
RTVSPropertyOp22
 70
     1
102
RTVSPropertyOp23
 70
     1
102
RTVSPropertyOp24
 70
     1
102
RTVSPropertyOp25
 70
     1
102
RTVSPropertyOp26
 70
     1
102
RTVSPropertyOp27
 70
     1
  0
XRECORD
  5
4B1
102
{ACAD_REACTORS
330
4B0
102
}
330
4B0
100
AcDbXrecord
280
     1
102
RTVSPropertyOp0
 70
     1
102
RTVSPropertyOp1
 70
     1
102
RTVSPropertyOp2
 70
     1
102
RTVSPropertyOp3
 70
     1
102
RTVSPropertyOp4
 70
     1
102
RTVSPropertyOp5
 70
     1
102
RTVSPropertyOp6
 70
     1
102
RTVSPropertyOp7
 70
     1
102
RTVSPropertyOp8
 70
     1
102
RTVSPropertyOp9
 70
     1
102
RTVSPropertyOp10
 70
     1
102
RTVSPropertyOp11
 70
     1
102
RTVSPropertyOp12
 70
     1
102
RTVSPropertyOp13
 70
     1
102
RTVSPropertyOp14
 70
     1
102
RTVSPropertyOp15
 70
     1
102
RTVSPropertyOp16
 70
     1
102
RTVSPropertyOp17
 70
     1
102
RTVSPropertyOp18
 70
     1
102
RTVSPropertyOp19
 70
     1
102
RTVSPropertyOp20
 70
     1
102
RTVSPropertyOp21
 70
     1
102
RTVSPropertyOp22
 70
     1
102
RTVSPropertyOp23
 70
     1
102
RTVSPropertyOp24
 70
     1
102
RTVSPropertyOp25
 70
     1
102
RTVSPropertyOp26
 70
     1
102
RTVSPropertyOp27
 70
     1
  0
XRECORD
  5
4B3
102
{ACAD_REACTORS
330
4B2
102
}
330
4B2
100
AcDbXrecord
280
     1
102
RTVSPropertyOp0
 70
     1
102
RTVSPropertyOp1
 70
     1
102
RTVSPropertyOp2
 70
     1
102
RTVSPropertyOp3
 70
     1
102
RTVSPropertyOp4
 70
     1
102
RTVSPropertyOp5
 70
     1
102
RTVSPropertyOp6
 70
     1
102
RTVSPropertyOp7
 70
     1
102
RTVSPropertyOp8
 70
     1
102
RTVSPropertyOp9
 70
     1
102
RTVSPropertyOp10
 70
     1
102
RTVSPropertyOp11
 70
     1
102
RTVSPropertyOp12
 70
     1
102
RTVSPropertyOp13
 70
     1
102
RTVSPropertyOp14
 70
     1
102
RTVSPropertyOp15
 70
     1
102
RTVSPropertyOp16
 70
     1
102
RTVSPropertyOp17
 70
     1
102
RTVSPropertyOp18
 70
     1
102
RTVSPropertyOp19
 70
     1
102
RTVSPropertyOp20
 70
     1
102
RTVSPropertyOp21
 70
     1
102
RTVSPropertyOp22
 70
     1
102
RTVSPropertyOp23
 70
     1
102
RTVSPropertyOp24
 70
     1
102
RTVSPropertyOp25
 70
     1
102
RTVSPropertyOp26
 70
     1
102
RTVSPropertyOp27
 70
     1
  0
XRECORD
  5
4B5
102
{ACAD_REACTORS
330
4B4
102
}
330
4B4
100
AcDbXrecord
280
     1
102
RTVSPropertyOp0
 70
     1
102
RTVSPropertyOp1
 70
     1
102
RTVSPropertyOp2
 70
     1
102
RTVSPropertyOp3
 70
     1
102
RTVSPropertyOp4
 70
     1
102
RTVSPropertyOp5
 70
     1
102
RTVSPropertyOp6
 70
     1
102
RTVSPropertyOp7
 70
     1
102
RTVSPropertyOp8
 70
     1
102
RTVSPropertyOp9
 70
     1
102
RTVSPropertyOp10
 70
     1
102
RTVSPropertyOp11
 70
     1
102
RTVSPropertyOp12
 70
     1
102
RTVSPropertyOp13
 70
     1
102
RTVSPropertyOp14
 70
     1
102
RTVSPropertyOp15
 70
     1
102
RTVSPropertyOp16
 70
     1
102
RTVSPropertyOp17
 70
     1
102
RTVSPropertyOp18
 70
     1
102
RTVSPropertyOp19
 70
     1
102
RTVSPropertyOp20
 70
     1
102
RTVSPropertyOp21
 70
     1
102
RTVSPropertyOp22
 70
     1
102
RTVSPropertyOp23
 70
     1
102
RTVSPropertyOp24
 70
     1
102
RTVSPropertyOp25
 70
     1
102
RTVSPropertyOp26
 70
     1
102
RTVSPropertyOp27
 70
     1
  0
XRECORD
  5
4B7
102
{ACAD_REACTORS
330
4B6
102
}
330
4B6
100
AcDbXrecord
280
     1
102
RTVSPropertyOp0
 70
     1
102
RTVSPropertyOp1
 70
     1
102
RTVSPropertyOp2
 70
     1
102
RTVSPropertyOp3
 70
     1
102
RTVSPropertyOp4
 70
     1
102
RTVSPropertyOp5
 70
     1
102
RTVSPropertyOp6
 70
     1
102
RTVSPropertyOp7
 70
     1
102
RTVSPropertyOp8
 70
     1
102
RTVSPropertyOp9
 70
     1
102
RTVSPropertyOp10
 70
     1
102
RTVSPropertyOp11
 70
     1
102
RTVSPropertyOp12
 70
     1
102
RTVSPropertyOp13
 70
     1
102
RTVSPropertyOp14
 70
     1
102
RTVSPropertyOp15
 70
     1
102
RTVSPropertyOp16
 70
     1
102
RTVSPropertyOp17
 70
     1
102
RTVSPropertyOp18
 70
     1
102
RTVSPropertyOp19
 70
     1
102
RTVSPropertyOp20
 70
     1
102
RTVSPropertyOp21
 70
     1
102
RTVSPropertyOp22
 70
     1
102
RTVSPropertyOp23
 70
     1
102
RTVSPropertyOp24
 70
     1
102
RTVSPropertyOp25
 70
     1
102
RTVSPropertyOp26
 70
     1
102
RTVSPropertyOp27
 70
     1
  0
XRECORD
  5
4CB
102
{ACAD_REACTORS
330
4CA
102
}
330
4CA
100
AcDbXrecord
280
     1
102
RTVSPropertyOp0
 70
     1
102
RTVSPropertyOp1
 70
     1
102
RTVSPropertyOp2
 70
     1
102
RTVSPropertyOp3
 70
     1
102
RTVSPropertyOp4
 70
     1
102
RTVSPropertyOp5
 70
     1
102
RTVSPropertyOp6
 70
     1
102
RTVSPropertyOp7
 70
     1
102
RTVSPropertyOp8
 70
     1
102
RTVSPropertyOp9
 70
     1
102
RTVSPropertyOp10
 70
     1
102
RTVSPropertyOp11
 70
     1
102
RTVSPropertyOp12
 70
     1
102
RTVSPropertyOp13
 70
     1
102
RTVSPropertyOp14
 70
     1
102
RTVSPropertyOp15
 70
     1
102
RTVSPropertyOp16
 70
     1
102
RTVSPropertyOp17
 70
     1
102
RTVSPropertyOp18
 70
     1
102
RTVSPropertyOp19
 70
     1
102
RTVSPropertyOp20
 70
     1
102
RTVSPropertyOp21
 70
     1
102
RTVSPropertyOp22
 70
     1
102
RTVSPropertyOp23
 70
     1
102
RTVSPropertyOp24
 70
     1
102
RTVSPropertyOp25
 70
     1
102
RTVSPropertyOp26
 70
     1
102
RTVSPropertyOp27
 70
     1
  0
XRECORD
  5
4C1
102
{ACAD_REACTORS
330
4C0
102
}
330
4C0
100
AcDbXrecord
280
     1
102
RTVSPropertyOp0
 70
     1
102
RTVSPropertyOp1
 70
     1
102
RTVSPropertyOp2
 70
     1
102
RTVSPropertyOp3
 70
     1
102
RTVSPropertyOp4
 70
     1
102
RTVSPropertyOp5
 70
     1
102
RTVSPropertyOp6
 70
     1
102
RTVSPropertyOp7
 70
     1
102
RTVSPropertyOp8
 70
     1
102
RTVSPropertyOp9
 70
     1
102
RTVSPropertyOp10
 70
     1
102
RTVSPropertyOp11
 70
     1
102
RTVSPropertyOp12
 70
     1
102
RTVSPropertyOp13
 70
     1
102
RTVSPropertyOp14
 70
     1
102
RTVSPropertyOp15
 70
     1
102
RTVSPropertyOp16
 70
     1
102
RTVSPropertyOp17
 70
     1
102
RTVSPropertyOp18
 70
     1
102
RTVSPropertyOp19
 70
     1
102
RTVSPropertyOp20
 70
     1
102
RTVSPropertyOp21
 70
     1
102
RTVSPropertyOp22
 70
     1
102
RTVSPropertyOp23
 70
     1
102
RTVSPropertyOp24
 70
     1
102
RTVSPropertyOp25
 70
     1
102
RTVSPropertyOp26
 70
     1
102
RTVSPropertyOp27
 70
     1
  0
XRECORD
  5
4C9
102
{ACAD_REACTORS
330
4C8
102
}
330
4C8
100
AcDbXrecord
280
     1
102
RTVSPropertyOp0
 70
     1
102
RTVSPropertyOp1
 70
     1
102
RTVSPropertyOp2
 70
     1
102
RTVSPropertyOp3
 70
     1
102
RTVSPropertyOp4
 70
     1
102
RTVSPropertyOp5
 70
     1
102
RTVSPropertyOp6
 70
     1
102
RTVSPropertyOp7
 70
     1
102
RTVSPropertyOp8
 70
     1
102
RTVSPropertyOp9
 70
     1
102
RTVSPropertyOp10
 70
     1
102
RTVSPropertyOp11
 70
     1
102
RTVSPropertyOp12
 70
     1
102
RTVSPropertyOp13
 70
     1
102
RTVSPropertyOp14
 70
     1
102
RTVSPropertyOp15
 70
     1
102
RTVSPropertyOp16
 70
     1
102
RTVSPropertyOp17
 70
     1
102
RTVSPropertyOp18
 70
     1
102
RTVSPropertyOp19
 70
     1
102
RTVSPropertyOp20
 70
     1
102
RTVSPropertyOp21
 70
     1
102
RTVSPropertyOp22
 70
     1
102
RTVSPropertyOp23
 70
     1
102
RTVSPropertyOp24
 70
     1
102
RTVSPropertyOp25
 70
     1
102
RTVSPropertyOp26
 70
     1
102
RTVSPropertyOp27
 70
     1
  0
ENDSEC
  0
EOF
